Nanci Griffith - Flyer (1994)

Download Now

Nanci Griffith - Flyer (1994)

Nanci Griffith - Flyer (1994)
EAC | FLAC | Image (Cue&Log) ~ 386 Mb (incl 5%) | Mp3 (CBR320) ~ 162 Mb (incl 5%) | Scans included
Genre: Country-Folk, Singer/Songwriter | Label: Elektra | # 61681 | Time: 00:56:07

"Flyer is a 15-track studio album, primarily of original material by the singer-songwriter Nanci Griffith, released in 1994. It was nominated for Best Contemporary Folk Album in the 37th Annual Grammy Awards. The album has contributions from Peter Buck, Mark Knopfler, Emmylou Harris, Larry Mullen Jr., Adam Clayton, Adam Duritz, The Chieftains and the Indigo Girls."

"After getting increased exposure with her exquisite cover album Other Voices, Other Rooms, Nanci Griffith emerged with an album of originals that demonstrated to her new fans that she was more than just an interpreter of songs. She has always been a gifted and versatile songwriter with a knack for stepping inside her characters in story songs, but she writes from a more personal perspective on this album. With the help of high-profile friends from U2, Dire Straits, Indigo Girls, and Counting Crows, she incorporates more rock & roll instrumentation (electric guitar, piano, drums) into her acoustically based music. In fact, many of the highlights of this album involve collaborations. Mark Knopfler (Dire Straits) adds his usual tasteful guitar work in "Don't Forget About Me," and Adam Duritz of Counting Crows delivers perhaps his best vocal performance in the playful duet "Going Back to Georgia." As in previous releases, she wrestles with issues of love and loss; however, the songs resonate on a deeper level as she writes from the perspective of someone who has seen and done a lot but still longs to connect souls with one special person ("Southbound Train," "On Grafton Street"). Although she falters a bit when choosing to tackle politics ("Time of Inconvenience"), this is her most consistent album of original songs in almost a decade.

Review by Vik Iyengar, Allmusic.com
"




Tracklist:

01. The Flyer (04:23)
02. Nobody's Angel (04:15)
03. Say It Isn't So (03:19)
04. Southbound Train (04:31)
05. These Days In An Open Book (03:32)
06. Time Of Inconvenience (03:49)
07. Don't Forget About Me (02:58)
08. Always Will (02:42)
09. Going Back To Georgia (04:16)
10. Talk To Me While I'm Listening (04:12)
11. Fragile (03:26)
12. On Grafton Street (04:02)
13. Anything You Need But Me (03:07)
14. Goodnight To A Mother's Dream (04:03)
15. This Heart (03:25)


Exact Audio Copy V1.0 beta 6 from 9. April 2015

EAC extraction logfile from 2. July 2015, 14:38

Nanci Griffith / Flyer

Used drive : ASUS SDRW-08D1S-U Adapter: 1 ID: 1

Read mode : Secure
Utilize accurate stream : Yes
Defeat audio cache : Yes
Make use of C2 pointers : No

Read offset correction

: 667
Overread into Lead-In and Lead-Out : No
Fill up missing offset samples with silence : Yes
Delete leading and trailing silent blocks : No
Null samples used in CRC calculations : Yes
Used interface
: Native Win32 interface for Win NT & 2000

Used output format : User Defined Encoder
Selected bitrate : 128 kBit/s
Quality : High
Add ID3 tag : No
Command line compressor : C:\Program Files (x86)\Exact Audio Copy\Flac\flac.exe
Additional command line options : -V -8 -T "Date=%year%" -T "Genre=%genre%" %source%

TOC of the extracted CD Track | Start | Length | Start sector | End sector
--1 | 0:00.32 | 4:23.35 | 32 | 19791 2 | 4:23.67 | 4:15.35 | 19792 | 38951 3 | 8:39.27 | 3:19.00 | 38952 | 53876 4 | 11:58.27 | 4:31.73 | 53877 | 74274 5 | 16:30.25 | 3:32.70 | 74275 | 90244 6 | 20:03.20 | 3:49.27 | 90245 | 107446 7 | 23:52.47 | 2:58.73 | 107447 | 120869 8 | 26:51.45 | 2:42.17 | 120870 | 133036 9 | 29:33.62 | 4:16.15 | 133037 | 152251
10 | 33:50.02 | 4:12.68 | 152252 | 171219
11 | 38:02.70 | 3:26.00 | 171220 | 186669
12 | 41:28.70 | 4:02.40 | 186670 | 204859
13 | 45:31.35 | 3:07.37 | 204860 | 218921
14 | 48:38.72 | 4:03.03 | 218922 | 237149
15 | 52:42.00 | 3:25.30 | 237150 | 252554

Range status and errors

Selected range Filename C:\Users\Олег\Desktop\Nanci Griffith\Nanci Griffith - Flyer.wav Peak level 100.0 %
Extraction speed 3.9 X
Range quality 100.0 %
Test CRC E0510425
Copy CRC E0510425
Copy OK

No errors occurred


AccurateRip summary

Track 1 accurately ripped (confidence 74) [44A9F16C] (AR v2)
Track 2 accurately ripped (confidence 73) [4F9FCA88] (AR v2)
Track 3 accurately ripped (confidence 74) [28958A71] (AR v2)
Track 4 accurately ripped (confidence 72) [15EE1716] (AR v2)
Track 5 accurately ripped (confidence 73) [CCDD94DE] (AR v2)
Track 6 accurately ripped (confidence 73) [F789EE9C] (AR v2)
Track 7 accurately ripped (confidence 74) [E99CC020] (AR v2)
Track 8 accurately ripped (confidence 73) [F11B9A30] (AR v2)
Track 9 accurately ripped (confidence 73) [28E8F0B9] (AR v2)
Track 10 accurately ripped (confidence 74) [093463BA] (AR v2)
Track 11 accurately ripped (confidence 73) [EB74B48A] (AR v2)
Track 12 accurately ripped (confidence 73) [CAC8FBEF] (AR v2)
Track 13 accurately ripped (confidence 73) [C70EE2D0] (AR v2)
Track 14 accurately ripped (confidence 72) [3B2C4CCD] (AR v2)
Track 15 accurately ripped (confidence 71) [D6E70645] (AR v2)

All tracks accurately ripped

End of status report

- CUETools DB Plugin V2.1.6

[CTDB TOCID: Fptkh509RLtdU4jjve8b.DQRqOs-] found
Submit result: Fptkh509RLtdU4jjve8b.DQRqOs- has been confirmed
Track | CTDB Status
1 | (12/12) Accurately ripped
2 | (12/12) Accurately ripped
3 | (12/12) Accurately ripped
4 | (12/12) Accurately ripped
5 | (12/12) Accurately ripped
6 | (12/12) Accurately ripped
7 | (12/12) Accurately ripped
8 | (12/12) Accurately ripped
9 | (12/12) Accurately ripped
10 | (12/12) Accurately ripped
11 | (12/12) Accurately ripped
12 | (12/12) Accurately ripped
13 | (12/12) Accurately ripped
14 | (12/12) Accurately ripped
15 | (12/12) Accurately ripped

==== Log checksum 375F64AB2A8FBEB7F311CCFB3FA041FCDFCF077FB2284926839587FD13F42096 ====

foobar2000 1.2 / Dynamic Range Meter 1.1.1
log date: 2015-07-02 21:29:05

Analyzed: Nanci Griffith / Flyer

DR Peak RMS Duration Track

DR10 0.00 dB -11.80 dB 4:23 01-The Flyer
DR12 -0.22 dB -15.19 dB 4:15 02-Nobody's Angel
DR10 0.00 dB -11.71 dB 3:19 03-Say It Isn't So
DR12 -1.29 dB -18.48 dB 4:32 04-Southbound Train
DR11 -0.21 dB -13.71 dB 3:33 05-These Days In An Open Book
DR9 -1.00 dB -12.65 dB 3:49 06-Time Of Inconvenience
DR10 0.00 dB -12.17 dB 2:59 07-Don't Forget About Me
DR11 0.00 dB -13.63 dB 2:42 08-Always Will
DR11 0.00 dB -13.18 dB 4:16 09-Going Back To Georgia
DR11 0.00 dB -13.10 dB 4:13 10-Talk To Me While I'm Listening
DR12 0.00 dB -16.14 dB 3:26 11-Fragile
DR11 0.00 dB -13.04 dB 4:03 12-On Grafton Street
DR11 0.00 dB -12.31 dB 3:07 13-Anything You Need But Me
DR14 0.00 dB -16.87 dB 4:03 14-Goodnight To A Mother's Dream
DR11 0.00 dB -12.86 dB 3:25 15-This Heart

Number of tracks: 15
Official DR value: DR11

Samplerate: 44100 Hz
Channels: 2
Bits per sample: 16
Bitrate: 850 kbps
Codec: FLAC

Nanci Griffith - Flyer (1994)

Nanci Griffith - Flyer (1994)

All thanks to original releaser - Alex Fal
Password: designol

DOWNLOAD LINKS
Buy Premium From My Links To Get Resumable Support & Max Speed & To Support Me


Links are Interchangeable - No Password - Single Extraction
Direct Download

Tags: Griffith

Nanci Griffith - Flyer (1994) Download via Hotfile Rapidshare Fileserve Megaupload & FileSonic, Nanci Griffith - Flyer (1994) free torrent downloads included crack, serial, keygen.Nanci Griffith - Flyer (1994) Fast Download via Rapidshare Hotfile Fileserve Filesonic Megaupload, Nanci Griffith - Flyer (1994) Torrents and Emule Download or anything related.
Leave a Comment
Your Name:
E-Mail:
Add Comments:

Enter Code: