Jet - Get Born (2003)

Download Now

Jet - Get Born (2003)

Jet - Get Born (2003)
EAC Secure Rip | FLAC (Image + Cue + Log) - 341 MB | Complete Scans (Jpeg 600 dpi) - 83.1 MB | MP3 (CBR320 Kbps) - 122 MB
Garage Rock, Hard Rock | Atlanic Recording Corporation | 83806-2 | 51:41 minutes | Hosted on: NitroFlare

Get Born is the debut studio album by Australian rock band Jet. It has sold over 3.5 million copies worldwide. The album includes Jet's most popular song, "Are You Gonna Be My Girl".
"Jet's Get Born is a seriously rocking album that comes off as a mix between the White Stripes' bluesy insouciance and AC/DC's cockeyed swagger. Toss in some New York Dolls strut, maybe some of Sweet's jailbait philosophizing, definitely some of Oasis' look-at-me attitude, some of the Verve's sense of grandeur, and you've got something to impress your friends as you blast it out of your car speakers on a Friday night. There are a lot of other bands traveling a similar path these days and it is hard to explain why this record works so well when so many others sound weak and studied. Maybe it is because they hail from the no-nonsense Australian rock tradition. Maybe it is the tough but clean production by Dave Sardy. Most likely it is the songs. They are catchy with singalong choruses, with lots of "hey"s and handclaps and glam stomp beats. "Rollover D.J.," "Get What You Need," and "Get Me Outta Here" are tight, raw, and flashy rockers. It is a sure sign that you are dealing with a band that has it all together when the ballads are as good as the rockers. "Look What You've Done" is a piano-based weeper that only needs some swelling strings to launch it into Guns N' Roses territory, "Move On" is an early-'70s Stones country ballad with some fine slide work. The only track that really falters is the silly and mean-spirited "Cold Hard Bitch," which takes an ill-advised trip down Nazareth lane and leaves the listener with a foul taste in their mouth. The placement of Get Born's sweetest ballad ("Come Around Again" right after it is the only thing that saves the album. And it is an album worth saving. Get Born is a very promising debut by a band that steals from all the right places, rocks non-ironically -- even epically at times -- and sounds great blasting out of a car or on headphones. Reviewed by Tim Sendra of allmusic.com"


Exact Audio Copy V1.0 beta 2 from 29. April 2011

EAC extraction logfile from 8. May 2015, 21:03

Jet / Get Born

Used drive : HL-DT-STBD-RE BH14NS40 Adapter: 0 ID: 2

Read mode : Secure
Utilize accurate stream : Yes
Defeat audio cache : Yes
Make use of C2 pointers : No

Read offset correction

: 6
Overread into Lead-In and Lead-Out : No
Fill up missing offset samples with silence : Yes
Delete leading and trailing silent blocks : No
Null samples used in CRC calculations : Yes
Used interface
: Native Win32 interface for Win NT & 2000

Used output format : User Defined Encoder
Selected bitrate : 1024 kBit/s
Quality : High
Add ID3 tag : No
Command line compressor : C:\Program Files (x86)\Exact Audio Copy\Flac\flac.exe
Additional command line options : -V -5 -T "artist=%albumartist%" -T "title=%title%" -T "album=%albumtitle%" -T "date=%year%" -T "genre=%genre%" -T "tracknumber=%tracknr%" %source%

TOC of the extracted CD Track | Start | Length | Start sector | End sector
--1 | 0:00.00 | 1:52.20 | 0 | 8419 2 | 1:52.20 | 3:33.60 | 8420 | 24454 3 | 5:26.05 | 3:16.45 | 24455 | 39199 4 | 8:42.50 | 3:50.67 | 39200 | 56516 5 | 12:33.42 | 4:07.48 | 56517 | 75089 6 | 16:41.15 | 4:20.40 | 75090 | 94629 7 | 21:01.55 | 4:32.02 | 94630 | 115031 8 | 25:33.57 | 2:56.13 | 115032 | 128244 9 | 28:29.70 | 4:03.15 | 128245 | 146484
10 | 32:33.10 | 4:30.30 | 146485 | 166764
11 | 37:03.40 | 2:22.60 | 166765 | 177474
12 | 39:26.25 | 4:42.07 | 177475 | 198631
13 | 44:08.32 | 4:30.18 | 198632 | 218899
14 | 51:10.50 | 1:06.60 | 230300 | 235309

Range status and errors

Selected range Filename C:\EAC\Jet - (2003) Get Born\Jet - Get Born.wav Peak level 99.8 %
Extraction speed 5.8 X
Range quality 100.0 %
Test CRC 90554BE6
Copy CRC 90554BE6
Copy OK

No errors occurred


AccurateRip summary

Track 1 accurately ripped (confidence 84) [4EAC5EFA] (AR v2)
Track 2 accurately ripped (confidence 87) [3CC966E0] (AR v2)
Track 3 accurately ripped (confidence 84) [837705A1] (AR v2)
Track 4 accurately ripped (confidence 85) [5F68B6D2] (AR v2)
Track 5 accurately ripped (confidence 85) [7E20DA95] (AR v2)
Track 6 accurately ripped (confidence 82) [761FDB4B] (AR v2)
Track 7 accurately ripped (confidence 84) [A9478B9A] (AR v2)
Track 8 accurately ripped (confidence 84) [053F4BED] (AR v2)
Track 9 accurately ripped (confidence 86) C138D38 (AR v2)
Track 10 accurately ripped (confidence 85) [641ABABC] (AR v2)
Track 11 accurately ripped (confidence 84) [51C4F27D] (AR v2)
Track 12 accurately ripped (confidence 84) [790FF807] (AR v2)
Track 13 accurately ripped (confidence 85) [A8E3E3D4] (AR v2)

All tracks accurately ripped

End of status report

==== Log checksum 08E828C447AA50334E4E97B6E62EAA19F88CAF21197E30EC28B94EE3A68DE24C ====

Track Listing:

01. Last Chance
02. Are You Gonna Be My Girl
03. Rollover D.J.
04. Look What You've Done
05. Get What You Need
06. Move On
07. Radio Song
08. Get Me Outta Here
09. Cold Hard Bitch
10. Come Around Again
11. Take It Or Leave It
12. Lazy Gun
13. Timothy

Personnel:

Nic Cester - lead vocals, guitars
Chris Cester - drums/percussion, tambourine, backing vocals
Cameron Muncey - guitars, backing vocals
Mark Wilson - bass guitar, piano (on "Look What You've Done"), harmonica (on "Move On")

Additional Musicians:

Billy Preston - keyboards
Roger Joseph Manning Jr. - keyboards
Andre Warhurst - slide guitar on "Move On"
Dave Sardy - tambourine, slide guitar on "Lazy Gun", additional guitar on "Are You Gonna Be My Girl?"

Producer - Dave Sardy

Album Released: September 30, 2006
USA CD Released: October 3, 2006

foobar2000 1.3.2 / Dynamic Range Meter 1.1.0
log date: 2015-06-28 19:51:54

Analyzed: Jet / Get Born

DR Peak RMS Duration Track

DR5 -0.02 dB -6.55 dB 1:52 01-Last Chance
DR5 -0.01 dB -6.92 dB 3:34 02-Are You Gonna Be My Girl
DR5 -0.02 dB -6.60 dB 3:17 03-Rollover D.J.
DR6 -0.22 dB -7.90 dB 3:51 04-Look What You've Done
DR5 -0.01 dB -6.87 dB 4:08 05-Get What You Need
DR8 -0.02 dB -9.81 dB 4:21 06-Move On
DR6 -0.01 dB -7.39 dB 4:32 07-Radio Song
DR5 -0.02 dB -6.09 dB 2:56 08-Get Me Outta Here
DR5 -0.02 dB -6.63 dB 4:03 09-Cold Hard Bitch
DR5 -0.02 dB -7.71 dB 4:30 10-Come Around Again
DR4 -0.01 dB -6.21 dB 2:23 11-Take It Or Leave It
DR6 -0.02 dB -7.30 dB 4:42 12-Lazy Gun
DR5 -0.02 dB -8.29 dB 4:30 13-Timothy

Number of tracks: 13
Official DR value: DR5

Samplerate: 44100 Hz
Channels: 2
Bits per sample: 16
Bitrate: 933 kbps
Codec: FLAC

Jet - Get Born (2003)

Jet - Get Born (2003)

Jet - Get Born (2003)


DOWNLOAD:
Buy Premium To Support Me & Get Resumable Support & Max Speed


Links are Interchangeable - No Password
Direct Download

Jet - Get Born (2003) Download via Hotfile Rapidshare Fileserve Megaupload & FileSonic, Jet - Get Born (2003) free torrent downloads included crack, serial, keygen.Jet - Get Born (2003) Fast Download via Rapidshare Hotfile Fileserve Filesonic Megaupload, Jet - Get Born (2003) Torrents and Emule Download or anything related.
Leave a Comment
Your Name:
E-Mail:
Add Comments:

Enter Code: