Umphrey's McGee - Red Rocks Amphitheatre Morrison CO 07.05.2014 (2015) Blu-ray

Download Now

Umphrey's McGee - Red Rocks Amphitheatre Morrison CO 07.05.2014 (2015) Blu-ray

Umphrey's McGee - Red Rocks Amphitheatre Morrison CO 07.05.2014 (2015)
Blu-ray | MPEG-4 AVC, 1920x1080p (16:9), 23,976 fps, 11817 kbps
DD 2.0, 48 kHz/16-bit, 256 kbps | Scans Included | ~ 23,0 Gb | RAR 5% Recovery
Progressive Rock, Jam Band | 02:41:24 + 01:07:26 | TourGigs

"Some nights defy explanation. Umphrey's 2014 return to Red Rocks could be summed up as such a night. Their first sold out show at the nation's premiere amphitheatre created a palpable pre-show energy that never relented. Those in attendance clearly knew they were in for a ride. The band stepped on the gas early and never let up. Set one started with the debut of a new original "Lucid State." "Conduit" got the early treatment and "Ocean Billy" lit up the rocks, complete with "Gents" sandwiched neatly in the middle. Jake Cinninger unveiled a treat as he performed "End of the Road" on Jerry Garcia's historic Travis Bean TB500 guitar. The band closed the set with Bob Seger's "Hollywood Nights" which turned into a crowd sing along, 9500 voices strong. Filmed in stunning HD, including aerial drone footage of the concert, paired with crisp soundboard audio make this one of the finest concert videos from UM to date..."

Official Website | Wiki
***************

Umphrey's McGee - Red Rocks Amphitheatre Morrison CO 07.05.2014 (2015) Blu-ray

Track List:

Set1:
Lucid State >
Conduit >
Cut The Cable
JaJunk >
Ocean Billy >
Gents >
Ocean Billy
All In Time
End Of The Road
Educated Guess
Hollywood Nights

Set2:
Little Gift
Bridgeless >
Bad Friday [1]
Dump City
Slacker
Wappy Sprayberry
JaJunk

Encore:
Ophelia [2]
Hajimemashite >
Bridgeless

Bonus:

Backstage at Red Rocks

Boulder Theater
07.04.2014

Gurgle >
Der Bluten Kat >
Kabump >
Der Bluten Kat
Booth Love
Phil's Farm >
The Triple Wide >
Drums [3] >
Phil's Farm [3]

[1] with Dominic Lalli on saxophone
[2] with Gabe Mervine on trumpet, Matt Pitts on saxophone, and Jans Ingber on vocals
[3] with Michael Travis on percussion

Line-up:

Brendan Bayliss: guitar, vocals
Jake Cinninger: guitar, vocals
Joel Cummins: keys, vocals
Andy Farag: percussion
Kris Myers: drums, vocals
Ryan Stasik: bass

Featuring:

Dominic Lalli: saxophone
Gabe Mervine: trumpet
Matt Pitts: saxophone
Jans Ingber: vocals
Michael Travis: percussion

Disc Title: TourGigs
Disc Size: 23389322368 bytes
Protection: AACS
BD-Java: No
BDInfo: 0.5.8

Notes:

BDINFO HOME:
Cinema Squid
http://www.cinemasquid.com/blu-ray/tools/bdinfo

INCLUDES FORUMS REPORT FOR:
AVS Forum Blu-ray Audio and Video Specifications Thread
http://www.avsforum.com/avs-vb/showthread.php?t=1155731

********************
PLAYLIST: 00002.MPLS
******************** Total Video
Title Codec Length Movie Size Disc Size Bitrate Bitrate Main Audio Track Secondary Audio Track
--
- -- -- - - -
00002.MPLS

AVC 2:41:24 15364128768 23389322368 12,69 11,82 DD AC3 2.0 256Kbps

DISC INFO:

Disc Title: TourGigs
Disc Size: 23389322368 bytes
Protection: AACS
BD-Java: No
BDInfo: 0.5.8

PLAYLIST REPORT:

Name: 00002.MPLS
Length: 2:41:24.257 (h:m:s.ms)
Size: 15364128768 bytes
Total Bitrate: 12,69 Mbps

VIDEO:

Codec Bitrate Description
-- - --
MPEG-4 AVC Video 11817 kbps 1080p / 23,976 fps / 16:9 / High Profile 4.1

AUDIO:

Codec Language Bitrate Description
-- -- - --
Dolby Digital Audio English 256 kbps 2.0 / 48 kHz / 256 kbps

FILES:

Name Time In Length Size Total Bitrate
- - - -
00002.M2TS 0:00:00.000 2:41:24.257 15364128768 12692

CHAPTERS:

Number Time In Length Avg Video Rate Max 1-Sec Rate Max 1-Sec Time Max 5-Sec Rate Max 5-Sec Time Max 10Sec Rate Max 10Sec Time Avg Frame Size Max Frame Size Max Frame Time - -- -- -- -- -- -- -- -- -- --
1 0:00:00.000 0:00:52.552 10876 kbps 17307 kbps 00:00:07.799 14093 kbps 00:00:08.091 13799 kbps 00:00:07.757 56613 bytes 414513 bytes 00:00:43.626
2 0:00:52.552 0:02:25.770 11608 kbps 17735 kbps 00:02:15.677 14701 kbps 00:01:34.928 13830 kbps 00:01:33.676 60520 bytes 367582 bytes 00:03:13.151
3 0:03:18.323 0:08:02.356 12339 kbps 20290 kbps 00:07:32.827 15003 kbps 00:05:24.782 13846 kbps 00:10:14.488 64337 bytes 497914 bytes 00:03:44.933
4 0:11:20.680 0:04:07.121 11849 kbps 19427 kbps 00:14:14.603 14827 kbps 00:12:02.304 13731 kbps 00:12:59.987 61774 bytes 438692 bytes 00:11:40.074
5 0:15:27.801 0:08:43.648 12001 kbps 19430 kbps 00:18:01.080 15049 kbps 00:17:30.924 13839 kbps 00:17:30.924 62569 bytes 512686 bytes 00:18:02.080
6 0:24:11.449 0:06:46.030 11771 kbps 19897 kbps 00:30:24.197 15014 kbps 00:30:24.113 13846 kbps 00:28:29.040 61369 bytes 510281 bytes 00:27:27.812
7 0:30:57.480 0:05:27.827 12006 kbps 18688 kbps 00:33:08.861 15013 kbps 00:33:08.736 13844 kbps 00:33:08.194 62588 bytes 498250 bytes 00:34:17.472
8 0:36:25.308 0:04:10.250 10703 kbps 24285 kbps 00:39:44.006 15023 kbps 00:37:31.499 13808 kbps 00:38:36.939 55798 bytes 455324 bytes 00:39:08.512
9 0:40:35.558 0:17:37.306 11975 kbps 21111 kbps 00:50:43.373 15054 kbps 00:49:29.257 13850 kbps 00:57:42.041 62432 bytes 488134 bytes 00:52:36.236
10 0:58:12.864 0:05:32.206 10966 kbps 18482 kbps 00:58:22.290 14999 kbps 00:58:20.997 13846 kbps 01:02:26.451 57181 bytes 462759 bytes 01:00:27.415
11 1:03:45.071 0:06:14.749 11671 kbps 19249 kbps 01:07:16.449 15030 kbps 01:03:53.538 13841 kbps 01:03:53.538 60847 bytes 476502 bytes 01:08:02.787
12 1:09:59.820 0:05:51.100 12217 kbps 22949 kbps 01:13:29.947 15047 kbps 01:12:49.990 13845 kbps 01:10:08.037 63689 bytes 410483 bytes 01:15:36.365
13 1:15:50.921 0:03:41.346 12188 kbps 20498 kbps 01:17:57.923 14979 kbps 01:17:53.919 13838 kbps 01:17:53.919 63543 bytes 435681 bytes 01:16:51.356
14 1:19:32.267 0:12:22.616 11446 kbps 19258 kbps 01:24:17.260 15051 kbps 01:31:32.487 13847 kbps 01:24:14.716 59675 bytes 474519 bytes 01:23:01.059
15 1:31:54.884 0:07:28.573 12303 kbps 18083 kbps 01:34:13.689 15050 kbps 01:35:43.195 13844 kbps 01:35:43.195 64141 bytes 467803 bytes 01:35:11.789
16 1:39:23.457 0:14:37.126 11707 kbps 20617 kbps 01:43:30.370 15036 kbps 01:45:29.031 13844 kbps 01:44:28.512 61037 bytes 501689 bytes 01:40:19.555
17 1:54:00.583 0:11:22.556 11814 kbps 19846 kbps 01:59:14.814 15009 kbps 02:03:07.171 13844 kbps 02:03:07.254 61595 bytes 513845 bytes 01:57:21.117
18 2:05:23.140 0:13:32.061 12189 kbps 18630 kbps 02:18:00.355 15059 kbps 02:17:32.494 13850 kbps 02:10:02.044 63546 bytes 563082 bytes 02:09:43.942
19 2:18:55.201 0:06:07.867 12383 kbps 20601 kbps 02:24:04.427 15043 kbps 02:23:43.573 13850 kbps 02:22:21.491 64550 bytes 491153 bytes 02:20:01.101
20 2:25:03.069 0:05:10.309 12364 kbps 18128 kbps 02:25:25.091 14876 kbps 02:28:10.923 13845 kbps 02:25:20.712 64459 bytes 513187 bytes 02:26:17.351
21 2:30:13.379 0:04:24.013 12317 kbps 18385 kbps 02:33:18.189 15041 kbps 02:31:21.280 13837 kbps 02:33:17.938 64217 bytes 493321 bytes 02:31:33.793
22 2:34:37.393 0:05:10.935 12087 kbps 21059 kbps 02:34:44.650 14948 kbps 02:35:39.163 13842 kbps 02:36:18.869 63016 bytes 460335 bytes 02:37:36.321
23 2:39:48.328 0:01:33.218 3241 kbps 5445 kbps 02:41:08.200 4609 kbps 02:41:04.863 4327 kbps 02:41:04.988 16902 bytes 91918 bytes 02:41:10.494
24 2:41:21.546 0:00:02.711 85 kbps 95 kbps 02:41:21.672 0 kbps 00:00:00.000 0 kbps 00:00:00.000 451 bytes 2443 bytes 02:41:21.755

STREAM DIAGNOSTICS:

File PID Type Codec Language Seconds Bitrate Bytes Packets
- - -- -- -- -- - --
00002.M2TS 4113 (0x1011) 0x1B AVC
9684,133 11817 14305053970 77880749
00002.M2TS 4352 (0x1100) 0x81 AC3 eng (English) 9684,133 256 309894144 1815786

QUICK SUMMARY:

Disc Title: TourGigs
Disc Size: 23389322368 bytes
Protection: AACS
BD-Java: No
Playlist: 00002.MPLS
Size: 15364128768 bytes
Length: 2:41:24.257
Total Bitrate: 12,69 Mbps
Video: MPEG-4 AVC Video / 11817 kbps / 1080p / 23,976 fps / 16:9 / High Profile 4.1
Audio: English / Dolby Digital Audio / 2.0 / 48 kHz / 256 kbps

********************
PLAYLIST: 00000.MPLS
******************** Total Video
Title Codec Length Movie Size Disc Size Bitrate Bitrate Main Audio Track Secondary Audio Track
--
- -- -- - - -
00000.MPLS

AVC 1:07:26 6532300800 23389322368 12,92 12,03 DD AC3 2.0 256Kbps

DISC INFO:

Disc Title: TourGigs
Disc Size: 23389322368 bytes
Protection: AACS
BD-Java: No
BDInfo: 0.5.8

PLAYLIST REPORT:

Name: 00000.MPLS
Length: 1:07:26.083 (h:m:s.ms)
Size: 6532300800 bytes
Total Bitrate: 12,92 Mbps

VIDEO:

Codec Bitrate Description
-- - --
MPEG-4 AVC Video 12032 kbps 1080p / 23,976 fps / 16:9 / High Profile 4.1

AUDIO:

Codec Language Bitrate Description
-- -- - --
Dolby Digital Audio English 256 kbps 2.0 / 48 kHz / 256 kbps

FILES:

Name Time In Length Size Total Bitrate
- - - -
00000.M2TS 0:00:00.000 1:07:26.083 6532300800 12916

CHAPTERS:

Number Time In Length Avg Video Rate Max 1-Sec Rate Max 1-Sec Time Max 5-Sec Rate Max 5-Sec Time Max 10Sec Rate Max 10Sec Time Avg Frame Size Max Frame Size Max Frame Time - -- -- -- -- -- -- -- -- -- --
1 0:00:00.000 0:03:03.308 9829 kbps 16590 kbps 00:02:30.316 14664 kbps 00:02:25.562 13757 kbps 00:02:45.790 51222 bytes 314429 bytes 00:01:58.576
2 0:03:03.308 0:07:50.469 12222 kbps 19463 kbps 00:04:31.562 15042 kbps 00:04:03.243 13849 kbps 00:06:28.596 63720 bytes 529329 bytes 00:09:54.260
3 0:10:53.778 0:11:37.571 12436 kbps 19857 kbps 00:17:33.093 15060 kbps 00:17:57.743 13848 kbps 00:11:51.085 64838 bytes 623967 bytes 00:21:11.061
4 0:22:31.350 0:13:15.169 12166 kbps 19936 kbps 00:24:04.151 15052 kbps 00:33:46.315 13836 kbps 00:28:40.260 63427 bytes 531337 bytes 00:25:07.422
5 0:35:46.519 0:13:07.661 12040 kbps 19701 kbps 00:38:49.201 15055 kbps 00:36:15.882 13843 kbps 00:46:51.225 62774 bytes 620311 bytes 00:36:10.251
6 0:48:54.181 0:03:05.810 12110 kbps 19959 kbps 00:49:55.367 15025 kbps 00:49:22.167 13849 kbps 00:50:45.333 63138 bytes 511253 bytes 00:49:42.312
7 0:51:59.991 0:12:13.232 11940 kbps 19186 kbps 00:54:21.883 14953 kbps 00:52:45.787 13846 kbps 00:56:45.360 62244 bytes 506315 bytes 00:57:29.154
8 1:04:13.224 0:03:12.859 11881 kbps 18954 kbps 01:04:27.113 15018 kbps 01:04:54.015 13844 kbps 01:05:22.168 61967 bytes 394636 bytes 01:04:46.883

STREAM DIAGNOSTICS:

File PID Type Codec Language Seconds Bitrate Bytes Packets
- - -- -- -- -- - --
00000.M2TS 4113 (0x1011) 0x1B AVC
4045,917 12032 6085066138 33127754
00000.M2TS 4352 (0x1100) 0x81 AC3 eng (English) 4045,917 256 129472512 758628

QUICK SUMMARY:

Disc Title: TourGigs
Disc Size: 23389322368 bytes
Protection: AACS
BD-Java: No
Playlist: 00000.MPLS
Size: 6532300800 bytes
Length: 1:07:26.083
Total Bitrate: 12,92 Mbps
Video: MPEG-4 AVC Video / 12032 kbps / 1080p / 23,976 fps / 16:9 / High Profile 4.1
Audio: English / Dolby Digital Audio / 2.0 / 48 kHz / 256 kbps

********************
PLAYLIST: 00001.MPLS
******************** Total Video
Title Codec Length Movie Size Disc Size Bitrate Bitrate Main Audio Track Secondary Audio Track
--
- -- -- - - -
00001.MPLS

MPEG-2 0:05:18 643694592 23389322368 16,15 15,00 DD AC3 2.0 384Kbps

DISC INFO:

Disc Title: TourGigs
Disc Size: 23389322368 bytes
Protection: AACS
BD-Java: No
BDInfo: 0.5.8

PLAYLIST REPORT:

Name: 00001.MPLS
Length: 0:05:18.776 (h:m:s.ms)
Size: 643694592 bytes
Total Bitrate: 16,15 Mbps

VIDEO:

Codec Bitrate Description
-- - --
MPEG-2 Video 14996 kbps 1080p / 23,976 fps / 16:9

AUDIO:

Codec Language Bitrate Description
-- -- - --
Dolby Digital Audio English 384 kbps 2.0 / 48 kHz / 384 kbps

FILES:

Name Time In Length Size Total Bitrate
- - - -
00001.M2TS 0:00:00.000 0:05:18.776 643694592 16154

CHAPTERS:

Number Time In Length Avg Video Rate Max 1-Sec Rate Max 1-Sec Time Max 5-Sec Rate Max 5-Sec Time Max 10Sec Rate Max 10Sec Time Avg Frame Size Max Frame Size Max Frame Time - -- -- -- -- -- -- -- -- -- --
1 0:00:00.000 0:05:18.776 14996 kbps 16225 kbps 00:05:15.773 15198 kbps 00:01:44.479 15115 kbps 00:00:00.000 78183 bytes 287203 bytes 00:03:45.850

STREAM DIAGNOSTICS:

File PID Type Codec Language Seconds Bitrate Bytes Packets
- - -- -- -- -- - --
00001.M2TS 4113 (0x1011) 0x02 MPEG-2
318,652 15002 597553590 3252037
00001.M2TS 4352 (0x1100) 0x81 AC3 eng (English) 318,652 384 15298560 89640

QUICK SUMMARY:

Disc Title: TourGigs
Disc Size: 23389322368 bytes
Protection: AACS
BD-Java: No
Playlist: 00001.MPLS
Size: 643694592 bytes
Length: 0:05:18.776
Total Bitrate: 16,15 Mbps
Video: MPEG-2 Video / 14996 kbps / 1080p / 23,976 fps / 16:9
Audio: English / Dolby Digital Audio / 2.0 / 48 kHz / 384 kbps

Umphrey's McGee - Red Rocks Amphitheatre Morrison CO 07.05.2014 (2015) Blu-ray

Umphrey's McGee - Red Rocks Amphitheatre Morrison CO 07.05.2014 (2015) Blu-ray

Umphrey's McGee - Red Rocks Amphitheatre Morrison CO 07.05.2014 (2015) Blu-ray

Umphrey's McGee - Red Rocks Amphitheatre Morrison CO 07.05.2014 (2015) Blu-ray

Umphrey's McGee - Red Rocks Amphitheatre Morrison CO 07.05.2014 (2015) Blu-ray

Umphrey's McGee - Red Rocks Amphitheatre Morrison CO 07.05.2014 (2015) Blu-ray

Umphrey's McGee - Red Rocks Amphitheatre Morrison CO 07.05.2014 (2015) Blu-ray

Umphrey's McGee - Red Rocks Amphitheatre Morrison CO 07.05.2014 (2015) Blu-ray

Umphrey's McGee - Red Rocks Amphitheatre Morrison CO 07.05.2014 (2015) Blu-ray

Umphrey's McGee - Red Rocks Amphitheatre Morrison CO 07.05.2014 (2015) Blu-ray

Umphrey's McGee - Red Rocks Amphitheatre Morrison CO 07.05.2014 (2015) Blu-ray

All thanks go to tatuk


DOWNLOAD:
Buy Premium To Support Me & Get Resumable Support & Max Speed

Rapidgator.net:
8jjmx.U.MG.R.R.A.M.CO.07.05.2014.2015.B.part01.rar.html
8jjmx.U.MG.R.R.A.M.CO.07.05.2014.2015.B.part02.rar.html
8jjmx.U.MG.R.R.A.M.CO.07.05.2014.2015.B.part03.rar.html
8jjmx.U.MG.R.R.A.M.CO.07.05.2014.2015.B.part04.rar.html
8jjmx.U.MG.R.R.A.M.CO.07.05.2014.2015.B.part05.rar.html
8jjmx.U.MG.R.R.A.M.CO.07.05.2014.2015.B.part06.rar.html
8jjmx.U.MG.R.R.A.M.CO.07.05.2014.2015.B.part07.rar.html
8jjmx.U.MG.R.R.A.M.CO.07.05.2014.2015.B.part08.rar.html
8jjmx.U.MG.R.R.A.M.CO.07.05.2014.2015.B.part09.rar.html
8jjmx.U.MG.R.R.A.M.CO.07.05.2014.2015.B.part10.rar.html
8jjmx.U.MG.R.R.A.M.CO.07.05.2014.2015.B.part11.rar.html
8jjmx.U.MG.R.R.A.M.CO.07.05.2014.2015.B.part12.rar.html
8jjmx.U.MG.R.R.A.M.CO.07.05.2014.2015.B.part13.rar.html
8jjmx.U.MG.R.R.A.M.CO.07.05.2014.2015.B.part14.rar.html
8jjmx.U.MG.R.R.A.M.CO.07.05.2014.2015.B.part15.rar.html
8jjmx.U.MG.R.R.A.M.CO.07.05.2014.2015.B.part16.rar.html
8jjmx.U.MG.R.R.A.M.CO.07.05.2014.2015.B.part17.rar.html
8jjmx.U.MG.R.R.A.M.CO.07.05.2014.2015.B.part18.rar.html
8jjmx.U.MG.R.R.A.M.CO.07.05.2014.2015.B.part19.rar.html
8jjmx.U.MG.R.R.A.M.CO.07.05.2014.2015.B.part20.rar.html
8jjmx.U.MG.R.R.A.M.CO.07.05.2014.2015.B.part21.rar.html
8jjmx.U.MG.R.R.A.M.CO.07.05.2014.2015.B.part22.rar.html
8jjmx.U.MG.R.R.A.M.CO.07.05.2014.2015.B.part23.rar.html
8jjmx.U.MG.R.R.A.M.CO.07.05.2014.2015.B.part24.rar.html
8jjmx.U.MG.R.R.A.M.CO.07.05.2014.2015.B.part25.rar.html
8jjmx.U.MG.R.R.A.M.CO.07.05.2014.2015.B.part26.rar.html
8jjmx.U.MG.R.R.A.M.CO.07.05.2014.2015.B.part27.rar.html
8jjmx.U.MG.R.R.A.M.CO.07.05.2014.2015.B.part28.rar.html
8jjmx.U.MG.R.R.A.M.CO.07.05.2014.2015.B.part29.rar.html
8jjmx.U.MG.R.R.A.M.CO.07.05.2014.2015.B.part30.rar.html
8jjmx.U.MG.R.R.A.M.CO.07.05.2014.2015.B.part31.rar.html
8jjmx.U.MG.R.R.A.M.CO.07.05.2014.2015.B.part32.rar.html
8jjmx.U.MG.R.R.A.M.CO.07.05.2014.2015.B.part33.rar.html
8jjmx.U.MG.R.R.A.M.CO.07.05.2014.2015.B.part34.rar.html
8jjmx.U.MG.R.R.A.M.CO.07.05.2014.2015.B.part35.rar.html
8jjmx.U.MG.R.R.A.M.CO.07.05.2014.2015.B.part36.rar.html
8jjmx.U.MG.R.R.A.M.CO.07.05.2014.2015.B.part37.rar.html
8jjmx.U.MG.R.R.A.M.CO.07.05.2014.2015.B.part38.rar.html
8jjmx.U.MG.R.R.A.M.CO.07.05.2014.2015.B.part39.rar.html
8jjmx.U.MG.R.R.A.M.CO.07.05.2014.2015.B.part40.rar.html
8jjmx.U.MG.R.R.A.M.CO.07.05.2014.2015.B.part41.rar.html
8jjmx.U.MG.R.R.A.M.CO.07.05.2014.2015.B.part42.rar.html
8jjmx.U.MG.R.R.A.M.CO.07.05.2014.2015.B.part43.rar.html
8jjmx.U.MG.R.R.A.M.CO.07.05.2014.2015.B.part44.rar.html
8jjmx.U.MG.R.R.A.M.CO.07.05.2014.2015.B.part45.rar.html
8jjmx.U.MG.R.R.A.M.CO.07.05.2014.2015.B.part46.rar.html

Uploaded.net:
8jjmx.U.MG.R.R.A.M.CO.07.05.2014.2015.B.part01.rar
8jjmx.U.MG.R.R.A.M.CO.07.05.2014.2015.B.part02.rar
8jjmx.U.MG.R.R.A.M.CO.07.05.2014.2015.B.part03.rar
8jjmx.U.MG.R.R.A.M.CO.07.05.2014.2015.B.part04.rar
8jjmx.U.MG.R.R.A.M.CO.07.05.2014.2015.B.part05.rar
8jjmx.U.MG.R.R.A.M.CO.07.05.2014.2015.B.part06.rar
8jjmx.U.MG.R.R.A.M.CO.07.05.2014.2015.B.part07.rar
8jjmx.U.MG.R.R.A.M.CO.07.05.2014.2015.B.part08.rar
8jjmx.U.MG.R.R.A.M.CO.07.05.2014.2015.B.part09.rar
8jjmx.U.MG.R.R.A.M.CO.07.05.2014.2015.B.part10.rar
8jjmx.U.MG.R.R.A.M.CO.07.05.2014.2015.B.part11.rar
8jjmx.U.MG.R.R.A.M.CO.07.05.2014.2015.B.part12.rar
8jjmx.U.MG.R.R.A.M.CO.07.05.2014.2015.B.part13.rar
8jjmx.U.MG.R.R.A.M.CO.07.05.2014.2015.B.part14.rar
8jjmx.U.MG.R.R.A.M.CO.07.05.2014.2015.B.part15.rar
8jjmx.U.MG.R.R.A.M.CO.07.05.2014.2015.B.part16.rar
8jjmx.U.MG.R.R.A.M.CO.07.05.2014.2015.B.part17.rar
8jjmx.U.MG.R.R.A.M.CO.07.05.2014.2015.B.part18.rar
8jjmx.U.MG.R.R.A.M.CO.07.05.2014.2015.B.part19.rar
8jjmx.U.MG.R.R.A.M.CO.07.05.2014.2015.B.part20.rar
8jjmx.U.MG.R.R.A.M.CO.07.05.2014.2015.B.part21.rar
8jjmx.U.MG.R.R.A.M.CO.07.05.2014.2015.B.part22.rar
8jjmx.U.MG.R.R.A.M.CO.07.05.2014.2015.B.part23.rar
8jjmx.U.MG.R.R.A.M.CO.07.05.2014.2015.B.part24.rar
8jjmx.U.MG.R.R.A.M.CO.07.05.2014.2015.B.part25.rar
8jjmx.U.MG.R.R.A.M.CO.07.05.2014.2015.B.part26.rar
8jjmx.U.MG.R.R.A.M.CO.07.05.2014.2015.B.part27.rar
8jjmx.U.MG.R.R.A.M.CO.07.05.2014.2015.B.part28.rar
8jjmx.U.MG.R.R.A.M.CO.07.05.2014.2015.B.part29.rar
8jjmx.U.MG.R.R.A.M.CO.07.05.2014.2015.B.part30.rar
8jjmx.U.MG.R.R.A.M.CO.07.05.2014.2015.B.part31.rar
8jjmx.U.MG.R.R.A.M.CO.07.05.2014.2015.B.part32.rar
8jjmx.U.MG.R.R.A.M.CO.07.05.2014.2015.B.part33.rar
8jjmx.U.MG.R.R.A.M.CO.07.05.2014.2015.B.part34.rar
8jjmx.U.MG.R.R.A.M.CO.07.05.2014.2015.B.part35.rar
8jjmx.U.MG.R.R.A.M.CO.07.05.2014.2015.B.part36.rar
8jjmx.U.MG.R.R.A.M.CO.07.05.2014.2015.B.part37.rar
8jjmx.U.MG.R.R.A.M.CO.07.05.2014.2015.B.part38.rar
8jjmx.U.MG.R.R.A.M.CO.07.05.2014.2015.B.part39.rar
8jjmx.U.MG.R.R.A.M.CO.07.05.2014.2015.B.part40.rar
8jjmx.U.MG.R.R.A.M.CO.07.05.2014.2015.B.part41.rar
8jjmx.U.MG.R.R.A.M.CO.07.05.2014.2015.B.part42.rar
8jjmx.U.MG.R.R.A.M.CO.07.05.2014.2015.B.part43.rar
8jjmx.U.MG.R.R.A.M.CO.07.05.2014.2015.B.part44.rar
8jjmx.U.MG.R.R.A.M.CO.07.05.2014.2015.B.part45.rar
8jjmx.U.MG.R.R.A.M.CO.07.05.2014.2015.B.part46.rar

Uploadable.ch:
8jjmx.U.MG.R.R.A.M.CO.07.05.2014.2015.B.part01.rar
8jjmx.U.MG.R.R.A.M.CO.07.05.2014.2015.B.part02.rar
8jjmx.U.MG.R.R.A.M.CO.07.05.2014.2015.B.part03.rar
8jjmx.U.MG.R.R.A.M.CO.07.05.2014.2015.B.part04.rar
8jjmx.U.MG.R.R.A.M.CO.07.05.2014.2015.B.part05.rar
8jjmx.U.MG.R.R.A.M.CO.07.05.2014.2015.B.part06.rar
8jjmx.U.MG.R.R.A.M.CO.07.05.2014.2015.B.part07.rar
8jjmx.U.MG.R.R.A.M.CO.07.05.2014.2015.B.part08.rar
8jjmx.U.MG.R.R.A.M.CO.07.05.2014.2015.B.part09.rar
8jjmx.U.MG.R.R.A.M.CO.07.05.2014.2015.B.part10.rar
8jjmx.U.MG.R.R.A.M.CO.07.05.2014.2015.B.part11.rar
8jjmx.U.MG.R.R.A.M.CO.07.05.2014.2015.B.part12.rar
8jjmx.U.MG.R.R.A.M.CO.07.05.2014.2015.B.part13.rar
8jjmx.U.MG.R.R.A.M.CO.07.05.2014.2015.B.part14.rar
8jjmx.U.MG.R.R.A.M.CO.07.05.2014.2015.B.part15.rar
8jjmx.U.MG.R.R.A.M.CO.07.05.2014.2015.B.part16.rar
8jjmx.U.MG.R.R.A.M.CO.07.05.2014.2015.B.part17.rar
8jjmx.U.MG.R.R.A.M.CO.07.05.2014.2015.B.part18.rar
8jjmx.U.MG.R.R.A.M.CO.07.05.2014.2015.B.part19.rar
8jjmx.U.MG.R.R.A.M.CO.07.05.2014.2015.B.part20.rar
8jjmx.U.MG.R.R.A.M.CO.07.05.2014.2015.B.part21.rar
8jjmx.U.MG.R.R.A.M.CO.07.05.2014.2015.B.part22.rar
8jjmx.U.MG.R.R.A.M.CO.07.05.2014.2015.B.part23.rar
8jjmx.U.MG.R.R.A.M.CO.07.05.2014.2015.B.part24.rar
8jjmx.U.MG.R.R.A.M.CO.07.05.2014.2015.B.part25.rar
8jjmx.U.MG.R.R.A.M.CO.07.05.2014.2015.B.part26.rar
8jjmx.U.MG.R.R.A.M.CO.07.05.2014.2015.B.part27.rar
8jjmx.U.MG.R.R.A.M.CO.07.05.2014.2015.B.part28.rar
8jjmx.U.MG.R.R.A.M.CO.07.05.2014.2015.B.part29.rar
8jjmx.U.MG.R.R.A.M.CO.07.05.2014.2015.B.part30.rar
8jjmx.U.MG.R.R.A.M.CO.07.05.2014.2015.B.part31.rar
8jjmx.U.MG.R.R.A.M.CO.07.05.2014.2015.B.part32.rar
8jjmx.U.MG.R.R.A.M.CO.07.05.2014.2015.B.part33.rar
8jjmx.U.MG.R.R.A.M.CO.07.05.2014.2015.B.part34.rar
8jjmx.U.MG.R.R.A.M.CO.07.05.2014.2015.B.part35.rar
8jjmx.U.MG.R.R.A.M.CO.07.05.2014.2015.B.part36.rar
8jjmx.U.MG.R.R.A.M.CO.07.05.2014.2015.B.part37.rar
8jjmx.U.MG.R.R.A.M.CO.07.05.2014.2015.B.part38.rar
8jjmx.U.MG.R.R.A.M.CO.07.05.2014.2015.B.part39.rar
8jjmx.U.MG.R.R.A.M.CO.07.05.2014.2015.B.part40.rar
8jjmx.U.MG.R.R.A.M.CO.07.05.2014.2015.B.part41.rar
8jjmx.U.MG.R.R.A.M.CO.07.05.2014.2015.B.part42.rar
8jjmx.U.MG.R.R.A.M.CO.07.05.2014.2015.B.part43.rar
8jjmx.U.MG.R.R.A.M.CO.07.05.2014.2015.B.part44.rar
8jjmx.U.MG.R.R.A.M.CO.07.05.2014.2015.B.part45.rar
8jjmx.U.MG.R.R.A.M.CO.07.05.2014.2015.B.part46.rar

Links are Interchangeable - No Password
Direct Download

Tags: Umphrey, Amphitheatre, Morrison

Umphrey's McGee - Red Rocks Amphitheatre Morrison CO 07.05.2014 (2015) Blu-ray Download via Hotfile Rapidshare Fileserve Megaupload & FileSonic, Umphrey's McGee - Red Rocks Amphitheatre Morrison CO 07.05.2014 (2015) Blu-ray free torrent downloads included crack, serial, keygen.Umphrey's McGee - Red Rocks Amphitheatre Morrison CO 07.05.2014 (2015) Blu-ray Fast Download via Rapidshare Hotfile Fileserve Filesonic Megaupload, Umphrey's McGee - Red Rocks Amphitheatre Morrison CO 07.05.2014 (2015) Blu-ray Torrents and Emule Download or anything related.
Leave a Comment
Your Name:
E-Mail:
Add Comments:

Enter Code: