Mike Stern - All Over The Place (2012) {Heads Up} [Re-Up]

Download Now

Mike Stern - All Over The Place (2012) {Heads Up} [Re-Up]

Mike Stern - All Over The Place (2012) {Heads Up}
EAC 0.95b4 | FLAC tracks level 8 | Cue+Log+M3U | Full Scans 600dpi | 610MB + 5% Recovery
MP3 CBR 320 Kbps | 179MB + 5% Recovery
Genre: Fusion

"All Over the Place is Stern's new recording. Set for release on June 19, 2012, the 11-song set aligns the characteristically diverse and adventurous guitarist with a cadre of brilliant guests, including trumpeter Randy Brecker; saxophonist Kenny Garrett; and drummers Dave Weckl, Keith Carlock and Lionel Cordew. Also on hand is a delegation of high-caliber electric and acoustic bass players: Esperanza Spalding, Richard Bona, Victor Wooten, Anthony Jackson, Dave Holland, Tom Kennedy, Will Lee and Victor Bailey."

Track List
01. AJ 8:53
02. Cameroon 5:46
03. Out Of The Blue 6:15
04. As Far As We Know 6:33
05. Blues For Al 7:06
06. OCD 8:07
07. You Never Told Me 6:18
08. Half Way Home 6:29
09. Light 6:14
10. Flipside 7:22
11. All Over The Place 6:20

musicians
Mike Stern - guitars, acoustic nylon string guitar
Jim Beard - Rhodes piano, synths, Hammond B3
Dave Weckl - drums
Anthony Jackson - contrabass guitar
Richard Bona - vocals, bass
Kenny Garrett - sax
Dave Holland - acoustic bass
Victor Bailey - bass
Bob Malach - sax
Will Lee - bass
Victor Wooten - bass
Esperanza Spalding - acoustic bass, vocals
Tom Kennedy - bass
Randy Brecker - trumpet
Chris Potter - sax
Leni Stern - rhythm wah wah guitar, N'goni Ba
Bob Franceschini - sax
Al Foster - drums
Keith Carlock - drums
Tim Keiper - percussion
Kim Thompson - drums
Lionel Cordew - drums

Produced by Jim Beard

EAC extraction logfile from 3. July 2012, 20:59 for CD
Mike Stern / All Over The Place

Used drive : TSSTcorpCD/DVDW SH-S182D Adapter: 1 ID: 0
Read mode : Secure with NO C2, accurate stream, disable cache
Read offset correction : 6
Overread into Lead-In and Lead-Out : No

Used output format : C:\Programs\EAC\Encoders\Flac\flac.exe (User Defined Encoder) 32 kBit/s Additional command line options : -V -8 -T "artist=%a" -T "title=%t" -T "album=%g" -T "date=%y" -T "tracknumber=%n" -T "genre=%m" %s -T"comment=EAC (secure mode) / FLAC 1.1.4 - by manfred"

Other options :
Fill up missing offset samples with silence : Yes
Delete leading and trailing silent blocks : No
Installed external ASPI interface

Track 1
Filename D:\Music\Recording\Mike Stern - All Over The Place (2012) [FLAC]\01 - AJ.wav Pre-gap length 0:00:02.00 Peak level 99.8 %
Track quality 99.9 %
Test CRC D77F6175
Copy CRC D77F6175
Copy OK

Track 2
Filename D:\Music\Recording\Mike Stern - All Over The Place (2012) [FLAC]\02 - Cameroon.wav Peak level 99.1 %
Track quality 100.0 %
Test CRC 92569F3E
Copy CRC 92569F3E
Copy OK

Track 3
Filename D:\Music\Recording\Mike Stern - All Over The Place (2012) [FLAC]\03 - Out Of The Blue.wav Peak level 99.8 %
Track quality 100.0 %
Test CRC FE30435D
Copy CRC FE30435D
Copy OK

Track 4
Filename D:\Music\Recording\Mike Stern - All Over The Place (2012) [FLAC]\04 - As Far As We Know.wav Peak level 95.3 %
Track quality 100.0 %
Test CRC 8F7889C0
Copy CRC 8F7889C0
Copy OK

Track 5
Filename D:\Music\Recording\Mike Stern - All Over The Place (2012) [FLAC]\05 - Blues For Al.wav Peak level 95.8 %
Track quality 100.0 %
Test CRC 811F1437
Copy CRC 811F1437
Copy OK

Track 6
Filename D:\Music\Recording\Mike Stern - All Over The Place (2012) [FLAC]\06 - OCD.wav Peak level 99.8 %
Track quality 100.0 %
Test CRC F5353EA9
Copy CRC F5353EA9
Copy OK

Track 7
Filename D:\Music\Recording\Mike Stern - All Over The Place (2012) [FLAC]\07 - You Never Told Me.wav Peak level 95.7 %
Track quality 100.0 %
Test CRC 49CAF374
Copy CRC 49CAF374
Copy OK

Track 8
Filename D:\Music\Recording\Mike Stern - All Over The Place (2012) [FLAC]\08 - Half Way Home.wav Peak level 99.8 %
Track quality 100.0 %
Test CRC DC54A683
Copy CRC DC54A683
Copy OK

Track 9
Filename D:\Music\Recording\Mike Stern - All Over The Place (2012) [FLAC]\09 - Light.wav Peak level 99.8 %
Track quality 100.0 %
Test CRC FE7E36A2
Copy CRC FE7E36A2
Copy OK

Track 10
Filename D:\Music\Recording\Mike Stern - All Over The Place (2012) [FLAC]\10 - Flipside.wav Peak level 99.8 %
Track quality 100.0 %
Test CRC BC9094AD
Copy CRC BC9094AD
Copy OK

Track 11
Filename D:\Music\Recording\Mike Stern - All Over The Place (2012) [FLAC]\11 - All Over The Place.wav Peak level 99.8 %
Track quality 100.0 %
Test CRC 6EEC7B40
Copy CRC 6EEC7B40
Copy OK

No errors occured

End of status report

Analyzed: Mike Stern / All Over The Place

DR Peak RMS Duration Track

DR8 -0.01 dB -11.01 dB 8:53 01-AJ
DR7 -0.07 dB -10.14 dB 5:46 02-Cameroon
DR6 -0.01 dB -9.02 dB 6:15 03-Out Of The Blue
DR9 -0.41 dB -12.70 dB 6:34 04-As Far As We Know
DR9 -0.37 dB -11.85 dB 7:07 05-Blues For Al
DR8 -0.01 dB -10.23 dB 8:08 06-OCD
DR10 -0.38 dB -13.32 dB 6:18 07-You Never Told Me
DR7 -0.01 dB -9.66 dB 6:29 08-Half Way Home
DR7 -0.01 dB -8.63 dB 6:14 09-Light
DR7 -0.01 dB -9.47 dB 7:22 10-Flipside
DR8 -0.01 dB -10.53 dB 6:20 11-All Over The Place

Number of tracks: 11
Official DR value: DR8

Samplerate: 44100 Hz
Channels: 2
Bits per sample: 16
Bitrate: 965 kbps
Codec: FLAC

Mike Stern - All Over The Place (2012) {Heads Up} [Re-Up]

Mike Stern - All Over The Place (2012) {Heads Up} [Re-Up]

Mike Stern - All Over The Place (2012) {Heads Up} [Re-Up]



DOWNLOAD LINKS
Buy Premium From My Links To Get Resumable Support & Max Speed & To Support Me


Links are Interchangeable - No Password - Single Extraction
Direct Download

Mike Stern - All Over The Place (2012) {Heads Up} [Re-Up] Download via Hotfile Rapidshare Fileserve Megaupload & FileSonic, Mike Stern - All Over The Place (2012) {Heads Up} [Re-Up] free torrent downloads included crack, serial, keygen.Mike Stern - All Over The Place (2012) {Heads Up} [Re-Up] Fast Download via Rapidshare Hotfile Fileserve Filesonic Megaupload, Mike Stern - All Over The Place (2012) {Heads Up} [Re-Up] Torrents and Emule Download or anything related.
Leave a Comment
Your Name:
E-Mail:
Add Comments:

Enter Code: