Carole King - The Carnegie Hall Concert: June 18, 1971 (2004) [Japan, MHCP-264]

Download Now

Carole King - The Carnegie Hall Concert: June 18, 1971 (2004) [Japan, MHCP-264]

Carole King - The Carnegie Hall Concert: June 18, 1971 (1996) [Japan, MHCP-264]
Pop/Rock, Singer/Songwriter, Live | EAC Rip | FLAC, Tracks+CUE + LOG + Artwork-600dpi (JPEG) | 71:50 Min | 525,82 Mb
Label: Sony Music Entertainment Inc. (Japan) | Released: 2004, May, 19

"
The Carnegie Hall Concert: June 18, 1971 was Carole King's first concert performance in front of an audience. Performed on June 18, 1971, it was released years later, in 1996, as an album. This album has seventeen live songs. Some songs included: "Will You Love Me Tomorrow?", "You've Got a Friend", "Child of Mine", "I Feel the Earth Move", "It's Too Late", "Beautiful", "(You Make Me Feel Like) A Natural Woman", "After All This Time", "Carry Your Load", "Song of Long Ago", and "Home Again". James Taylor, a friend of King's, accompanied her on "Will You Love Me Tomorrow?", "Up on the Roof", and "You've Got a Friend". Before she started singing, an old saying went into her mind, "How did the man get to Carnegie Hall?" Out loud she said the answer "Practice man, practice!" Then she performed.
"

Release of the album: 1996, October, 29 [CD Sony Music Entertainment Inc., Cat.# EK 64942, USA]
Release of this CD: 2004, May, 19 [CD Sony Music Entertainment Inc. (Japan), Cat.# MHCP-264 / EAN: 4562109405910]
℗ 1994, 1996 Sony Music Entertainment Inc., © 1996 Sony Music Entertainment Inc.
Manufactured By - Sony Music Direct (Japan) Inc.

Carole King - The Carnegie Hall Concert: June 18, 1971 (2004) [Japan, MHCP-264]


Art Direction - Ode Sound And Visuals
Art Direction [Art Director] - Dave Burle
Bass - Charles Larkey
Engineer - Hank Cicalo
Guitar - Danny Kortchmar
Photography - Jim McCrary, Ode Sound And Visuals
Producer - Lou Adler
Piano, Vocals - Carole King
Vocals - James Taylor (tracks 15, 16)


Carole King - The Carnegie Hall Concert: June 18, 1971 (2004) [Japan, MHCP-264]


Tracklist:

01. I Feel The Earth Move (03:36)
(Carole King)
02. Home Again (02:46)
(Carole King)
03. After All This Time (03:20)
(Carole King)
04. Child Of Mine (04:03)
(Carole King, Gerry Goffin)
05. Carry Your Load (03:00)
(Carole King)
06. No Easy Way Down (05:32)
(Carole King, Gerry Goffin)
07. Song of Long Ago (03:25)
(Carole King)
08. Snow Queen (03:51)
(Carole King, Gerry Goffin)
09. Smackwater Jack (03:49)
(Carole King, Gerry Goffin)
10. So Far Away (04:13)
(Carole King)
11. It's Too Late (04:22)
(Carole King, Toni Stern)
12. Eventually (04:38)
(Carole King, Gerry Goffin)
13. Way Over Yonder (04:14)
(Carole King)
14. Beautiful (02:39)
(Carole King)
15. You've Got A Friend (performed with James Taylor) (06:25)
(Carole King)
16. Medley: Will You Still Love Me Tomorrow? / Some Kind of Wonderful / Up on the Roof (performed with James Taylor) (07:47)
(Carole King, Gerry Goffin)
17. (You Make Me Feel Like) A Natural Woman (04:10)
(Carole King, Gerry Goffin, Jerry Wexler)

Recorded on June 18, 1971

Exact Audio Copy V1.0 beta 3 from 29. August 2011

EAC extraction logfile from 22. May 2015, 1:08

Carole King / The Carnegie Hall Concert 1971

Used drive : HL-DT-STDVDRAM GH24NS90 Adapter: 1 ID: 0

Read mode : Secure
Utilize accurate stream : Yes
Defeat audio cache : No
Make use of C2 pointers : Yes

Read offset correction

: 6
Overread into Lead-In and Lead-Out : No
Fill up missing offset samples with silence : Yes
Delete leading and trailing silent blocks : No
Null samples used in CRC calculations : Yes
Used interface
: Native Win32 interface for Win NT & 2000
Gap handling
: Appended to previous track

Used output format : User Defined Encoder
Selected bitrate : 1024 kBit/s
Quality : High
Add ID3 tag : No
Command line compressor : C:\Program Files (x86)\FLAC\metaflac.exe
Additional command line options : -8

TOC of the extracted CD Track | Start | Length | Start sector | End sector
--1 | 0:00.00 | 3:35.58 | 0 | 16182 2 | 3:35.58 | 2:45.70 | 16183 | 28627 3 | 6:21.53 | 3:19.65 | 28628 | 43617 4 | 9:41.43 | 4:03.27 | 43618 | 61869 5 | 13:44.70 | 2:59.53 | 61870 | 75347 6 | 16:44.48 | 5:32.35 | 75348 | 100282 7 | 22:17.08 | 3:24.57 | 100283 | 115639 8 | 25:41.65 | 3:51.35 | 115640 | 132999 9 | 29:33.25 | 3:49.28 | 133000 | 150202
10 | 33:22.53 | 4:12.72 | 150203 | 169174
11 | 37:35.50 | 4:22.00 | 169175 | 188824
12 | 41:57.50 | 4:38.05 | 188825 | 209679
13 | 46:35.55 | 4:13.58 | 209680 | 228712
14 | 50:49.38 | 2:39.25 | 228713 | 240662
15 | 53:28.63 | 6:25.05 | 240663 | 269542
16 | 59:53.68 | 7:46.62 | 269543 | 304554
17 | 67:40.55 | 4:09.65 | 304555 | 323294

Track 1 Filename C:\Exact Audio Copy\Carole King\The Carnegie Hall Concert 1971\01. I Feel The Earth Move.wav Pre-gap length 0:00:02.00 Peak level 92.2 %
Extraction speed 4.1 X
Track quality 100.0 %
Test CRC 719E7444
Copy CRC 719E7444
Accurately ripped (confidence 1) [FCE384E5] (AR v2)
Copy OK

Track 2 Filename C:\Exact Audio Copy\Carole King\The Carnegie Hall Concert 1971\02. Home Again.wav Peak level 92.2 %
Extraction speed 4.3 X
Track quality 100.0 %
Test CRC 21CAB8BF
Copy CRC 21CAB8BF
Accurately ripped (confidence 1) [6D091616] (AR v2)
Copy OK

Track 3 Filename C:\Exact Audio Copy\Carole King\The Carnegie Hall Concert 1971\03. After All This Time.wav Peak level 92.2 %
Extraction speed 4.9 X
Track quality 100.0 %
Test CRC 31743ABE
Copy CRC 31743ABE
Accurately ripped (confidence 1) [114191AD] (AR v2)
Copy OK

Track 4 Filename C:\Exact Audio Copy\Carole King\The Carnegie Hall Concert 1971\04. Child Of Mine.wav Peak level 92.2 %
Extraction speed 5.0 X
Track quality 100.0 %
Test CRC C7811164
Copy CRC C7811164
Accurately ripped (confidence 1) [1CDC83E1] (AR v2)
Copy OK

Track 5 Filename C:\Exact Audio Copy\Carole King\The Carnegie Hall Concert 1971\05. Carry Your Load.wav Peak level 92.2 %
Extraction speed 5.2 X
Track quality 99.8 %
Test CRC 06EED308
Copy CRC 06EED308
Accurately ripped (confidence 1) [88CD12D6] (AR v2)
Copy OK

Track 6 Filename C:\Exact Audio Copy\Carole King\The Carnegie Hall Concert 1971\06. No Easy Way Down.wav Peak level 92.2 %
Extraction speed 5.9 X
Track quality 100.0 %
Test CRC 51BCEB99
Copy CRC 51BCEB99
Accurately ripped (confidence 1) [8E6B5B93] (AR v2)
Copy OK

Track 7 Filename C:\Exact Audio Copy\Carole King\The Carnegie Hall Concert 1971\07. Song Of Long Ago.wav Peak level 92.2 %
Extraction speed 6.0 X
Track quality 100.0 %
Test CRC E3FE256E
Copy CRC E3FE256E
Accurately ripped (confidence 1) [D3152102] (AR v2)
Copy OK

Track 8 Filename C:\Exact Audio Copy\Carole King\The Carnegie Hall Concert 1971\08. Snow Queen.wav Peak level 92.2 %
Extraction speed 6.5 X
Track quality 100.0 %
Test CRC 365C14D9
Copy CRC 365C14D9
Accurately ripped (confidence 1) [F119C814] (AR v2)
Copy OK

Track 9 Filename C:\Exact Audio Copy\Carole King\The Carnegie Hall Concert 1971\09. Smackwater Jack.wav Peak level 92.2 %
Extraction speed 6.4 X
Track quality 100.0 %
Test CRC DAEB21BB
Copy CRC DAEB21BB
Accurately ripped (confidence 1) [87C5D6EC] (AR v2)
Copy OK

Track 10 Filename C:\Exact Audio Copy\Carole King\The Carnegie Hall Concert 1971\10. So Far Away.wav Peak level 92.2 %
Extraction speed 6.8 X
Track quality 100.0 %
Test CRC 8D0779A8
Copy CRC 8D0779A8
Accurately ripped (confidence 1) [9F6C380E] (AR v2)
Copy OK

Track 11 Filename C:\Exact Audio Copy\Carole King\The Carnegie Hall Concert 1971\11. It's Too Late.wav Peak level 92.2 %
Extraction speed 7.4 X
Track quality 100.0 %
Test CRC D2FDFA86
Copy CRC D2FDFA86
Accurately ripped (confidence 1) [51C973DB] (AR v2)
Copy OK

Track 12 Filename C:\Exact Audio Copy\Carole King\The Carnegie Hall Concert 1971\12. Eventually.wav Peak level 88.6 %
Extraction speed 7.4 X
Track quality 100.0 %
Test CRC 8C948C46
Copy CRC 8C948C46
Accurately ripped (confidence 1) [13264E71] (AR v2)
Copy OK

Track 13 Filename C:\Exact Audio Copy\Carole King\The Carnegie Hall Concert 1971\13. Way Over Yonder.wav Peak level 92.2 %
Extraction speed 8.0 X
Track quality 100.0 %
Test CRC E7DE569F
Copy CRC E7DE569F
Accurately ripped (confidence 1) [2E650462] (AR v2)
Copy OK

Track 14 Filename C:\Exact Audio Copy\Carole King\The Carnegie Hall Concert 1971\14. Beautiful.wav Peak level 92.2 %
Extraction speed 7.6 X
Track quality 99.8 %
Test CRC 0745B010
Copy CRC 0745B010
Accurately ripped (confidence 1) [C73F6A0E] (AR v2)
Copy OK

Track 15 Filename C:\Exact Audio Copy\Carole King\The Carnegie Hall Concert 1971\15. You've Got A Friend.wav Peak level 92.2 %
Extraction speed 8.4 X
Track quality 100.0 %
Test CRC 5BF902B9
Copy CRC 5BF902B9
Accurately ripped (confidence 1) [7AF652BF] (AR v2)
Copy OK

Track 16 Filename C:\Exact Audio Copy\Carole King\The Carnegie Hall Concert 1971\16. Will You Still Love Me Tomorrow Some Kind Of Wonderful Up On The Roof.wav Peak level 92.2 %
Extraction speed 8.6 X
Track quality 99.9 %
Test CRC 34688F9A
Copy CRC 34688F9A
Accurately ripped (confidence 1) [21826EF6] (AR v2)
Copy OK

Track 17 Filename C:\Exact Audio Copy\Carole King\The Carnegie Hall Concert 1971\17. (You Make Me Feel Like) A Natural Woman.wav Peak level 92.2 %
Extraction speed 9.1 X
Track quality 100.0 %
Test CRC 55E0D026
Copy CRC 55E0D026
Accurately ripped (confidence 1) [EE469901] (AR v2)
Copy OK

All tracks accurately ripped

No errors occurred

End of status report

==== Log checksum 6877696E05034981714A0D77C4AAEA906AB95FF5345922F4D5138896A45FA3C8 ====

foobar2000 1.3.7 / Dynamic Range Meter 1.1.1
log date: 2015-07-03 22:41:41

Analyzed: Carole King / The Carnegie Hall Concert 1971

DR Peak RMS Duration Track

DR11 -0.70 dB -13.83 dB 3:36 01-I Feel The Earth Move
DR11 -0.70 dB -16.20 dB 2:46 02-Home Again
DR10 -0.70 dB -14.47 dB 3:20 03-After All This Time
DR13 -0.70 dB -16.57 dB 4:03 04-Child Of Mine
DR11 -0.70 dB -14.48 dB 3:00 05-Carry Your Load
DR11 -0.70 dB -15.72 dB 5:32 06-No Easy Way Down
DR12 -0.70 dB -15.45 dB 3:25 07-Song Of Long Ago
DR11 -0.70 dB -13.84 dB 3:51 08-Snow Queen
DR11 -0.70 dB -14.40 dB 3:49 09-Smackwater Jack
DR10 -0.70 dB -13.87 dB 4:13 10-So Far Away
DR11 -0.70 dB -14.05 dB 4:22 11-It's Too Late
DR11 -1.05 dB -16.96 dB 4:38 12-Eventually
DR10 -0.70 dB -13.66 dB 4:14 13-Way Over Yonder
DR10 -0.70 dB -13.47 dB 2:39 14-Beautiful
DR10 -0.70 dB -14.32 dB 6:25 15-You've Got A Friend
DR11 -0.70 dB -14.12 dB 7:47 16-Will You Still Love Me Tomorrow Some Kind Of Wonderful Up On The Roof
DR11 -0.70 dB -16.01 dB 4:10 17-(You Make Me Feel Like) A Natural Woman

Number of tracks: 17
Official DR value: DR11

Samplerate: 44100 Hz
Channels: 2
Bits per sample: 16
Bitrate: 724 kbps
Codec: FLAC

All thanks to - saintsmon

password: BlondStyle


DOWNLOAD LINKS
Buy Premium From My Links To Get Resumable Support & Max Speed & To Support Me


Links are Interchangeable - No Password - Single Extraction
Direct Download

Tags: Carole, Carnegie, Concert

Carole King - The Carnegie Hall Concert: June 18, 1971 (2004) [Japan, MHCP-264] Download via Hotfile Rapidshare Fileserve Megaupload & FileSonic, Carole King - The Carnegie Hall Concert: June 18, 1971 (2004) [Japan, MHCP-264] free torrent downloads included crack, serial, keygen.Carole King - The Carnegie Hall Concert: June 18, 1971 (2004) [Japan, MHCP-264] Fast Download via Rapidshare Hotfile Fileserve Filesonic Megaupload, Carole King - The Carnegie Hall Concert: June 18, 1971 (2004) [Japan, MHCP-264] Torrents and Emule Download or anything related.
Leave a Comment
Your Name:
E-Mail:
Add Comments:

Enter Code: