Various Artists - Boppin' The Blues - Australian Pop Of The 70's Vol. 3 [2CD] (2010)

Download Now

Various Artists - Boppin' The Blues - Australian Pop Of The 70's Vol. 3 [2CD] (2010)

Various Artists - Boppin' The Blues - Australian Pop Of The 70's Vol. 3 [2CD] (2010)
Pop, Pop/Rock, Soft Rock | EAC Rip | FLAC, Tracks+CUE + LOG + Covers (Back & Front)-300dpi (JPEG) | 66:50 + 72:01 Min | 995,47 Mb
Label: Sony Music Entertainment Australia Pty Ltd. (AU) | Released: 2010, July, 13

"
The third Volume of The Australian Pop Series containing well known iconic Aussie hits form the 70s, with many hard to find and sought after Australian hits that rarely turn up on compilations. Carefully re-mastered from only the best possible sources to provide the highest quality sound - in fact many of these have never sounded so good. Included are all the original hit single versions As with previous instalments, many titles may have been bigger in some States than others or even unique to one or 2 States. Also featured are hits on CD for the first very first time, including Colleen Hewett's enormous hit from late 1971- the full length Ian "Molly"Meldrum produced epic "Day By Day". This track has been one of the most sought after Australian hits for many years.
"

Tracklist:

Disc One:

01. Blackfeather - Boppin' The Blues
02. Marc Hunter - Island Nights
03. Flash & The Pan - Hey St Peter
04. The Mixtures - Captain Zero
05. Sherbet - Cassandra
06. Shirley Strachan - Every Little Bit Hurts
07. Tadpole - Throw A Little Lovin' My Way
08. Ted Mulry Gang - Jump In My Car
09. Marty Rhone - On The Loose
10. John Farnham - Comic Conversation
11. Billy Thorpe & The Aztecs - It's Almost Summer
12. Marcie Jones - Armed And Extremely Dangerous
13. Spectrum - I'll Be Gone
14. John St. Peeters - Deep Inside Of Me
15. Jon English - Turn The Page
16. Jigsaw - Mademoiselle Ninette
17. Jeff St John - A Fool In Love
18. Barry Crocker - Susie Darlin'
19. Stylus - Summer Breeze
20. Kevin Johnson - Bonnie, Please Don't Go

Disc Two:

01. Hush - Bony Moronie
02. Rick Springfield - What Would The Children Think
03. Stars - Quick On The Draw
04. Colleen Hewett - Day By Day
05. Railroad Gin - You Told The World
06. Hans Poulsen - Boom Sha La La Lo
07. John Paul Young - I Wanna Do It With You
08. Country Radio - Gypsy Queen
09. Dragon - Still In Love With You
10. Mr. George - So Much Love (In My Heart)
11. Skyhooks - All My Friends Are Getting Married
12. Autumn - Falling
13. Ross Ryan - I Am Pegasus
14. Christie Allen - Falling In Love With You
15. Russell Morris - Mr. America
16. Debbie Byrne - He's A Rebel
17. Marcia Hines - Something's Missing (In My Life)
18. Mark Holden - Last Romance
19. Brian Cadd & Don Mudie - Show Me The Way
20. Alison MacCallum - Excuse Me

Exact Audio Copy V1.0 beta 3 from 29. August 2011

EAC extraction logfile from 6. November 2012, 2:43

Various Artists / Australian Pop Of The 70's Vol 3 Boppin' The Blues Disc 1

Used drive : HL-DT-STDVDRAM GSA-4163B Adapter: 1 ID: 0

Read mode : Secure
Utilize accurate stream : Yes
Defeat audio cache : Yes
Make use of C2 pointers : No

Read offset correction

: 667
Overread into Lead-In and Lead-Out : No
Fill up missing offset samples with silence : Yes
Delete leading and trailing silent blocks : No
Null samples used in CRC calculations : Yes
Used interface
: Native Win32 interface for Win NT & 2000
Gap handling
: Appended to previous track

Used output format : User Defined Encoder
Selected bitrate : 1024 kBit/s
Quality : High
Add ID3 tag : Yes
Command line compressor : C:\Program Files\Exact Audio Copy\Flac\flac.exe
Additional command line options : -8 -V -T "ARTIST=%artist%" -T "TITLE=%title%" -T "ALBUM=%albumtitle%" -T "DATE=%year%" -T "TRACKNUMBER=%tracknr%" -T "GENRE=%genre%" -T "COMMENT=%comment%" -T "BAND=%albuminterpret%" -T "COMPOSER=%composer%" %haslyrics%--tag-from-file=LYRICS="%lyricsfile%"%haslyrics% -T "DISCNUMBER=%cdnumber%" -T "TOTALDISCS=%totalcds%" -T "TOTALTRACKS=%numtracks%" %hascover%--picture="%coverfile%"%hascover% %source% -o %dest%

TOC of the extracted CD Track | Start | Length | Start sector | End sector
--1 | 0:00.00 | 3:12.61 | 0 | 14460 2 | 3:12.61 | 3:15.08 | 14461 | 29093 3 | 6:27.69 | 4:21.44 | 29094 | 48712 4 | 10:49.38 | 2:19.57 | 48713 | 59194 5 | 13:09.20 | 3:18.67 | 59195 | 74111 6 | 16:28.12 | 3:38.21 | 74112 | 90482 7 | 20:06.33 | 2:29.26 | 90483 | 101683 8 | 22:35.59 | 3:05.04 | 101684 | 115562 9 | 25:40.63 | 2:35.50 | 115563 | 127237
10 | 28:16.38 | 3:21.20 | 127238 | 142332
11 | 31:37.58 | 3:01.19 | 142333 | 155926
12 | 34:39.02 | 2:50.01 | 155927 | 168677
13 | 37:29.03 | 4:24.07 | 168678 | 188484
14 | 41:53.10 | 3:40.41 | 188485 | 205025
15 | 45:33.51 | 4:27.39 | 205026 | 225089
16 | 50:01.15 | 2:22.69 | 225090 | 235808
17 | 52:24.09 | 2:57.57 | 235809 | 249140
18 | 55:21.66 | 3:30.55 | 249141 | 264945
19 | 58:52.46 | 4:33.45 | 264946 | 285465
20 | 63:26.16 | 3:24.10 | 285466 | 300775

Track 1 Filename C:\Exact Audio Copy\Various Artists\Australian Pop Of The 70's Vol 3 Boppin' The Blues Disc 1\01. Boppin' The Blues.wav Pre-gap length 0:00:02.00 Peak level 99.8 %
Extraction speed 4.2 X
Track quality 100.0 %
Test CRC 93C3BEFE
Copy CRC 93C3BEFE
Accurately ripped (confidence 1) [97B932FF] (AR v1)
Copy OK

Track 2 Filename C:\Exact Audio Copy\Various Artists\Australian Pop Of The 70's Vol 3 Boppin' The Blues Disc 1\02. Island Nights.wav Pre-gap length 0:00:01.58 Peak level 99.8 %
Extraction speed 4.3 X
Track quality 100.0 %
Test CRC 6EF73320
Copy CRC 6EF73320
Accurately ripped (confidence 1) [C3934A9E] (AR v1)
Copy OK

Track 3 Filename C:\Exact Audio Copy\Various Artists\Australian Pop Of The 70's Vol 3 Boppin' The Blues Disc 1\03. Hey St Peter.wav Pre-gap length 0:00:01.59 Peak level 99.8 %
Extraction speed 4.2 X
Track quality 99.9 %
Test CRC 5D33E7CB
Copy CRC 5D33E7CB
Accurately ripped (confidence 1) [6A547948] (AR v1)
Copy OK

Track 4 Filename C:\Exact Audio Copy\Various Artists\Australian Pop Of The 70's Vol 3 Boppin' The Blues Disc 1\04. Captain Zero.wav Pre-gap length 0:00:01.58 Peak level 99.8 %
Extraction speed 3.9 X
Track quality 99.9 %
Test CRC 2C05E32F
Copy CRC 2C05E32F
Accurately ripped (confidence 1) [78DBBA1E] (AR v1)
Copy OK

Track 5 Filename C:\Exact Audio Copy\Various Artists\Australian Pop Of The 70's Vol 3 Boppin' The Blues Disc 1\05. Cassandra.wav Pre-gap length 0:00:01.58 Peak level 91.2 %
Extraction speed 4.8 X
Track quality 99.9 %
Test CRC 809AFAF5
Copy CRC 809AFAF5
Accurately ripped (confidence 1) [135D90B8] (AR v1)
Copy OK

Track 6 Filename C:\Exact Audio Copy\Various Artists\Australian Pop Of The 70's Vol 3 Boppin' The Blues Disc 1\06. Every Little Bit Hurts.wav Pre-gap length 0:00:01.58 Peak level 96.6 %
Extraction speed 6.0 X
Track quality 100.0 %
Test CRC C43C1D56
Copy CRC C43C1D56
Accurately ripped (confidence 1) [83463520] (AR v1)
Copy OK

Track 7 Filename C:\Exact Audio Copy\Various Artists\Australian Pop Of The 70's Vol 3 Boppin' The Blues Disc 1\07. Throw A Little Lovin' My Way.wav Pre-gap length 0:00:01.58 Peak level 93.3 %
Extraction speed 5.6 X
Track quality 100.0 %
Test CRC C1436710
Copy CRC C1436710
Accurately ripped (confidence 1) [4C347F31] (AR v1)
Copy OK

Track 8 Filename C:\Exact Audio Copy\Various Artists\Australian Pop Of The 70's Vol 3 Boppin' The Blues Disc 1\08. Jump In My Car.wav Pre-gap length 0:00:01.58 Peak level 99.8 %
Extraction speed 6.3 X
Track quality 100.0 %
Test CRC 4935188F
Copy CRC 4935188F
Accurately ripped (confidence 1) [C66E9B2F] (AR v1)
Copy OK

Track 9 Filename C:\Exact Audio Copy\Various Artists\Australian Pop Of The 70's Vol 3 Boppin' The Blues Disc 1\09. On The Loose.wav Pre-gap length 0:00:01.58 Peak level 86.5 %
Extraction speed 4.6 X
Track quality 99.9 %
Test CRC B21B0678
Copy CRC B21B0678
Accurately ripped (confidence 1) [FFB17EDE] (AR v1)
Copy OK

Track 10 Filename C:\Exact Audio Copy\Various Artists\Australian Pop Of The 70's Vol 3 Boppin' The Blues Disc 1\10. Comic Conversation.wav Pre-gap length 0:00:01.58 Peak level 99.8 %
Extraction speed 6.4 X
Track quality 100.0 %
Test CRC 14AC5838
Copy CRC 14AC5838
Accurately ripped (confidence 1) 0963ED3 (AR v1)
Copy OK

Track 11 Filename C:\Exact Audio Copy\Various Artists\Australian Pop Of The 70's Vol 3 Boppin' The Blues Disc 1\11. It's Almost Summer.wav Pre-gap length 0:00:01.59 Peak level 99.8 %
Extraction speed 5.5 X
Track quality 99.9 %
Test CRC 14A9E7F7
Copy CRC 14A9E7F7
Accurately ripped (confidence 1) [93A9C0AF] (AR v1)
Copy OK

Track 12 Filename C:\Exact Audio Copy\Various Artists\Australian Pop Of The 70's Vol 3 Boppin' The Blues Disc 1\12. Armed And Extremely Dangerous.wav Pre-gap length 0:00:01.59 Peak level 95.3 %
Extraction speed 6.9 X
Track quality 100.0 %
Test CRC 5BFCDA3A
Copy CRC 5BFCDA3A
Accurately ripped (confidence 1) [D0CF2EA6] (AR v1)
Copy OK

Track 13 Filename C:\Exact Audio Copy\Various Artists\Australian Pop Of The 70's Vol 3 Boppin' The Blues Disc 1\13. I'll Be Gone.wav Pre-gap length 0:00:01.43 Peak level 93.3 %
Extraction speed 7.0 X
Track quality 100.0 %
Test CRC 3C7055A9
Copy CRC 3C7055A9
Accurately ripped (confidence 1) [4D2839D1] (AR v1)
Copy OK

Track 14 Filename C:\Exact Audio Copy\Various Artists\Australian Pop Of The 70's Vol 3 Boppin' The Blues Disc 1\14. Deep Inside Of Me.wav Pre-gap length 0:00:01.58 Peak level 85.1 %
Extraction speed 7.7 X
Track quality 100.0 %
Test CRC 9204FF44
Copy CRC 9204FF44
Accurately ripped (confidence 1) [E82505F2] (AR v1)
Copy OK

Track 15 Filename C:\Exact Audio Copy\Various Artists\Australian Pop Of The 70's Vol 3 Boppin' The Blues Disc 1\15. Turn The Page.wav Pre-gap length 0:00:01.58 Peak level 99.8 %
Extraction speed 8.0 X
Track quality 100.0 %
Test CRC 46DFDCE2
Copy CRC 46DFDCE2
Accurately ripped (confidence 1) [3E21494E] (AR v1)
Copy OK

Track 16 Filename C:\Exact Audio Copy\Various Artists\Australian Pop Of The 70's Vol 3 Boppin' The Blues Disc 1\16. Mademoiselle Ninette.wav Pre-gap length 0:00:01.58 Peak level 99.8 %
Extraction speed 7.0 X
Track quality 100.0 %
Test CRC 166ACA76
Copy CRC 166ACA76
Accurately ripped (confidence 1) [0D376AE5] (AR v1)
Copy OK

Track 17 Filename C:\Exact Audio Copy\Various Artists\Australian Pop Of The 70's Vol 3 Boppin' The Blues Disc 1\17. A Fool In Love.wav Pre-gap length 0:00:01.58 Peak level 98.7 %
Extraction speed 6.8 X
Track quality 100.0 %
Test CRC 9065618E
Copy CRC 9065618E
Accurately ripped (confidence 1) [03857A50] (AR v1)
Copy OK

Track 18 Filename C:\Exact Audio Copy\Various Artists\Australian Pop Of The 70's Vol 3 Boppin' The Blues Disc 1\18. Susie Darlin'.wav Pre-gap length 0:00:01.59 Peak level 99.8 %
Extraction speed 7.6 X
Track quality 100.0 %
Test CRC 746496C8
Copy CRC 746496C8
Accurately ripped (confidence 1) [164721C9] (AR v1)
Copy OK

Track 19 Filename C:\Exact Audio Copy\Various Artists\Australian Pop Of The 70's Vol 3 Boppin' The Blues Disc 1\19. Summer Breeze.wav Pre-gap length 0:00:01.58 Peak level 84.1 %
Extraction speed 4.8 X
Track quality 100.0 %
Test CRC AC771D3F
Copy CRC AC771D3F
Accurately ripped (confidence 1) [703905D3] (AR v1)
Copy OK

Track 20 Filename C:\Exact Audio Copy\Various Artists\Australian Pop Of The 70's Vol 3 Boppin' The Blues Disc 1\20. Bonnie, Please Don't Go.wav Pre-gap length 0:00:01.58 Peak level 99.8 %
Extraction speed 7.2 X
Track quality 100.0 %
Test CRC D47E65F5
Copy CRC D47E65F5
Accurately ripped (confidence 1) A8693CA (AR v1)
Copy OK

All tracks accurately ripped

No errors occurred

End of status report

==== Log checksum 8408A89AAAEEFFC62C0EC69CEEF72FD7F0CBB95A251D8854A56C52CE1A3B654C ====

Exact Audio Copy V1.0 beta 3 from 29. August 2011

EAC extraction logfile from 6. November 2012, 3:13

Various Artists / Australian Pop of The 70's Vol 3 Boppin' The Blues Disc 2

Used drive : HL-DT-STDVDRAM GSA-4163B Adapter: 1 ID: 0

Read mode : Secure
Utilize accurate stream : Yes
Defeat audio cache : Yes
Make use of C2 pointers : No

Read offset correction

: 667
Overread into Lead-In and Lead-Out : No
Fill up missing offset samples with silence : Yes
Delete leading and trailing silent blocks : No
Null samples used in CRC calculations : Yes
Used interface
: Native Win32 interface for Win NT & 2000
Gap handling
: Appended to previous track

Used output format : User Defined Encoder
Selected bitrate : 1024 kBit/s
Quality : High
Add ID3 tag : Yes
Command line compressor : C:\Program Files\Exact Audio Copy\Flac\flac.exe
Additional command line options : -8 -V -T "ARTIST=%artist%" -T "TITLE=%title%" -T "ALBUM=%albumtitle%" -T "DATE=%year%" -T "TRACKNUMBER=%tracknr%" -T "GENRE=%genre%" -T "COMMENT=%comment%" -T "BAND=%albuminterpret%" -T "COMPOSER=%composer%" %haslyrics%--tag-from-file=LYRICS="%lyricsfile%"%haslyrics% -T "DISCNUMBER=%cdnumber%" -T "TOTALDISCS=%totalcds%" -T "TOTALTRACKS=%numtracks%" %hascover%--picture="%coverfile%"%hascover% %source% -o %dest%

TOC of the extracted CD Track | Start | Length | Start sector | End sector
--1 | 0:00.00 | 3:12.42 | 0 | 14441 2 | 3:12.42 | 3:41.39 | 14442 | 31055 3 | 6:54.06 | 3:27.04 | 31056 | 46584 4 | 10:21.10 | 5:58.28 | 46585 | 73462 5 | 16:19.38 | 2:54.15 | 73463 | 86527 6 | 19:13.53 | 2:55.01 | 86528 | 99653 7 | 22:08.54 | 3:03.00 | 99654 | 113378 8 | 25:11.54 | 4:02.48 | 113379 | 131576 9 | 29:14.27 | 3:26.27 | 131577 | 147053
10 | 32:40.54 | 2:57.62 | 147054 | 160390
11 | 35:38.41 | 4:50.12 | 160391 | 182152
12 | 40:28.53 | 3:22.43 | 182153 | 197345
13 | 43:51.21 | 3:42.50 | 197346 | 214045
14 | 47:33.71 | 3:28.66 | 214046 | 229711
15 | 51:02.62 | 3:52.58 | 229712 | 247169
16 | 54:55.45 | 2:23.39 | 247170 | 257933
17 | 57:19.09 | 4:40.47 | 257934 | 278980
18 | 61:59.56 | 2:49.09 | 278981 | 291664
19 | 64:48.65 | 4:01.15 | 291665 | 309754
20 | 68:50.05 | 3:10.70 | 309755 | 324074

Track 1 Filename C:\Exact Audio Copy\Various Artists\Australian Pop of The 70's Vol 3 Boppin' The Blues Disc 2\01. Bony Moronie.wav Pre-gap length 0:00:02.00 Peak level 85.1 %
Extraction speed 3.7 X
Track quality 99.9 %
Test CRC FDF6346F
Copy CRC FDF6346F
Accurately ripped (confidence 1) [988456EA] (AR v1)
Copy OK

Track 2 Filename C:\Exact Audio Copy\Various Artists\Australian Pop of The 70's Vol 3 Boppin' The Blues Disc 2\02. What Would The Children Think.wav Pre-gap length 0:00:01.58 Peak level 99.8 %
Extraction speed 4.6 X
Track quality 100.0 %
Test CRC 69851393
Copy CRC 69851393
Accurately ripped (confidence 1) [DAFBF95D] (AR v1)
Copy OK

Track 3 Filename C:\Exact Audio Copy\Various Artists\Australian Pop of The 70's Vol 3 Boppin' The Blues Disc 2\03. Quick On The Draw.wav Pre-gap length 0:00:01.58 Peak level 99.8 %
Extraction speed 4.7 X
Track quality 100.0 %
Test CRC 356B8128
Copy CRC 356B8128
Accurately ripped (confidence 1) DBA17B3 (AR v1)
Copy OK

Track 4 Filename C:\Exact Audio Copy\Various Artists\Australian Pop of The 70's Vol 3 Boppin' The Blues Disc 2\04. Day By Day.wav Pre-gap length 0:00:01.58 Peak level 99.8 %
Extraction speed 5.9 X
Track quality 100.0 %
Test CRC E7B07ADC
Copy CRC E7B07ADC
Accurately ripped (confidence 1) [E8A8AD5A] (AR v1)
Copy OK

Track 5 Filename C:\Exact Audio Copy\Various Artists\Australian Pop of The 70's Vol 3 Boppin' The Blues Disc 2\05. You Told The World.wav Pre-gap length 0:00:01.58 Peak level 96.6 %
Extraction speed 5.2 X
Track quality 100.0 %
Test CRC B70367E2
Copy CRC B70367E2
Accurately ripped (confidence 1) [E812C4B7] (AR v1)
Copy OK

Track 6 Filename C:\Exact Audio Copy\Various Artists\Australian Pop of The 70's Vol 3 Boppin' The Blues Disc 2\06. Boom Sha La La Lo.wav Pre-gap length 0:00:01.53 Peak level 99.8 %
Extraction speed 5.9 X
Track quality 100.0 %
Test CRC D954942F
Copy CRC D954942F
Accurately ripped (confidence 1) [6CD6F610] (AR v1)
Copy OK

Track 7 Filename C:\Exact Audio Copy\Various Artists\Australian Pop of The 70's Vol 3 Boppin' The Blues Disc 2\07. I Wanna Do It With You.wav Pre-gap length 0:00:01.55 Peak level 91.2 %
Extraction speed 6.1 X
Track quality 100.0 %
Test CRC F022D0D4
Copy CRC F022D0D4
Accurately ripped (confidence 1) [61CEDBE1] (AR v1)
Copy OK

Track 8 Filename C:\Exact Audio Copy\Various Artists\Australian Pop of The 70's Vol 3 Boppin' The Blues Disc 2\08. Gypsy Queen.wav Pre-gap length 0:00:01.58 Peak level 99.8 %
Extraction speed 5.9 X
Track quality 100.0 %
Test CRC 7EF06277
Copy CRC 7EF06277
Accurately ripped (confidence 1) [54BDA337] (AR v1)
Copy OK

Track 9 Filename C:\Exact Audio Copy\Various Artists\Australian Pop of The 70's Vol 3 Boppin' The Blues Disc 2\09. Still In Love With You.wav Pre-gap length 0:00:01.58 Peak level 99.8 %
Extraction speed 6.5 X
Track quality 100.0 %
Test CRC A373F039
Copy CRC A373F039
Accurately ripped (confidence 1) [50F781C4] (AR v1)
Copy OK

Track 10 Filename C:\Exact Audio Copy\Various Artists\Australian Pop of The 70's Vol 3 Boppin' The Blues Disc 2\10. So Much Love (In My Heart).wav Pre-gap length 0:00:01.58 Peak level 99.8 %
Extraction speed 6.6 X
Track quality 100.0 %
Test CRC 6FA4A43C
Copy CRC 6FA4A43C
Accurately ripped (confidence 1) [6793109F] (AR v1)
Copy OK

Track 11 Filename C:\Exact Audio Copy\Various Artists\Australian Pop of The 70's Vol 3 Boppin' The Blues Disc 2\11. All My Friends Are Getting Married.wav Pre-gap length 0:00:01.58 Peak level 91.2 %
Extraction speed 6.3 X
Track quality 99.9 %
Test CRC 847CC4D4
Copy CRC 847CC4D4
Accurately ripped (confidence 1) [92151D01] (AR v1)
Copy OK

Track 12 Filename C:\Exact Audio Copy\Various Artists\Australian Pop of The 70's Vol 3 Boppin' The Blues Disc 2\12. Falling.wav Pre-gap length 0:00:01.58 Peak level 99.8 %
Extraction speed 7.1 X
Track quality 100.0 %
Test CRC B8453D19
Copy CRC B8453D19
Accurately ripped (confidence 1) [5CBA86B0] (AR v1)
Copy OK

Track 13 Filename C:\Exact Audio Copy\Various Artists\Australian Pop of The 70's Vol 3 Boppin' The Blues Disc 2\13. I Am Pegasus.wav Pre-gap length 0:00:01.59 Peak level 93.3 %
Extraction speed 7.6 X
Track quality 100.0 %
Test CRC 8245A38E
Copy CRC 8245A38E
Accurately ripped (confidence 1) [51D0CD0D] (AR v1)
Copy OK

Track 14 Filename C:\Exact Audio Copy\Various Artists\Australian Pop of The 70's Vol 3 Boppin' The Blues Disc 2\14. Falling In Love With Only You.wav Pre-gap length 0:00:01.58 Peak level 99.8 %
Extraction speed 7.9 X
Track quality 100.0 %
Test CRC 6E9367EE
Copy CRC 6E9367EE
Accurately ripped (confidence 1) [10DB851C] (AR v1)
Copy OK

Track 15 Filename C:\Exact Audio Copy\Various Artists\Australian Pop of The 70's Vol 3 Boppin' The Blues Disc 2\15. Mr. America.wav Pre-gap length 0:00:01.58 Peak level 99.8 %
Extraction speed 7.7 X
Track quality 100.0 %
Test CRC 816A0118
Copy CRC 816A0118
Accurately ripped (confidence 1) [90216FE7] (AR v1)
Copy OK

Track 16 Filename C:\Exact Audio Copy\Various Artists\Australian Pop of The 70's Vol 3 Boppin' The Blues Disc 2\16. He's A Rebel.wav Pre-gap length 0:00:01.58 Peak level 91.2 %
Extraction speed 7.7 X
Track quality 100.0 %
Test CRC A8A07217
Copy CRC A8A07217
Accurately ripped (confidence 1) [2E7397B7] (AR v1)
Copy OK

Track 17 Filename C:\Exact Audio Copy\Various Artists\Australian Pop of The 70's Vol 3 Boppin' The Blues Disc 2\17. Something's Missing (In My Life).wav Pre-gap length 0:00:01.58 Peak level 88.9 %
Extraction speed 8.2 X
Track quality 100.0 %
Test CRC DD598393
Copy CRC DD598393
Accurately ripped (confidence 1) [5AEB6346] (AR v1)
Copy OK

Track 18 Filename C:\Exact Audio Copy\Various Artists\Australian Pop of The 70's Vol 3 Boppin' The Blues Disc 2\18. Last Romance.wav Pre-gap length 0:00:01.58 Peak level 99.8 %
Extraction speed 8.3 X
Track quality 100.0 %
Test CRC 6EFD70B3
Copy CRC 6EFD70B3
Accurately ripped (confidence 1) [01BFC1B8] (AR v1)
Copy OK

Track 19 Filename C:\Exact Audio Copy\Various Artists\Australian Pop of The 70's Vol 3 Boppin' The Blues Disc 2\19. Show Me The Way.wav Pre-gap length 0:00:01.59 Peak level 99.8 %
Extraction speed 8.1 X
Track quality 100.0 %
Test CRC 95987A25
Copy CRC 95987A25
Accurately ripped (confidence 1) [2E48ECD8] (AR v1)
Copy OK

Track 20 Filename C:\Exact Audio Copy\Various Artists\Australian Pop of The 70's Vol 3 Boppin' The Blues Disc 2\20. Excuse Me.wav Pre-gap length 0:00:01.58 Peak level 99.8 %
Extraction speed 7.6 X
Track quality 99.9 %
Test CRC BE805DA8
Copy CRC BE805DA8
Accurately ripped (confidence 1) [766C8809] (AR v1)
Copy OK

All tracks accurately ripped

No errors occurred

End of status report

==== Log checksum B77599B86FBF3E1737BB42DC0C325A2DE73312EBDB2B5D89AAA71AC2DB3ED33A ====

foobar2000 1.3.7 / Dynamic Range Meter 1.1.1
log date: 2015-07-01 22:26:18

Analyzed: Barry Crocker / Australian Pop Of The 70's Vol 3 Boppin' The Blues Disc 1 (1) Billy Thorpe / Australian Pop Of The 70's Vol 3 Boppin' The Blues Disc 1 (2) Blackfeather / Australian Pop Of The 70's Vol 3 Boppin' The Blues Disc 1 (3) Flash & The Pan / Australian Pop Of The 70's Vol 3 Boppin' The Blues Disc 1 (4) Jeff St John / Australian Pop Of The 70's Vol 3 Boppin' The Blues Disc 1 (5) Jigsaw / Australian Pop Of The 70's Vol 3 Boppin' The Blues Disc 1 (6) John Farnham / Australian Pop Of The 70's Vol 3 Boppin' The Blues Disc 1 (7) John St. Peters / Australian Pop Of The 70's Vol 3 Boppin' The Blues Disc 1 (8) Jon English / Australian Pop Of The 70's Vol 3 Boppin' The Blues Disc 1 (9) Kevin Johnson / Australian Pop Of The 70's Vol 3 Boppin' The Blues Disc 1 (10) Marc Hunter / Australian Pop Of The 70's Vol 3 Boppin' The Blues Disc 1 (11) Marcie Jones / Australian Pop Of The 70's Vol 3 Boppin' The Blues Disc 1 (12) Marty Rhone / Australian Pop Of The 70's Vol 3 Boppin' The Blues Disc 1 (13) Sherbet / Australian Pop Of The 70's Vol 3 Boppin' The Blues Disc 1 (14) Shirley Strachan / Australian Pop Of The 70's Vol 3 Boppin' The Blues Disc 1 (15) Spectrum / Australian Pop Of The 70's Vol 3 Boppin' The Blues Disc 1 (16) Stylus / Australian Pop Of The 70's Vol 3 Boppin' The Blues Disc 1 (17) Tadpole / Australian Pop Of The 70's Vol 3 Boppin' The Blues Disc 1 (18) Ted Mulry Gang / Australian Pop Of The 70's Vol 3 Boppin' The Blues Disc 1 (19) The Mixtures / Australian Pop Of The 70's Vol 3 Boppin' The Blues Disc 1 (20)

DR Peak RMS Duration Track

DR9 -0.01 dB -10.62 dB 3:31 18-Susie Darlin'
DR9 -0.01 dB -10.64 dB 3:01 11-It's Almost Summer
DR10 -0.01 dB -10.75 dB 3:13 01-Boppin' The Blues
DR10 -0.01 dB -12.51 dB 4:22 03-Hey St Peter
DR11 -0.11 dB -12.30 dB 2:58 17-A Fool In Love
DR10 -0.01 dB -11.83 dB 2:23 16-Mademoiselle Ninette
DR8 -0.01 dB -9.08 dB 3:21 10-Comic Conversation
DR9 -1.40 dB -12.00 dB 3:41 14-Deep Inside Of Me
DR10 -0.01 dB -11.79 dB 4:28 15-Turn The Page
DR10 -0.01 dB -11.19 dB 3:24 20-Bonnie, Please Don't Go
DR11 -0.01 dB -13.05 dB 3:15 02-Island Nights
DR10 -0.41 dB -11.15 dB 2:50 12-Armed And Extremely Dangerous
DR9 -1.25 dB -12.12 dB 2:36 09-On The Loose
DR8 -0.80 dB -10.89 dB 3:19 05-Cassandra
DR8 -0.30 dB -11.30 dB 3:38 06-Every Little Bit Hurts
DR7 -0.60 dB -9.59 dB 4:24 13-I'll Be Gone
DR9 -1.50 dB -12.12 dB 4:34 19-Summer Breeze
DR9 -0.60 dB -10.74 dB 2:29 07-Throw A Little Lovin' My Way
DR10 -0.01 dB -11.74 dB 3:05 08-Jump In My Car
DR10 -0.01 dB -11.93 dB 2:20 04-Captain Zero

Number of tracks: 20
Official DR value: DR9

Samplerate: 44100 Hz
Channels: 2
Bits per sample: 16
Bitrate: 917 kbps
Codec: FLAC

foobar2000 1.3.7 / Dynamic Range Meter 1.1.1
log date: 2015-07-01 22:27:00

Analyzed: Alison McCallum / Australian Pop of The 70's Vol 3 Boppin' The Blues Disc 2 (1) Autumn / Australian Pop of The 70's Vol 3 Boppin' The Blues Disc 2 (2) Brian Cadd & Don Mudie / Australian Pop of The 70's Vol 3 Boppin' The Blues Disc 2 (3) Christie Allen / Australian Pop of The 70's Vol 3 Boppin' The Blues Disc 2 (4) Colleen Hewett / Australian Pop of The 70's Vol 3 Boppin' The Blues Disc 2 (5) Country Radio / Australian Pop of The 70's Vol 3 Boppin' The Blues Disc 2 (6) Debbie Byrne / Australian Pop of The 70's Vol 3 Boppin' The Blues Disc 2 (7) Dragon / Australian Pop of The 70's Vol 3 Boppin' The Blues Disc 2 (8) Hans Poulsen / Australian Pop of The 70's Vol 3 Boppin' The Blues Disc 2 (9) Hush / Australian Pop of The 70's Vol 3 Boppin' The Blues Disc 2 (10) John Paul Young / Australian Pop of The 70's Vol 3 Boppin' The Blues Disc 2 (11) Marcia Hines / Australian Pop of The 70's Vol 3 Boppin' The Blues Disc 2 (12) Mark Holden / Australian Pop of The 70's Vol 3 Boppin' The Blues Disc 2 (13) Mr George / Australian Pop of The 70's Vol 3 Boppin' The Blues Disc 2 (14) Railroad Gin / Australian Pop of The 70's Vol 3 Boppin' The Blues Disc 2 (15) Rick Springfield / Australian Pop of The 70's Vol 3 Boppin' The Blues Disc 2 (16) Ross Ryan / Australian Pop of The 70's Vol 3 Boppin' The Blues Disc 2 (17) Russell Morris / Australian Pop of The 70's Vol 3 Boppin' The Blues Disc 2 (18) Skyhooks / Australian Pop of The 70's Vol 3 Boppin' The Blues Disc 2 (19) Stars / Australian Pop of The 70's Vol 3 Boppin' The Blues Disc 2 (20)

DR Peak RMS Duration Track

DR11 -0.01 dB -13.32 dB 3:11 20-Excuse Me
DR8 -0.01 dB -10.68 dB 3:23 12-Falling
DR9 -0.01 dB -12.79 dB 4:01 19-Show Me The Way
DR9 -0.01 dB -11.68 dB 3:29 14-Falling In Love With Only You
DR8 -0.01 dB -10.15 dB 5:58 04-Day By Day
DR9 -0.01 dB -12.12 dB 4:03 08-Gypsy Queen
DR9 -0.80 dB -11.03 dB 2:24 16-He's A Rebel
DR10 -0.01 dB -10.95 dB 3:26 09-Still In Love With You
DR10 -0.01 dB -12.30 dB 2:55 06-Boom Sha La La Lo
DR7 -1.40 dB -9.29 dB 3:13 01-Bony Moronie
DR8 -0.80 dB -10.45 dB 3:03 07-I Wanna Do It With You
DR7 -1.01 dB -9.74 dB 4:41 17-Something's Missing (In My Life)
DR9 -0.01 dB -11.36 dB 2:49 18-Last Romance
DR9 -0.01 dB -10.49 dB 2:58 10-So Much Love (In My Heart)
DR10 -0.30 dB -12.35 dB 2:54 05-You Told The World
DR9 -0.01 dB -10.75 dB 3:42 02-What Would The Children Think
DR9 -0.60 dB -10.75 dB 3:43 13-I Am Pegasus
DR9 -0.01 dB -9.80 dB 3:53 15-Mr. America
DR7 -0.80 dB -8.99 dB 4:50 11-All My Friends Are Getting Married
DR10 -0.01 dB -10.40 dB 3:27 03-Quick On The Draw

Number of tracks: 20
Official DR value: DR9

Samplerate: 44100 Hz
Channels: 2
Bits per sample: 16
Bitrate: 1002 kbps
Codec: FLAC

password: BlondStyle
DOWNLOAD LINKS
Buy Premium From My Links To Get Resumable Support & Max Speed & To Support Me


Links are Interchangeable - No Password - Single Extraction
Direct Download

Tags: Various, Artists, Boppin, Australian

Various Artists - Boppin' The Blues - Australian Pop Of The 70's Vol. 3 [2CD] (2010) Download via Hotfile Rapidshare Fileserve Megaupload & FileSonic, Various Artists - Boppin' The Blues - Australian Pop Of The 70's Vol. 3 [2CD] (2010) free torrent downloads included crack, serial, keygen.Various Artists - Boppin' The Blues - Australian Pop Of The 70's Vol. 3 [2CD] (2010) Fast Download via Rapidshare Hotfile Fileserve Filesonic Megaupload, Various Artists - Boppin' The Blues - Australian Pop Of The 70's Vol. 3 [2CD] (2010) Torrents and Emule Download or anything related.
Leave a Comment
Your Name:
E-Mail:
Add Comments:

Enter Code: