Scott Hamilton and Rossano Sportiello - Midnight at Nola's Penthouse (2010)

Download Now

Scott Hamilton and Rossano Sportiello - Midnight at Nola's Penthouse (2010)

Scott Hamilton and Rossano Sportiello - Midnight at Nola's Penthouse (2010)
Jazz | 1cd | EAC Rip | Flac + Cue + Log | covers
Arbors ARCD 19415 | rel: 2010 | 340Mb

Scott Hamilton emerged in the mid-'70s as a player who had a gift for creating a lush, swinging sound, regardless of the tempo or style. His partner on this 2010 studio session, Italian pianist Rossano Sportiello, is two decades younger, but the perfect partner. Their program includes a mix of standards and lesser-known songs, all played with a minimum of fuss and a maximum of beauty.
"A Garden in the Rain" isn't the first ballad one would expect a jazz duo to choose, but the lush interpretation here could launch others into investigating its potential. Hamilton's boisterous playing is boosted by Sportiello's driving accompaniment, with the influence of the late Dave McKenna apparent. "Big Butter and Egg Man" is rarely played outside of traditional jazz/New Orleans jazz, but their brisk, lyrical interpretation should open some ears. They also sizzle with their driving rendition of "All God's Chillun' Got Rhythm," with plenty of fireworks as they trade the lead. This rewarding date deserves a follow-up meeting. ~Allmusic

Track listing
01. Wonder Why (8:49)
02. A Garden in the Rain (6:07)
03. This Can't Be Love (7:09)
04. A Time for Love (5:40)
05. Come Back to Sorrento (7:17)
06. All My Tomorrows (5:30)
07. Big Butter and Egg Man (7:25)
08. It's All In Your Mind (6:10)
09. All God's Chillun' Got Rhythm (6:46)
10. In the Middle of a Kiss (6:31)
~ (67:24)

Personnel
Scott Hamilton - Tenor Saxophone
Rossano Sportiello - Piano

Exact Audio Copy V1.0 beta 1 from 15. November 2010

EAC extraction logfile from 9. April 2011, 16:16

Scott Hamilton and Rossano Sportiello / Midnight at Nola's Penthouse

Used drive : HL-DT-STDVD-RAM GSA-H55N Adapter: 0 ID: 2

Read mode : Secure
Utilize accurate stream : Yes
Defeat audio cache : Yes
Make use of C2 pointers : No

Read offset correction

: 102
Overread into Lead-In and Lead-Out : Yes
Fill up missing offset samples with silence : Yes
Delete leading and trailing silent blocks : No
Null samples used in CRC calculations : Yes
Used interface
: Installed external ASPI interface
Gap handling
: Appended to previous track

Used output format : User Defined Encoder
Selected bitrate : 128 kBit/s
Quality : High
Add ID3 tag : No
Command line compressor : G:\Program Files\Exact Audio Copy\Encoder\flac.exe
Additional command line options : -V -8 -T "Genre=%m" -T "Artist=%a" -T "Title=%t" -T "Album=%g" -T "Date=%y" -T "Tracknumber=%n" -T "Comment=EAC1.0b1 -8" %s

TOC of the extracted CD Track | Start | Length | Start sector | End sector
--1 | 0:00.00 | 8:48.72 | 0 | 39671 2 | 8:48.72 | 6:06.70 | 39672 | 67191 3 | 14:55.67 | 7:08.48 | 67192 | 99339 4 | 22:04.40 | 5:39.71 | 99340 | 124835 5 | 27:44.36 | 7:16.62 | 124836 | 157597 6 | 35:01.23 | 5:29.55 | 157598 | 182327 7 | 40:31.03 | 7:24.57 | 182328 | 215684 8 | 47:55.60 | 6:10.37 | 215685 | 243471 9 | 54:06.22 | 6:46.26 | 243472 | 273947
10 | 60:52.48 | 6:31.10 | 273948 | 303282

Track 1 Filename F:\WAV\01. Wonder Why.wav Pre-gap length 0:00:02.00 Peak level 97.7 %
Extraction speed 5.2 X
Track quality 99.9 %
Test CRC 9AC8A38C
Copy CRC 9AC8A38C
Track not present in AccurateRip database
Copy OK

Track 2 Filename F:\WAV\02. A Garden in the Rain.wav Peak level 97.7 %
Extraction speed 5.6 X
Track quality 99.9 %
Test CRC 8EFC1911
Copy CRC 8EFC1911
Track not present in AccurateRip database
Copy OK

Track 3 Filename F:\WAV\03. This Can't Be Love.wav Peak level 97.7 %
Extraction speed 6.8 X
Track quality 100.0 %
Test CRC A6C76B93
Copy CRC A6C76B93
Track not present in AccurateRip database
Copy OK

Track 4 Filename F:\WAV\04. A Time for Love.wav Peak level 97.7 %
Extraction speed 7.1 X
Track quality 100.0 %
Test CRC 92C03B38
Copy CRC 92C03B38
Track not present in AccurateRip database
Copy OK

Track 5 Filename F:\WAV\05. Come Back to Sorrento.wav Peak level 97.7 %
Extraction speed 7.8 X
Track quality 100.0 %
Test CRC 4D8637CC
Copy CRC 4D8637CC
Track not present in AccurateRip database
Copy OK

Track 6 Filename F:\WAV\06. All My Tomorrows.wav Peak level 97.7 %
Extraction speed 7.1 X
Track quality 99.9 %
Test CRC 7B9DFB41
Copy CRC 7B9DFB41
Track not present in AccurateRip database
Copy OK

Track 7 Filename F:\WAV\07. Big Butter and Egg Man.wav Peak level 97.7 %
Extraction speed 8.4 X
Track quality 100.0 %
Test CRC E60B3046
Copy CRC E60B3046
Track not present in AccurateRip database
Copy OK

Track 8 Filename F:\WAV\08. It's All In Your Mind.wav Peak level 97.7 %
Extraction speed 8.6 X
Track quality 100.0 %
Test CRC DFB7F7AE
Copy CRC DFB7F7AE
Track not present in AccurateRip database
Copy OK

Track 9 Filename F:\WAV\09. All God's Chillun' Got Rhythm.wav Peak level 97.7 %
Extraction speed 9.1 X
Track quality 100.0 %
Test CRC 1AEDCFAF
Copy CRC 1AEDCFAF
Track not present in AccurateRip database
Copy OK

Track 10 Filename F:\WAV\10. In the Middle of a Kiss.wav Peak level 97.7 %
Extraction speed 6.6 X
Track quality 99.9 %
Test CRC B6AEDC9B
Copy CRC B6AEDC9B
Track not present in AccurateRip database
Copy OK

None of the tracks are present in the AccurateRip database

No errors occurred

End of status report

==== Log checksum EE6A0A3F8E5F9B718D9911F27B69AAD5990E7D8CC1E6BFB86E1F01CB9DDA5DBB ====

[CUETools log; Date: 2015.07.04. 8:39:28; Version: 2.1.5]
[CTDB TOCID: W0AWrAVSSO5pimszTF2rnFTh1T0-] found.
Track | CTDB Status
1 | (1/1) Accurately ripped
2 | (1/1) Accurately ripped
3 | (1/1) Accurately ripped
4 | (1/1) Accurately ripped
5 | (1/1) Accurately ripped
6 | (1/1) Accurately ripped
7 | (1/1) Accurately ripped
8 | (1/1) Accurately ripped
9 | (1/1) Accurately ripped
10 | (1/1) Accurately ripped
[AccurateRip ID: 001a0d5a-00ce3f7a-8e0fcb0a] found.
Track [ CRC | V2 ] Status
01 [07c2b176|1fbca37a] (0+1/3) Accurately ripped
02 [2ce1314e|9c094143] (0+1/3) Accurately ripped
03 [0f557ba8|b072abbf] (0+1/3) Accurately ripped
04 [a757ec8d|bebb80a2] (0+1/3) Accurately ripped
05 [ebb1597c|73768115] (0+1/3) Accurately ripped
06 [27dadcbe|0a9c752f] (0+1/3) Accurately ripped
07 [f90b7645|c4ef64af] (0+1/3) Accurately ripped
08 [cf20af40|b5de8a29] (0+1/3) Accurately ripped
09 [8ccbcabb|5a5fd0bb] (0+1/3) Accurately ripped
10 [c5c08352|bbd5f881] (0+1/3) Accurately ripped
Offsetted by -48:
01 [02297fdf] (1/3) Accurately ripped
02 [59a2f108] (1/3) Accurately ripped
03 [d65f177e] (1/3) Accurately ripped
04 [de262627] (1/3) Accurately ripped
05 [0f4664ed] (1/3) Accurately ripped
06 [fa53f43e] (1/3) Accurately ripped
07 [954a108d] (1/3) Accurately ripped
08 [04333b2d] (1/3) Accurately ripped
09 [6d8adfd4] (1/3) Accurately ripped
10 [d6008f9c] (1/3) Accurately ripped

Track Peak [ CRC32 ] [W/O NULL] [ LOG ]
-- 97,7 [A7EE5B28] [FC397D27]
01 97,7 [9AC8A38C] [9469E625] CRC32
02 97,7 [8EFC1911] [89A42B75] CRC32
03 97,7 [A6C76B93] [4B24AA96] CRC32
04 97,7 [92C03B38] [661740DA] CRC32
05 97,7 [4D8637CC] [F25495E9] CRC32
06 97,7 [7B9DFB41] [1684D524] CRC32
07 97,7 [E60B3046] [1FF55C81] CRC32
08 97,7 [DFB7F7AE] [8400A794] CRC32
09 97,7 [1AEDCFAF] [A82E82FD] CRC32
10 97,7 6AEDC9B [54E6FEBE] CRC32

Thx to simple.i

password: asd
DOWNLOAD LINKS
Buy Premium From My Links To Get Resumable Support & Max Speed & To Support Me


Links are Interchangeable - No Password - Single Extraction
Direct Download

Tags: Hamilton, Rossano, Sportiello, Midnight, Penthouse

Scott Hamilton and Rossano Sportiello - Midnight at Nola's Penthouse (2010) Download via Hotfile Rapidshare Fileserve Megaupload & FileSonic, Scott Hamilton and Rossano Sportiello - Midnight at Nola's Penthouse (2010) free torrent downloads included crack, serial, keygen.Scott Hamilton and Rossano Sportiello - Midnight at Nola's Penthouse (2010) Fast Download via Rapidshare Hotfile Fileserve Filesonic Megaupload, Scott Hamilton and Rossano Sportiello - Midnight at Nola's Penthouse (2010) Torrents and Emule Download or anything related.
Leave a Comment
Your Name:
E-Mail:
Add Comments:

Enter Code: