Beyond-O-Matic - Your Body (1998)

Download Now

Beyond-O-Matic - Your Body (1998)

Beyond-O-Matic - Your Body (1998)
EAC Rip | FLAC (Img) + Cue + Log ~ 395 Mb | MP3 CBR320 ~ 178 Mb
Scans (PNG, 600 dpi) ~ 166 Mb | RAR 5% Recovery
Progressive/Psychedelic/Space Rock | Jamaelot Recordings #9-70005-2

"San Francisco's Beyond-O-Matic plays a dreamy, sometimes quirky, electronically psychedelic brand of space music that has just enough freakiness, and even a fair dose of dissonance, to put it firmly in the space realm, but is somewhat undefinable in it's interpretation. The band consists of Kurt Stenzel (aka Stenzo) on vocals, keyboards, guitar, and delay loops, Franktus Evictus on drums and voices, David Gresalfi on linndrum, samples, and vocals, and the Reverend Peter Fuhry on vocals, cross5 guitar, thebeatles, acoustic bariguitar, long stiff finger off doom, toy piano, accordion, flute, metal clarinet, and delay loop effects..."

"Your Body Warms Me Like The Sun" is the opening track and lulls the listener with a slowly repeating spacey guitar melody, a distant astral flute, and ethereal space whispery vocals. The guitar and flute continue but cosmic astral synths are introduced along with a steady percussion beat. The vocals are lightly efx'd at times and feel just as important from an instrumental standpoint as they do for communicating words.

On the more electronically adventurous side is "Scareotica/Ghosty", a percussive, slightly techno, but still completely freaky number with various intermittent voicings. Things really get interesting when the flute goes on an almost free jazz rampage in what seems like a duel with the percussion. Similar to this is "Clara", an even more percussive tune with lots of cosmic synth madness and haunting vocalizations. On the more purely electronic side is "Green Organ Preciface" and "Aquior", both journeys into deep deep space along the lines of Tangerine Dream. Green Organ is the more varied of the two as after about six minutes low key techno rhythms blend in to alter the course of our voyage. My favorite track on Your Body is "Buttercup", a structured, but busy track that seems to utilize the band's entire arsenal of instruments to create a mind blowing explosive freakout. Despite multiple layers of competing instrumentation, the song manages to remain highly melodic in a way that allows me to drift along with the primary melody but also groove to everything that is happening... which is a lot. Excellent track.

Beyond-O-Matic also exhibits an interest in 60's pop-psych on a couple tracks. "Postiface" is like an old flower power pop psych tune. "From Far Away has Middle Eastern string sounds giving it a hippie flavor, but the driving electronic beat puts it in a class all it's own. And the music uses it's nine minute length to get slowly, but increasingly more intense and introduce wilder shooting synths. Finally, the band covers the Madonna song "Frozen". I've never heard the original but suffice it to say that the band manages to beyond-o-maticize it quite well. So ends my Beyond-O-Matic review.
~ Jerry Kranitz, Aural Innovations #6 (April 1999)

Beyond-O-Matic is a San Francisco based improvisational space rock band which started in the early 1990's. Core members are Peter Fuhry (vocals, guitar) and Stenzo (keyboards). Supported by several friends they work out dreamy emotional songs based on a variety of instruments where Fuhry's charming vocals are a unique aspect. 1994 saw the first release 'The Flight Of Luis Garcia', followed by 'Sonic Reclaimator' (1996) and 'Your Body' another two years later. All productions contain extended works which push sonic limits, yet retain humor.

Beyond-O-Matic went into hiatus in 1999 but re-formed after five years to produce 'Time To Get Up' (2004) featuring new mind-bending psych/space jams which were originally provided for free download. Now in April 2010 Trail Records officially released this album with re-edited versions of the songs.
~ Prog Archives

Track List:

01. Your Body Warms Me Like The Sun [06:12]
02. Scareotica/Ghosty [08:17]
03. Postiface [03:45]
04. From Far Away [09:10]
05. The End Of The Song [02:52]
06. Clara [06:32]
07. Green Organ Preciface [09:58]
08. Aquior [07:15]
09. Buttercup [11:47]
10. Reprise [02:13]
11. Frozen [06:04]

Exact Audio Copy V1.0 beta 3 from 29. August 2011

EAC extraction logfile from 14. February 2013, 9:07

beyondomatic / your body

Used drive : SONY DVD RW DRU-830A Adapter: 1 ID: 0

Read mode : Secure
Utilize accurate stream : Yes
Defeat audio cache : Yes
Make use of C2 pointers : No

Read offset correction

: 6
Overread into Lead-In and Lead-Out : No
Fill up missing offset samples with silence : Yes
Delete leading and trailing silent blocks : No
Null samples used in CRC calculations : Yes
Used interface
: Native Win32 interface for Win NT & 2000

Used output format : User Defined Encoder
Selected bitrate : 768 kBit/s
Quality : High
Add ID3 tag : No
Command line compressor : C:\Program Files (x86)\Exact Audio Copy\wavpack\wavpack.exe
Additional command line options : -hlm %source% %dest%

TOC of the extracted CD Track | Start | Length | Start sector | End sector
--1 | 0:00.00 | 6:11.10 | 0 | 27834 2 | 6:11.10 | 8:16.47 | 27835 | 65081 3 | 14:27.57 | 3:44.73 | 65082 | 81954 4 | 18:12.55 | 9:09.20 | 81955 | 123149 5 | 27:22.00 | 2:51.72 | 123150 | 136046 6 | 30:13.72 | 6:32.00 | 136047 | 165446 7 | 36:45.72 | 9:57.68 | 165447 | 210289 8 | 46:43.65 | 7:14.35 | 210290 | 242874 9 | 53:58.25 | 11:46.25 | 242875 | 295849
10 | 65:44.50 | 2:12.52 | 295850 | 305801
11 | 67:57.27 | 6:03.23 | 305802 | 333049

Range status and errors

Selected range Filename D:\_NL+_by_TATUK\WV.ISO1\beyondomatic - your body.wav Peak level 100.0 %
Extraction speed 6.5 X
Range quality 99.9 %
Copy CRC BE7F3A02
Copy OK

No errors occurred


AccurateRip summary

Track 1 not present in database
Track 2 not present in database
Track 3 not present in database
Track 4 not present in database
Track 5 not present in database
Track 6 not present in database
Track 7 not present in database
Track 8 not present in database
Track 9 not present in database
Track 10 not present in database
Track 11 not present in database

None of the tracks are present in the AccurateRip database

End of status report

==== Log checksum 61BE0E96E04FDDAD327AE2D684F8ED6D33DAD7ECE9B0F5AFFEF55FEC3C527263 ====

foobar2000 1.2.6 / Dynamic Range Meter 1.1.1
log date: 2015-07-04 22:08:39

Analyzed: beyondomatic / your body

DR Peak RMS Duration Track

DR7 -0.93 dB -12.15 dB 6:11 01-your body warms me like the sun
DR8 -0.10 dB -10.98 dB 8:17 02-scareotica/ghosty
DR9 -1.55 dB -14.40 dB 3:45 03-postiface
DR8 -0.44 dB -9.71 dB 9:09 04-from far away
DR11 -0.19 dB -16.27 dB 2:52 05-the end of the song
DR10 -0.37 dB -14.51 dB 6:32 06-clara
DR12 0.00 dB -14.32 dB 9:58 07-green organ preciface
DR7 -0.17 dB -10.24 dB 7:14 08-aquior
DR8 0.00 dB -11.12 dB 11:46 09-buttercup
DR8 -0.73 dB -13.43 dB 2:13 10-reprise
DR8 -0.03 dB -12.01 dB 6:03 11-frozen

Number of tracks: 11
Official DR value: DR9

Samplerate: 44100 Hz
Channels: 2
Bits per sample: 16
Bitrate: 711 kbps
Codec: FLAC

[CUETools log; Date: 04.07.2015 22:08:32; Version: 2.1.5]
[CTDB TOCID: WZBPKKXkDnM_XBsuzMHwDXcVtHk-] disk not present in database.
[AccurateRip ID: 001e5337-0108d4ef-9f11580b] found.
Track [ CRC | V2 ] Status
01 [300cb682|61b98f40] (0+1/1) Accurately ripped
02 1ac07b6|e049070d (0+1/1) Accurately ripped
03 [5d552ffc|54db03f1] (0+1/1) Accurately ripped
04 [5bce77a0|6fb278b0] (0+1/1) Accurately ripped
05 [7ccff615|a8c4b69e] (0+1/1) Accurately ripped
06 [101caabd|d2dd6051] (0+1/1) Accurately ripped
07 [1f6b5c13|44bd495c] (0+1/1) Accurately ripped
08 [39adbc5e|631357d0] (0+1/1) Accurately ripped
09 [0387e275|da2871b0] (0+1/1) Accurately ripped
10 [7c32bdd5|ef76860d] (0+1/1) Accurately ripped
11 [6c846bca|78e7e62c] (0+1/1) Accurately ripped

Track Peak [ CRC32 ] [W/O NULL] [ LOG ]
-- 100,0 E7F3A02 [996435CB] CRC32
01 89,8 [332FD034] [8ECDD014]
02 98,8 [2DA3EDC8] [1E5E4B21]
03 83,6 [C8D34111] [55E67C59]
04 95,0 [3AD62A3B] [80F467C6]
05 97,8 [ADB9A6D7] [44294012]
06 95,8 [26D30F5B] [EDFA1EC2]
07 100,0 [D66A3B57] [9ED65DB9]
08 98,0 [19863E87] [88A448FF]
09 100,0 [898E2D34] [7F61066A]
10 91,9 [635871BC] [F0A3D26F]
11 99,6 [C107B983] [99109FAD]

Beyond-O-Matic - Your Body (1998)


DOWNLOAD LINKS
Buy Premium From My Links To Get Resumable Support & Max Speed & To Support Me


Links are Interchangeable - No Password - Single Extraction
Direct Download

Tags: Beyond

Beyond-O-Matic - Your Body (1998) Download via Hotfile Rapidshare Fileserve Megaupload & FileSonic, Beyond-O-Matic - Your Body (1998) free torrent downloads included crack, serial, keygen.Beyond-O-Matic - Your Body (1998) Fast Download via Rapidshare Hotfile Fileserve Filesonic Megaupload, Beyond-O-Matic - Your Body (1998) Torrents and Emule Download or anything related.
Leave a Comment
Your Name:
E-Mail:
Add Comments:

Enter Code: