Donovan - Fairytale (1965)

Download Now

Donovan - Fairytale (1965)

Donovan - Fairytale (1965)
EAC | Flac(Image) + Cue + Log & MP3 CBR 320Kbps
1996 | Sequel Records, 1004-2 | ~ 346 or 154 Mb | Scans Included
Folk / Folk Rock | 19 Tracks

"Donovan's second album found the Scottish folkie in possession of his own voice, a style of earnest, occasionally mystical musings indebted neither to Woody Guthrie nor Bob Dylan. True, Fairytale's highlights -- "Sunny Goodge Street," "Jersey Thursday," and "The Summer Day Reflection Song" -- use a sense of impressionism pioneered by Dylan, but Donovan flipped Dylan's weariness on its head..."


Tracklist:

01. Universal Soldier [Mono] (2:17)
02. I'll Try for the Sun [Mono] (3:40)
03. Sunny Goodge Street (2:57)
04. Colours (4:47)
05. Circus of Sour (1:52)
06. Summer Day Reflection Song (2:14)
07. Candy Man (3:28)
08. Jersey Thursday (2:15)
09. Belated Forgiveness Plea (2:58)
10. Ballad of a Crystal Man (3:57)
11. Little Tin Soldier (3:01)
12. Ballad of Geraldine (4:42)
13. Oh Deed I Do (2:08)
14. Do You Hear Me Now [Mono] (1:51)
15. War Drags On [Mono] (3:44)
16. Ballad of a Crystal Man [Edit] [Mono] (3:19)
17. Turquoise [Mono] (3:34)
18. Hey Gyp (Dig the Slowness) [Mono] (3:14)
19. Colours [Mono] (2:46)

Musicians:

· Donovan: vocals, acoustic guitar and mouth harp.
· Shawn Phillips: twelve-string guitar on tracks 06 and 08.
· Terry Kennedy: arrangement on track 03.


Exact Audio Copy V0.99 prebeta 4 from 23. January 2008

EAC extraction logfile from 13. December 2008, 22:50

Donovan / Fairytale

Used drive : COMPAQ DVD-ROM GDR8160B Adapter: 1 ID: 0

Read mode : Secure
Utilize accurate stream : Yes
Defeat audio cache : Yes
Make use of C2 pointers : No

Read offset correction

: 102
Overread into Lead-In and Lead-Out : No
Fill up missing offset samples with silence : Yes
Delete leading and trailing silent blocks : No
Null samples used in CRC calculations : Yes
Used interface
: Installed external ASPI interface

Used output format : User Defined Encoder
Selected bitrate : 768 kBit/s
Quality : High
Add ID3 tag : No
Command line compressor : C:\My Files\Exact Audio Copy\FLAC\FLAC.EXE
Additional command line options : --best -V -T "DATE=%y" -T "GENRE=%m" %s

TOC of the extracted CD Track | Start | Length | Start sector | End sector
--1 | 0:00.00 | 2:17.13 | 0 | 10287 2 | 2:17.13 | 3:39.51 | 10288 | 26763 3 | 5:56.64 | 2:56.52 | 26764 | 40015 4 | 8:53.41 | 2:46.50 | 40016 | 52515 5 | 11:40.16 | 1:52.14 | 52516 | 60929 6 | 13:32.30 | 2:13.64 | 60930 | 70968 7 | 15:46.19 | 3:28.14 | 70969 | 86582 8 | 19:14.33 | 2:15.00 | 86583 | 96707 9 | 21:29.33 | 2:58.02 | 96708 | 110059
10 | 24:27.35 | 3:53.27 | 110060 | 127561
11 | 28:20.62 | 3:01.01 | 127562 | 141137
12 | 31:21.63 | 4:42.02 | 141138 | 162289
13 | 36:03.65 | 2:08.02 | 162290 | 171891
14 | 38:11.67 | 1:51.13 | 171892 | 180229
15 | 40:03.05 | 3:44.13 | 180230 | 197042
16 | 43:47.18 | 3:18.53 | 197043 | 211945
17 | 47:05.71 | 3:34.33 | 211946 | 228028
18 | 50:40.29 | 3:13.52 | 228029 | 242555
19 | 53:54.06 | 2:46.01 | 242556 | 255006

Range status and errors

Selected range Filename C:\Documents and Settings\dawndew\№ЩЕБ И­ёй\CDImage.wav Peak level 100.0 %
Range quality 100.0 %
Test CRC D07502AF
Copy CRC D07502AF
Copy OK

No errors occurred


AccurateRip summary

Track 1 not present in database
Track 2 not present in database
Track 3 not present in database
Track 4 not present in database
Track 5 not present in database
Track 6 not present in database
Track 7 not present in database
Track 8 not present in database
Track 9 not present in database
Track 10 not present in database
Track 11 not present in database
Track 12 not present in database
Track 13 not present in database
Track 14 not present in database
Track 15 not present in database
Track 16 not present in database
Track 17 not present in database
Track 18 not present in database
Track 19 not present in database

None of the tracks are present in the AccurateRip database

End of status report

foobar2000 1.2.9 / Dynamic Range Meter 1.1.1
log date: 2015-07-05 22:24:21

Analyzed: Donovan / Fairytale

DR Peak RMS Duration Track

DR13 0.00 dB -15.88 dB 2:17 01-Universal Soldier [Mono]
DR13 0.00 dB -14.45 dB 3:40 02-I'll Try for the Sun [Mono]
DR12 0.00 dB -16.15 dB 2:57 03-Sunny Goodge Street
DR13 0.00 dB -14.74 dB 2:47 04-Colours
DR12 0.00 dB -14.92 dB 1:52 05-Circus of Sour
DR12 0.00 dB -16.41 dB 2:14 06-The Summer Day Reflection Song
DR12 0.00 dB -14.73 dB 3:28 07-Candy Man
DR13 0.00 dB -17.30 dB 2:15 08-Jersey Thursday
DR13 0.00 dB -16.56 dB 2:58 09-Belated Forgiveness Plea
DR13 0.00 dB -15.13 dB 3:53 10-The Ballad of a Crystal Man
DR11 0.00 dB -14.75 dB 3:01 11-The Little Tin Soldier
DR13 0.00 dB -16.27 dB 4:42 12-The Ballad of Geraldine
DR12 0.00 dB -15.62 dB 2:08 13-Oh Deed I Do
DR12 0.00 dB -14.57 dB 1:51 14-Do You Hear Me Now [Mono]
DR13 0.00 dB -16.74 dB 3:44 15-The War Drags On [Mono]
DR13 0.00 dB -16.27 dB 3:19 16-The Ballad of a Crystal Man (edit) [Mono]
DR11 0.00 dB -13.52 dB 3:34 17-Turquoise [Mono]
DR13 0.00 dB -14.64 dB 3:14 18-Hey Gyp (Dig the Slowness) [Mono]
DR13 0.00 dB -14.75 dB 2:46 19-Colours [Mono]

Number of tracks: 19
Official DR value: DR13

Samplerate: 44100 Hz
Channels: 2
Bits per sample: 16
Bitrate: 780 kbps
Codec: FLAC

[CUETools log; Date: 05.07.2015 19:31:54; Version: 2.1.5]
[CTDB TOCID: cVo8Er7.LpuT348cm7e9PSKp9W4-] found.
Track | CTDB Status
1 | (1/1) Accurately ripped
2 | (1/1) Accurately ripped
3 | (1/1) Accurately ripped
4 | (1/1) Accurately ripped
5 | (1/1) Accurately ripped
6 | (1/1) Accurately ripped
7 | (1/1) Accurately ripped
8 | (1/1) Accurately ripped
9 | (1/1) Accurately ripped
10 | (1/1) Accurately ripped
11 | (1/1) Accurately ripped
12 | (1/1) Accurately ripped
13 | (1/1) Accurately ripped
14 | (1/1) Accurately ripped
15 | (1/1) Accurately ripped
16 | (1/1) Accurately ripped
17 | (1/1) Accurately ripped
18 | (1/1) Accurately ripped
19 | (1/1) Accurately ripped
[AccurateRip ID: 0025ba4f-0215110e-0a0d4813] found.
Track [ CRC | V2 ] Status
01 [73414d1d|1cfa61b1] (4+4/8) Accurately ripped
02 [a3ddd9d2|275c0496] (4+4/8) Accurately ripped
03 [e740b3ee|30c6cfd1] (4+4/8) Accurately ripped
04 [98f16f1b|052a1893] (4+4/8) Accurately ripped
05 [16440fc9|2d6b3f17] (4+4/8) Accurately ripped
06 [a074c349|0cfc3249] (4+4/8) Accurately ripped
07 [243a7ee4|d3ae3b17] (4+4/8) Accurately ripped
08 [e5ea35a6|09e14dde] (4+4/8) Accurately ripped
09 a6c1391|0342957f (4+4/8) Accurately ripped
10 892d934|f4836295 (4+4/8) Accurately ripped
11 [91bf1f83|6406bca6] (4+4/8) Accurately ripped
12 [255bdfd3|86685702] (4+4/8) Accurately ripped
13 [57f210e1|55ecde62] (4+4/8) Accurately ripped
14 [02dc5486|d8ed8c75] (4+4/8) Accurately ripped
15 [e2a21c07|f7d757cb] (4+4/8) Accurately ripped
16 [5bc088c7|425edec6] (4+4/8) Accurately ripped
17 [fba83030|a03769e0] (4+3/7) Accurately ripped
18 b45c9e2|6ade082f (4+3/7) Accurately ripped
19 [f4c3b452|48628a39] (3+3/6) Accurately ripped

Track Peak [ CRC32 ] [W/O NULL] [ LOG ]
-- 100,0 [D07502AF] [95D6F427] CRC32
01 100,0 [6E28A245] [EC1FE26F]
02 99,9 [33467022] [0E482791]
03 99,9 [88E32493] [E79AD8C6]
04 100,0 [760E5FA9] [93153266]
05 100,0 [65E8FD4A] [92A9879B]
06 99,9 [6781DF44] [31746534]
07 99,9 [F0F18660] [5252081D]
08 99,9 [150B256D] [A3951BFD]
09 99,9 [A53C7B7C] [4A247B29]
10 99,9 [DC3B7C76] [A6F9D1E9]
11 100,0 [5CC2A176] [A6DA3B25]
12 99,9 [4ACD32D8] [C58E5C5C]
13 99,9 55492F9 [3C32F49C]
14 99,9 [FBAE6125] [258DD17B]
15 99,9 [ED252FDB] [F955B2E0]
16 100,0 [F101F00C] [9EC59580]
17 99,9 [AF94FEEB] [FF21D2EC]
18 99,9 [806754DE] [35E06129]
19 100,0 [5D8E94C3] [941AA9EC]

Donovan - Fairytale (1965)

DOWNLOAD LINKS:


No Password
Direct Download

Tags: Donovan, Fairytale

Donovan - Fairytale (1965) Download via Hotfile Rapidshare Fileserve Megaupload & FileSonic, Donovan - Fairytale (1965) free torrent downloads included crack, serial, keygen.Donovan - Fairytale (1965) Fast Download via Rapidshare Hotfile Fileserve Filesonic Megaupload, Donovan - Fairytale (1965) Torrents and Emule Download or anything related.
Leave a Comment
Your Name:
E-Mail:
Add Comments:

Enter Code: