Heart - These Dreams: Heart's Greatest Hits (1997)

Download Now

Heart - These Dreams: Heart's Greatest Hits (1997)

Heart - These Dreams: Heart's Greatest Hits (1997)
EAC | FLAC | Tracks (Cue&Log) ~ 579 Mb (incl 5%) | Mp3 (CBR320) ~ 204 Mb (incl 5%) | Scans included
Genre: Rock, Hard Rock, Pop Rock | Label: Capitol | # CDP 553376 | Time: 01:13:32

"Spanning 1975-1995, These Dreams: Heart's Greatest Hits isn't an ideal collection of Heart's best known songs, but it does a darn nice job trying to be. While this 1997 release boasts 17 of Heart's best known songs, it doesn't always contain the best known versions of those songs -- because of licensing restrictions, Capitol didn't have access to all of Heart's material. Essential Capitol hits of the 1980s are provided, and that includes the power ballads ("Alone," "These Dreams," "What About Love,") as well as the rockers ("If Looks Could Kill," "Who Will You Run To," "Never"). But what about Heart's pre-Capitol hits? Thankfully, Capitol did have access to Dreamboat Annie and Magazine; so the definitive versions of "Magic Man," "Dreamboat Annie," "Crazy on You," and "Heartless" are included. But Capitol didn't have access to Little Queen, Dog and Butterfly, and other Epic/Portrait releases. So the company acknowledges Heart's Epic/Portrait years by offering a live version of "Barracuda" from 1990's Rock The House: Live and acoustic performances of "Dog and Butterfly" and "Straight On" from 1995's The Road Home."

Heart - These Dreams: Heart's Greatest Hits (1997)

Heart - These Dreams: Heart's Greatest Hits (1997)
EAC | FLAC | Tracks (Cue&Log) ~ 579 Mb (incl 5%) | Mp3 (CBR320) ~ 204 Mb (incl 5%) | Scans included
Genre: Rock, Hard Rock, Pop Rock | Label: Capitol | # CDP 553376 | Time: 01:13:32

"Spanning 1975-1995, These Dreams: Heart's Greatest Hits isn't an ideal collection of Heart's best known songs, but it does a darn nice job trying to be. While this 1997 release boasts 17 of Heart's best known songs, it doesn't always contain the best known versions of those songs -- because of licensing restrictions, Capitol didn't have access to all of Heart's material. Essential Capitol hits of the 1980s are provided, and that includes the power ballads ("Alone," "These Dreams," "What About Love,") as well as the rockers ("If Looks Could Kill," "Who Will You Run To," "Never"). But what about Heart's pre-Capitol hits? Thankfully, Capitol did have access to Dreamboat Annie and Magazine; so the definitive versions of "Magic Man," "Dreamboat Annie," "Crazy on You," and "Heartless" are included. But Capitol didn't have access to Little Queen, Dog and Butterfly, and other Epic/Portrait releases. So the company acknowledges Heart's Epic/Portrait years by offering a live version of "Barracuda" from 1990's Rock The House: Live and acoustic performances of "Dog and Butterfly" and "Straight On" from 1995's The Road Home. And while those aren't the most famous versions of those songs, they're very nice substitutes. Capitol, unfortunately, didn't have access to any versions of "Kick It Out" or "Little Queen," and the absence of any version of "How Can I Refuse" (which Heart performs on Rock The House: Live) is also regrettable. But all things considered, These Dreams: Heart's Greatest Hits provides a rewarding overview of the Wilson sisters' work in the '70s, '80s, and '90s.

Review by Alex Henderson, Allmusic.com
"




Tracklist:

01. Crazy on You (04:51)
02. All I Wanna Do Is Make Love to You (05:06)
03. If Looks Could Kill (03:40)
04. Never (04:03)
05. Alone (03:38)
06. Who Will You Run To (04:04)
07. Straight On (Acoustic) (04:48)
08. Magic Man (05:27)
09. What About Love (03:39)
10. Dreamboat Annie (02:03)
11. Dog And Butterfly (Acoustic) (06:03)
12. Nothin' at All (04:08)
13. Heartless (05:00)
14. Stranded (03:54)
15. Will You Be There (In the Morning) (04:24)
16. These Dreams (04:12)
17. Barracuda (Live) (04:25)


Exact Audio Copy V1.0 beta 6 from 9. April 2015

EAC extraction logfile from 3. July 2015, 14:48

Heart / These Dreams: Heart's Greatest Hits

Used drive : HL-DT-STDVDRAM GH24NS95 Adapter: 1 ID: 1

Read mode : Secure
Utilize accurate stream : Yes
Defeat audio cache : Yes
Make use of C2 pointers : No

Read offset correction

: 6
Overread into Lead-In and Lead-Out : No
Fill up missing offset samples with silence : Yes
Delete leading and trailing silent blocks : No
Null samples used in CRC calculations : Yes
Used interface
: Native Win32 interface for Win NT & 2000
Gap handling
: Appended to previous track

Used output format : User Defined Encoder
Selected bitrate : 1024 kBit/s
Quality : High
Add ID3 tag : No
Command line compressor : C:\Program Files (x86)\Exact Audio Copy\Flac\flac.exe
Additional command line options : -8 -V -T "Artist=%artist%" -T "Title=%title%" -T "Album=%albumtitle%" -T "Date=%year%" -T "Tracknumber=%tracknr%" -T "Genre=%genre%" -T "Comment=%comment%" -T "Discnumber=%cdnumber%" -T "Totaldiscs=%totalcds%" %hascover%--picture="%coverfile%"%hascover% %source%

TOC of the extracted CD Track | Start | Length | Start sector | End sector
--1 | 0:00.00 | 4:51.42 | 0 | 21866 2 | 4:51.42 | 5:07.25 | 21867 | 44916 3 | 9:58.67 | 3:41.13 | 44917 | 61504 4 | 13:40.05 | 4:04.02 | 61505 | 79806 5 | 17:44.07 | 3:38.33 | 79807 | 96189 6 | 21:22.40 | 4:04.47 | 96190 | 114536 7 | 25:27.12 | 4:48.68 | 114537 | 136204 8 | 30:16.05 | 5:28.32 | 136205 | 160836 9 | 35:44.37 | 3:39.50 | 160837 | 177311
10 | 39:24.12 | 2:04.25 | 177312 | 186636
11 | 41:28.37 | 6:03.40 | 186637 | 213901
12 | 47:32.02 | 4:08.60 | 213902 | 232561
13 | 51:40.62 | 5:00.60 | 232562 | 255121
14 | 56:41.47 | 3:54.53 | 255122 | 272724
15 | 60:36.25 | 4:25.12 | 272725 | 292611
16 | 65:01.37 | 4:12.70 | 292612 | 311581
17 | 69:14.32 | 4:25.35 | 311582 | 331491

Track 1 Filename C:\Heart - These Dreams_ Heart's Greatest Hits (1997) [FLAC]\01. Crazy on You.wav Pre-gap length 0:00:02.00 Peak level 97.7 %
Extraction speed 1.2 X
Track quality 100.0 %
Test CRC 2B4FEFDC
Copy CRC 2B4FEFDC
Accurately ripped (confidence 40) [36B4D766] (AR v2)
Copy OK

Track 2 Filename C:\Heart - These Dreams_ Heart's Greatest Hits (1997) [FLAC]\02. All I Wanna Do Is Make Love to You.wav Pre-gap length 0:00:00.32 Peak level 94.4 %
Extraction speed 1.3 X
Track quality 100.0 %
Test CRC 184AC129
Copy CRC 184AC129
Accurately ripped (confidence 37) [C9F5E243] (AR v2)
Copy OK

Track 3 Filename C:\Heart - These Dreams_ Heart's Greatest Hits (1997) [FLAC]\03. If Looks Could Kill.wav Pre-gap length 0:00:00.40 Peak level 100.0 %
Extraction speed 1.4 X
Track quality 100.0 %
Test CRC 324B046E
Copy CRC 324B046E
Accurately ripped (confidence 36) [C3AF0589] (AR v2)
Copy OK

Track 4 Filename C:\Heart - These Dreams_ Heart's Greatest Hits (1997) [FLAC]\04. Never.wav Pre-gap length 0:00:00.30 Peak level 96.8 %
Extraction speed 1.3 X
Track quality 99.9 %
Test CRC 951584B4
Copy CRC 951584B4
Accurately ripped (confidence 39) [EFEFC205] (AR v2)
Copy OK

Track 5 Filename C:\Heart - These Dreams_ Heart's Greatest Hits (1997) [FLAC]\05. Alone.wav Pre-gap length 0:00:00.37 Peak level 98.0 %
Extraction speed 1.3 X
Track quality 99.9 %
Test CRC 1A23283C
Copy CRC 1A23283C
Accurately ripped (confidence 37) B1E186D (AR v2)
Copy OK

Track 6 Filename C:\Heart - These Dreams_ Heart's Greatest Hits (1997) [FLAC]\06. Who Will You Run To.wav Pre-gap length 0:00:00.30 Peak level 100.0 %
Extraction speed 1.6 X
Track quality 100.0 %
Test CRC 6C583233
Copy CRC 6C583233
Accurately ripped (confidence 37) [D0E28E71] (AR v2)
Copy OK

Track 7 Filename C:\Heart - These Dreams_ Heart's Greatest Hits (1997) [FLAC]\07. Straight On (Acoustic).wav Peak level 99.7 %
Extraction speed 1.8 X
Track quality 100.0 %
Test CRC F8CB3F4A
Copy CRC F8CB3F4A
Accurately ripped (confidence 38) [54971D26] (AR v2)
Copy OK

Track 8 Filename C:\Heart - These Dreams_ Heart's Greatest Hits (1997) [FLAC]\08. Magic Man.wav Pre-gap length 0:00:00.38 Peak level 100.0 %
Extraction speed 1.9 X
Track quality 100.0 %
Test CRC AD79C90E
Copy CRC AD79C90E
Accurately ripped (confidence 38) [249D6673] (AR v2)
Copy OK

Track 9 Filename C:\Heart - These Dreams_ Heart's Greatest Hits (1997) [FLAC]\09. What About Love.wav Pre-gap length 0:00:00.60 Peak level 97.5 %
Extraction speed 1.8 X
Track quality 100.0 %
Test CRC A71FD4E1
Copy CRC A71FD4E1
Accurately ripped (confidence 37) [AB272762] (AR v2)
Copy OK

Track 10 Filename C:\Heart - These Dreams_ Heart's Greatest Hits (1997) [FLAC]\10. Dreamboat Annie.wav Pre-gap length 0:00:00.15 Peak level 95.8 %
Extraction speed 1.7 X
Track quality 100.0 %
Test CRC 98C58F08
Copy CRC 98C58F08
Accurately ripped (confidence 38) [64E173A8] (AR v2)
Copy OK

Track 11 Filename C:\Heart - These Dreams_ Heart's Greatest Hits (1997) [FLAC]\11. Dog And Butterfly (Acoustic).wav Pre-gap length 0:00:00.30 Peak level 93.0 %
Extraction speed 1.9 X
Track quality 99.9 %
Test CRC DB52FB65
Copy CRC DB52FB65
Accurately ripped (confidence 36) [938D9275] (AR v2)
Copy OK

Track 12 Filename C:\Heart - These Dreams_ Heart's Greatest Hits (1997) [FLAC]\12. Nothin' at All.wav Pre-gap length 0:00:00.25 Peak level 90.1 %
Extraction speed 2.1 X
Track quality 100.0 %
Test CRC 32CC2B20
Copy CRC 32CC2B20
Accurately ripped (confidence 36) [419B143F] (AR v2)
Copy OK

Track 13 Filename C:\Heart - These Dreams_ Heart's Greatest Hits (1997) [FLAC]\13. Heartless.wav Pre-gap length 0:00:00.25 Peak level 93.5 %
Extraction speed 2.0 X
Track quality 99.9 %
Test CRC 43F71A48
Copy CRC 43F71A48
Accurately ripped (confidence 37) [8023C9BE] (AR v2)
Copy OK

Track 14 Filename C:\Heart - These Dreams_ Heart's Greatest Hits (1997) [FLAC]\14. Stranded.wav Pre-gap length 0:00:00.25 Peak level 98.8 %
Extraction speed 1.9 X
Track quality 99.9 %
Test CRC E2B6AE80
Copy CRC E2B6AE80
Accurately ripped (confidence 37) [D9EA3DA9] (AR v2)
Copy OK

Track 15 Filename C:\Heart - These Dreams_ Heart's Greatest Hits (1997) [FLAC]\15. Will You Be There (In the Morning).wav Pre-gap length 0:00:00.35 Peak level 99.5 %
Extraction speed 2.3 X
Track quality 100.0 %
Test CRC C9E7BB7C
Copy CRC C9E7BB7C
Accurately ripped (confidence 35) [4E3501BA] (AR v2)
Copy OK

Track 16 Filename C:\Heart - These Dreams_ Heart's Greatest Hits (1997) [FLAC]\16. These Dreams.wav Pre-gap length 0:00:01.07 Peak level 97.7 %
Extraction speed 2.1 X
Track quality 99.9 %
Test CRC BAE2D10A
Copy CRC BAE2D10A
Accurately ripped (confidence 35) [2AE10033] (AR v2)
Copy OK

Track 17 Filename C:\Heart - These Dreams_ Heart's Greatest Hits (1997) [FLAC]\17. Barracuda (Live).wav Pre-gap length 0:00:00.27 Peak level 93.3 %
Extraction speed 2.5 X
Track quality 100.0 %
Test CRC DCBC4931
Copy CRC DCBC4931
Accurately ripped (confidence 35) [1126B4AA] (AR v2)
Copy OK

All tracks accurately ripped

No errors occurred

End of status report

- CUETools DB Plugin V2.1.6

[CTDB TOCID: Dj957De9VpQtKMQlqBGbPHcQles-] found
Submit result: Dj957De9VpQtKMQlqBGbPHcQles- has been confirmed
Track | CTDB Status
1 | (121/125) Accurately ripped
2 | (123/125) Accurately ripped
3 | (122/125) Accurately ripped
4 | (123/125) Accurately ripped
5 | (122/125) Accurately ripped
6 | (121/125) Accurately ripped
7 | (123/125) Accurately ripped
8 | (122/125) Accurately ripped
9 | (122/125) Accurately ripped
10 | (122/125) Accurately ripped
11 | (123/125) Accurately ripped
12 | (123/125) Accurately ripped
13 | (122/125) Accurately ripped
14 | (121/125) Accurately ripped
15 | (122/125) Accurately ripped
16 | (120/125) Accurately ripped
17 | (118/125) Accurately ripped

==== Log checksum F7A621BACCDC00FC94FF82D25C3556C81904C0E47425CF6A9FDD4A63F168EBA4 ====

foobar2000 1.2 / Dynamic Range Meter 1.1.1
log date: 2015-07-06 19:58:11

Analyzed: Heart / These Dreams: Heart's Greatest Hits

DR Peak RMS Duration Track

DR7 -0.20 dB -9.54 dB 4:52 01-Crazy on You
DR8 -0.50 dB -9.84 dB 5:07 02-All I Wanna Do Is Make Love to You
DR9 0.00 dB -10.90 dB 3:41 03-If Looks Could Kill
DR8 -0.28 dB -10.32 dB 4:04 04-Never
DR8 -0.17 dB -10.90 dB 3:38 05-Alone
DR12 0.00 dB -14.47 dB 4:05 06-Who Will You Run To
DR9 -0.02 dB -10.96 dB 4:49 07-Straight On (Acoustic)
DR8 0.00 dB -9.45 dB 5:28 08-Magic Man
DR7 -0.21 dB -9.42 dB 3:40 09-What About Love
DR8 -0.36 dB -11.24 dB 2:04 10-Dreamboat Annie
DR10 -0.63 dB -12.71 dB 6:04 11-Dog And Butterfly (Acoustic)
DR12 -0.91 dB -14.69 dB 4:09 12-Nothin' at All
DR7 -0.58 dB -10.07 dB 5:01 13-Heartless
DR7 -0.10 dB -9.38 dB 3:55 14-Stranded
DR8 -0.04 dB -9.43 dB 4:25 15-Will You Be There (In the Morning)
DR8 -0.20 dB -11.00 dB 4:13 16-These Dreams
DR8 -0.60 dB -10.48 dB 4:25 17-Barracuda (Live)

Number of tracks: 17
Official DR value: DR9

Samplerate: 44100 Hz
Channels: 2
Bits per sample: 16
Bitrate: 1037 kbps
Codec: FLAC

Heart - These Dreams: Heart's Greatest Hits (1997)

Heart - These Dreams: Heart's Greatest Hits (1997)

Password: designol


DOWNLOAD LINKS
Buy Premium From My Links To Get Resumable Support & Max Speed & To Support Me


Links are Interchangeable - No Password - Single Extraction
Direct Download

Tags: Dreams, Greatest

Heart - These Dreams: Heart's Greatest Hits (1997) Download via Hotfile Rapidshare Fileserve Megaupload & FileSonic, Heart - These Dreams: Heart's Greatest Hits (1997) free torrent downloads included crack, serial, keygen.Heart - These Dreams: Heart's Greatest Hits (1997) Fast Download via Rapidshare Hotfile Fileserve Filesonic Megaupload, Heart - These Dreams: Heart's Greatest Hits (1997) Torrents and Emule Download or anything related.
Leave a Comment
Your Name:
E-Mail:
Add Comments:

Enter Code: