Dr. Hook - Collection (1996)

Download Now

Dr. Hook - Collection (1996)

Dr. Hook - Collection (1996)
2CD | EAC Rip | FLAC (Img) + Cue + Log ~ 759 Mb | MP3 CBR320 ~ 325 Mb
Scans Included (JPG, 300 dpi) | RAR 5% Recovery
Rock, Country Rock, Soft Rock | EMI #7743 8 14465 2 2

"Dr. Hook & the Medicine Show, shortened in 1975 to Dr. Hook, was an American rock band, formed around Union City, New Jersey. They enjoyed considerable commercial success in the 1970s with hit singles including "Sylvia's Mother", "The Cover of Rolling Stone", "Sharing the Night Together", "A Little Bit More" and "When You're in Love with a Beautiful Woman". In addition to their own material, Dr. Hook and the Medicine Show performed songs written by the poet Shel Silverstein. The band had eight years of regular chart hits, in both the U.S. and the UK, and greatest success with their later gentler material, as Dr. Hook. This 40-song assortment will definitely appease those who want a hefty one-stop of Dr. Hook's best material, but it also makes for a worthy summation of the band's career..."

Wiki | Discogs | All Music
***************

Dr. Hook - Collection (1996)

Track List CD1:

01. Sylvia's Mother [03:50]
02. The Cover Of The Rolling Stone [02:53]
03. Better Love Next Time [03:05]
04. In Over My head [03:46]
05. Sexy Eyes [03:37]
06. Oh! Jesse [03:00]
07. Years From You [03:19]
08. Sharing The Night Together [02:59]
09. Sweetest Of All [02:43]
10. Storms Never Last [03:28]
11. Walk Right In [03:05]
12. Love Monster [03:20]
13. I Don't Want To Be Alone Tonight [03:35]
14. Knowing She's There [03:36]
15. Clyde [04:49]
16. When You're In Love With A Beautiful Woman [03:06]
17. Dooley Jones [03:55]
18. I Gave Her Comfort [03:25]
19. You Make My Pants Want To Get Up And Dance [02:32]
20. More Like The Movies [03:42]

Exact Audio Copy V1.0 beta 4 from 7. December 2014

Отчёт EAC об извлечении, выполненном 3. июля 2015, 13:06

Dr.Hook / Collection CD 1

Дисковод: ASUS DRW-24F1ST a Adapter: 1 ID: 0

Режим чтения : Достоверность
Использование точного потока : Да
Отключение кэша аудио : Да
Использование указателей C2 : Нет

Коррекция смещения при чтении : 6
Способность читать области Lead-in и Lead-out : Нет
Заполнение пропущенных сэмплов тишиной : Да
Удаление блоков с тишиной в начале и конце : Нет
При вычислениях CRC использовались нулевые сэмплы : Да
Интерфейс : Встроенный Win32-интерфейс для Win NT/2000

Выходной формат : Пользовательский кодировщик
Выбранный битрейт : 128 kBit/s
Качество : Высокий
Добавление ID3-тега : Нет
Утилита сжатия : C:\Program Files\Exact Audio Copy\Flac\flac.exe
Дополнительные параметры : -V -8 -T "Date=%year%" -T "Genre=%genre%" %source%

TOC извлечённого CD Трек | Старт | Длительность | Начальный сектор | Конечный сектор

1 | 0:00.00 | 3:49.12 | 0 | 17186
2 | 3:49.12 | 2:52.50 | 17187 | 30136
3 | 6:41.62 | 3:04.50 | 30137 | 43986
4 | 9:46.37 | 3:45.50 | 43987 | 60911
5 | 13:32.12 | 3:36.25 | 60912 | 77136
6 | 17:08.37 | 2:59.03 | 77137 | 90564
7 | 20:07.40 | 3:18.47 | 90565 | 105461
8 | 23:26.12 | 2:58.38 | 105462 | 118849
9 | 26:24.50 | 2:42.37 | 118850 | 131036
10 | 29:07.12 | 3:27.50 | 131037 | 146611
11 | 32:34.62 | 3:04.13 | 146612 | 160424
12 | 35:39.00 | 3:19.50 | 160425 | 175399
13 | 38:58.50 | 3:34.62 | 175400 | 191511
14 | 42:33.37 | 3:35.13 | 191512 | 207649
15 | 46:08.50 | 4:48.12 | 207650 | 229261
16 | 50:56.62 | 3:05.50 | 229262 | 243186
17 | 54:02.37 | 3:54.25 | 243187 | 260761
18 | 57:56.62 | 3:24.25 | 260762 | 276086
19 | 61:21.12 | 2:31.50 | 276087 | 287461
20 | 63:52.62 | 3:41.48 | 287462 | 304084

Характеристики диапазона извлечения и сообщения об ошибках

Выбранный диапазон Имя файла C:\Users\Erik\Desktop\Dr.Hook - Collection CD 1..wav Пиковый уровень 100.0 %
Скорость извлечения 4.8 X
Качество диапазона 100.0 %
CRC теста 9DD817BE
CRC копии 9DD817BE
Копирование... OK

Ошибок не произошло


AccurateRip: сводка

Трек 1 : извлечено точно (доверие 3) [2649D54D] (AR v2)
Трек 2 : извлечено точно (доверие 3) [46F15C5D] (AR v2)
Трек 3 : извлечено точно (доверие 3) [ED24F895] (AR v2)
Трек 4 : извлечено точно (доверие 3) [24F67BC0] (AR v2)
Трек 5 : извлечено точно (доверие 3) [24DA2CB8] (AR v2)
Трек 6 : извлечено точно (доверие 3) [40D1C2DC] (AR v2)
Трек 7 : извлечено точно (доверие 3) [440F71C6] (AR v2)
Трек 8 : извлечено точно (доверие 3) [55413ECA] (AR v2)
Трек 9 : извлечено точно (доверие 3) [08EFA16B] (AR v2)
Трек 10 : извлечено точно (доверие 3) [5F5F0592] (AR v2)
Трек 11 : извлечено точно (доверие 3) [2B665019] (AR v2)
Трек 12 : извлечено точно (доверие 3) [38D418A1] (AR v2)
Трек 13 : извлечено точно (доверие 3) [33D9078A] (AR v2)
Трек 14 : извлечено точно (доверие 3) [D1C9BBB8] (AR v2)
Трек 15 : извлечено точно (доверие 3) [A5212A49] (AR v2)
Трек 16 : извлечено точно (доверие 3) [A313D2AD] (AR v2)
Трек 17 : извлечено точно (доверие 3) [05561286] (AR v2)
Трек 18 : извлечено точно (доверие 2) [7436A11B] (AR v2)
Трек 19 : извлечено точно (доверие 3) [82CA2503] (AR v2)
Трек 20 : извлечено точно (доверие 3) [A1917BAB] (AR v2)

Все треки извлечены точно

Конец отчёта

- CUETools DB Plugin V2.1.4

[CTDB TOCID: YWLXLf_TdFQNmEivQo1WFbWF2q0-] found
Submit result: YWLXLf_TdFQNmEivQo1WFbWF2q0- has been confirmed
Track | CTDB Status
1 | (8/9) Accurately ripped
2 | (8/9) Accurately ripped
3 | (8/9) Accurately ripped
4 | (8/9) Accurately ripped
5 | (8/9) Accurately ripped
6 | (9/9) Accurately ripped
7 | (8/9) Accurately ripped
8 | (9/9) Accurately ripped
9 | (8/9) Accurately ripped
10 | (8/9) Accurately ripped
11 | (9/9) Accurately ripped
12 | (9/9) Accurately ripped
13 | (8/9) Accurately ripped
14 | (8/9) Accurately ripped
15 | (8/9) Accurately ripped
16 | (7/9) Accurately ripped, or (1/9) differs in 12 samples @03:02:74-03:03:00
17 | (8/9) Accurately ripped, or (1/9) differs in 135 samples @02:30:03-02:30:04,02:30:26-02:30:27,02:42:39,02:43:57-02:43:58
18 | (8/9) Accurately ripped
19 | (9/9) Accurately ripped
20 | (7/9) Accurately ripped, or (1/9) differs in 49 samples @00:47:53-00:47:54

foobar2000 1.2.6 / Dynamic Range Meter 1.1.1
log date: 2015-07-06 12:21:55

Analyzed: Dr .Hook / Collection CD 1

DR Peak RMS Duration Track

DR11 -2.34 dB -16.84 dB 3:49 01-Sylvia's Mother
DR11 -1.40 dB -15.22 dB 2:53 02-The Cover Of The Rolling Stone
DR15 -0.46 dB -18.80 dB 3:05 03-Better Love Next Time
DR14 -2.41 dB -19.25 dB 3:46 04-In Over My head
DR14 -1.65 dB -18.49 dB 3:36 05-Sexy Eyes
DR14 -2.05 dB -19.84 dB 2:59 06-Oh! Jesse
DR12 -4.22 dB -19.31 dB 3:19 07-Years From You
DR14 -1.81 dB -18.27 dB 2:59 08-Sharing The Night Together
DR12 -1.80 dB -18.11 dB 2:42 09-Sweetest Of All
DR13 -2.26 dB -18.44 dB 3:28 10-Storms Never Last
DR16 -0.35 dB -18.19 dB 3:04 11-Walk Right In
DR15 -2.29 dB -19.52 dB 3:20 12-Love Monster
DR13 -2.06 dB -19.17 dB 3:35 13-I Don't Want To Be Alone Tonight
DR11 -1.08 dB -16.53 dB 3:35 14-Knowing She's There
DR12 -0.23 dB -15.21 dB 4:48 15-Clyde
DR12 -0.77 dB -16.43 dB 3:06 16-When You're In Love With A Beautiful Woman
DR13 -0.15 dB -16.38 dB 3:54 17-Dooley Jones
DR13 -0.69 dB -16.64 dB 3:24 18-I Gave Her Comfort
DR12 0.00 dB -15.52 dB 2:32 19-You Make My Pants Want To Get Up And Dance
DR12 -1.54 dB -16.41 dB 3:42 20-More Like The Movies

Number of tracks: 20
Official DR value: DR13

Samplerate: 44100 Hz
Channels: 2
Bits per sample: 16
Bitrate: 759 kbps
Codec: FLAC

[CUETools log; Date: 06.07.2015 12:21:56; Version: 2.1.5]
[CTDB TOCID: YWLXLf_TdFQNmEivQo1WFbWF2q0-] found.
Track | CTDB Status
1 | ( 9/10) Accurately ripped
2 | ( 9/10) Accurately ripped
3 | ( 9/10) Accurately ripped
4 | ( 9/10) Accurately ripped
5 | ( 9/10) Accurately ripped
6 | (10/10) Accurately ripped
7 | ( 9/10) Accurately ripped
8 | (10/10) Accurately ripped
9 | ( 9/10) Accurately ripped
10 | ( 9/10) Accurately ripped
11 | (10/10) Accurately ripped
12 | (10/10) Accurately ripped
13 | ( 9/10) Accurately ripped
14 | ( 9/10) Accurately ripped
15 | ( 9/10) Accurately ripped
16 | ( 8/10) Accurately ripped, or (1/10) differs in 12 samples @03:02:74-03:03:00
17 | ( 9/10) Accurately ripped, or (1/10) differs in 135 samples @02:30:03-02:30:04,02:30:26-02:30:27,02:42:39,02:43:57-02:43:58
18 | ( 9/10) Accurately ripped
19 | (10/10) Accurately ripped
20 | ( 8/10) Accurately ripped, or (1/10) differs in 49 samples @00:47:53-00:47:54
[AccurateRip ID: 00302ed6-02c44276-180fd614] found.
Track [ CRC | V2 ] Status
01 [9025d84d|2649d54d] (04+03/17) Accurately ripped
02 [4db6d93c|46f15c5d] (04+03/17) Accurately ripped
03 [5c581bda|ed24f895] (04+03/17) Accurately ripped
04 [59838767|24f67bc0] (04+03/18) Accurately ripped
05 [ce2f9678|24da2cb8] (04+03/17) Accurately ripped
06 [e9a52898|40d1c2dc] (04+03/17) Accurately ripped
07 [2f174075|440f71c6] (04+03/17) Accurately ripped
08 [89dc9a5b|55413eca] (04+03/18) Accurately ripped
09 [05088be3|08efa16b] (04+03/17) Accurately ripped
10 [cdee3cdb|5f5f0592] (04+03/17) Accurately ripped
11 [794cb7ef|2b665019] (04+03/17) Accurately ripped
12 [646fc76d|38d418a1] (04+03/18) Accurately ripped
13 [69c9d4dc|33d9078a] (04+03/17) Accurately ripped
14 [c719e5f3|d1c9bbb8] (04+03/17) Accurately ripped
15 [a5d71409|a5212a49] (04+03/18) Accurately ripped
16 [169690c8|a313d2ad] (04+03/17) Accurately ripped
17 [9c6ba4ed|05561286] (04+03/17) Accurately ripped
18 [4e4d8034|7436a11b] (04+02/16) Accurately ripped
19 [c56615be|82ca2503] (04+03/18) Accurately ripped
20 [8146fa9d|a1917bab] (03+03/17) Accurately ripped
Offsetted by 36:
01 [6ca7e2bc] (08/17) Accurately ripped
02 [ca69538b] (08/17) Accurately ripped
03 [4ab250c6] (08/17) Accurately ripped
04 [8e8ea399] (09/18) Accurately ripped
05 [355c90b9] (08/17) Accurately ripped
06 [0b0504a5] (08/17) Accurately ripped
07 f5fa1d8 (08/17) Accurately ripped
08 [296dc529] (09/18) Accurately ripped
09 [7f8fb85a] (08/17) Accurately ripped
10 [59bd7f56] (08/17) Accurately ripped
11 [2be08e76] (08/17) Accurately ripped
12 [6a5cfbd8] (09/18) Accurately ripped
13 [69e1ba02] (08/17) Accurately ripped
14 [5c17341d] (08/17) Accurately ripped
15 [1cfe3030] (09/18) Accurately ripped
16 [9233bcb8] (08/17) Accurately ripped
17 [0eadfb7d] (08/17) Accurately ripped
18 [050f4df7] (08/16) Accurately ripped
19 [e20ed2b0] (09/18) Accurately ripped
20 [c0d2c227] (09/17) Accurately ripped

Track Peak [ CRC32 ] [W/O NULL] [ LOG ]
-- 100,0 [9DD817BE] [4B5F0083] CRC32
01 76,4 [6E975277] 2BA5480
02 85,1 [16A31D04] [AB3C3EFC]
03 94,8 [40E421F4] [433521EC]
04 75,7 [117ABCB9] [42265F4C]
05 82,7 [AFEA51A3] [ACA1F58B]
06 78,9 [551CB85F] [DCD4E8B7]
07 61,5 [C355FAB8] [D0FF3FD8]
08 81,2 [863E106B] [394FCFEE]
09 81,2 [5AD25BF3] [45CB3EFA]
10 77,1 [37B16FDB] [C119BB58]
11 96,0 [F8C585B4] [780D4A75]
12 76,7 [E05A2B78] [6550CC1E]
13 78,9 [DD1559A6] [2D85B977]
14 88,3 [4EADFC87] [C4C44C14]
15 97,4 [AD22BCD1] [DC167272]
16 91,5 [F1E6B2AC] [F2965696]
17 98,3 [3543800F] [3AA2AD34]
18 92,3 [70558F03] [168D75D4]
19 100,0 [760486A7] [0B8538EC]
20 83,7 [CAF3585E] [17EC523A]

Track List CD2:

01. A Little Bit More [03:19]
02. The Radio [03:34]
03. Up On The Mountain [02:44]
04. Only Sixteen [02:48]
05. Jungle To The Zoo [03:26]
06. Bad Eye Bill [02:27]
07. What About You [02:58]
08. If Not You [03:23]
09. A Couple More Years [03:16]
10. Levitate [03:07]
11. Let Me Be Your Lover [02:58]
12. Mountain Mary [02:45]
13. I Got Stoned And Missed It [03:26]
14. Bubblin' Up [02:10]
15. Wups [02:28]
16. The Millionaire [03:02]
17. Everybody's Making It Big But Me [03:13]
18. Cooky and Lila [03:34]
19. Everybody Loves Me [02:45]
20. On The Way To The Bottom [02:55]

Exact Audio Copy V1.0 beta 4 from 7. December 2014

Отчёт EAC об извлечении, выполненном 3. июля 2015, 13:30

Dr.Hook / Collection CD2

Дисковод: ASUS DRW-24F1ST a Adapter: 1 ID: 0

Режим чтения : Достоверность
Использование точного потока : Да
Отключение кэша аудио : Да
Использование указателей C2 : Нет

Коррекция смещения при чтении : 6
Способность читать области Lead-in и Lead-out : Нет
Заполнение пропущенных сэмплов тишиной : Да
Удаление блоков с тишиной в начале и конце : Нет
При вычислениях CRC использовались нулевые сэмплы : Да
Интерфейс : Встроенный Win32-интерфейс для Win NT/2000

Выходной формат : Пользовательский кодировщик
Выбранный битрейт : 128 kBit/s
Качество : Высокий
Добавление ID3-тега : Нет
Утилита сжатия : C:\Program Files\Exact Audio Copy\Flac\flac.exe
Дополнительные параметры : -V -8 -T "Date=%year%" -T "Genre=%genre%" %source%

TOC извлечённого CD Трек | Старт | Длительность | Начальный сектор | Конечный сектор

1 | 0:00.00 | 3:18.38 | 0 | 14887
2 | 3:18.38 | 3:33.12 | 14888 | 30874
3 | 6:51.50 | 2:43.38 | 30875 | 43137
4 | 9:35.13 | 2:47.70 | 43138 | 55732
5 | 12:23.08 | 3:25.30 | 55733 | 71137
6 | 15:48.38 | 2:26.25 | 71138 | 82112
7 | 18:14.63 | 2:57.25 | 82113 | 95412
8 | 21:12.13 | 3:22.25 | 95413 | 110587
9 | 24:34.38 | 3:15.62 | 110588 | 125274
10 | 27:50.25 | 3:06.13 | 125275 | 139237
11 | 30:56.38 | 2:57.50 | 139238 | 152562
12 | 33:54.13 | 2:45.00 | 152563 | 164937
13 | 36:39.13 | 3:25.45 | 164938 | 180357
14 | 40:04.58 | 2:09.30 | 180358 | 190062
15 | 42:14.13 | 2:28.00 | 190063 | 201162
16 | 44:42.13 | 3:02.00 | 201163 | 214812
17 | 47:44.13 | 3:13.00 | 214813 | 229287
18 | 50:57.13 | 3:34.00 | 229288 | 245337
19 | 54:31.13 | 2:45.00 | 245338 | 257712
20 | 57:16.13 | 2:54.62 | 257713 | 270824

Характеристики диапазона извлечения и сообщения об ошибках

Выбранный диапазон Имя файла C:\Users\Erik\Desktop\Dr.Hook - Collection CD2..wav Пиковый уровень 100.0 %
Скорость извлечения 7.6 X
Качество диапазона 100.0 %
CRC теста 3E4A5DDB
CRC копии 3E4A5DDB
Копирование... OK

Ошибок не произошло


AccurateRip: сводка

Трек 1 : извлечено точно (доверие 3) [7BF137FF] (AR v2)
Трек 2 : извлечено точно (доверие 3) 9B322FA (AR v2)
Трек 3 : извлечено точно (доверие 3) [C186F3C8] (AR v2)
Трек 4 : извлечено точно (доверие 3) [1EF4DEE7] (AR v2)
Трек 5 : извлечено точно (доверие 3) [9AF17785] (AR v2)
Трек 6 : извлечено точно (доверие 3) [AB155755] (AR v2)
Трек 7 : извлечено точно (доверие 3) [C4696DF6] (AR v2)
Трек 8 : извлечено точно (доверие 3) [39922342] (AR v2)
Трек 9 : извлечено точно (доверие 3) [599D90C6] (AR v2)
Трек 10 : извлечено точно (доверие 3) [A675313A] (AR v2)
Трек 11 : извлечено точно (доверие 3) [6A401EEB] (AR v2)
Трек 12 : извлечено точно (доверие 3) [972B694D] (AR v2)
Трек 13 : извлечено точно (доверие 3) [D29A4B77] (AR v2)
Трек 14 : извлечено точно (доверие 3) [69D5E0AF] (AR v2)
Трек 15 : извлечено точно (доверие 3) [5DAA9DD0] (AR v2)
Трек 16 : извлечено точно (доверие 3) [2A940632] (AR v2)
Трек 17 : извлечено точно (доверие 2) [09FC913D] (AR v2)
Трек 18 : извлечено точно (доверие 2) [424BBC4D] (AR v2)
Трек 19 : извлечено точно (доверие 2) [92F5F1CC] (AR v2)
Трек 20 : извлечено точно (доверие 2) [F4D059EB] (AR v2)

Все треки извлечены точно

Конец отчёта

- CUETools DB Plugin V2.1.4

[CTDB TOCID: mSbBOAdx9vRDSZ1gOs7Q8kBgpr0-] found
Submit result: mSbBOAdx9vRDSZ1gOs7Q8kBgpr0- has been confirmed
Track | CTDB Status
1 | (3/3) Accurately ripped
2 | (3/3) Accurately ripped
3 | (3/3) Accurately ripped
4 | (3/3) Accurately ripped
5 | (3/3) Accurately ripped
6 | (3/3) Accurately ripped
7 | (3/3) Accurately ripped
8 | (3/3) Accurately ripped
9 | (3/3) Accurately ripped
10 | (3/3) Accurately ripped
11 | (3/3) Accurately ripped
12 | (3/3) Accurately ripped
13 | (3/3) Accurately ripped
14 | (3/3) Accurately ripped
15 | (3/3) Accurately ripped
16 | (3/3) Accurately ripped
17 | (3/3) Accurately ripped
18 | (3/3) Accurately ripped
19 | (3/3) Accurately ripped
20 | (3/3) Accurately ripped

foobar2000 1.2.6 / Dynamic Range Meter 1.1.1
log date: 2015-07-06 12:23:07

Analyzed: Dr.Hook / Collection CD2

DR Peak RMS Duration Track

DR12 -1.80 dB -17.78 dB 3:19 01-A Little Bit More
DR12 -0.47 dB -16.16 dB 3:33 02-The Radio
DR13 -1.17 dB -16.73 dB 2:44 03-Up On The Mountain
DR12 -3.51 dB -17.87 dB 2:48 04-Only Sixteen
DR13 0.00 dB -16.45 dB 3:25 05-Jungle To The Zoo
DR14 -0.86 dB -16.62 dB 2:26 06-Bad Eye Bill
DR12 -0.85 dB -16.51 dB 2:57 07-What About You
DR11 -2.85 dB -16.86 dB 3:22 08-If Not You
DR12 -3.37 dB -19.59 dB 3:16 09-A Couple More Years
DR14 -1.14 dB -17.14 dB 3:06 10-Levitate
DR12 -1.47 dB -16.19 dB 2:58 11-Let Me Be Your Lover
DR14 -0.01 dB -15.62 dB 2:45 12-Mountain Mary
DR12 -1.31 dB -16.07 dB 3:26 13-I Got Stoned And Missed It
DR11 -0.57 dB -14.22 dB 2:09 14-Bubblin' Up
DR11 -0.68 dB -17.20 dB 2:28 15-Wups
DR13 -0.63 dB -16.56 dB 3:02 16-The Millionaire
DR13 -0.66 dB -16.56 dB 3:13 17-Everybody's Making It Big But Me
DR12 -0.22 dB -14.36 dB 3:34 18-Cooky and Lila
DR12 0.00 dB -14.90 dB 2:45 19-Everybody Loves Me
DR11 -0.30 dB -14.55 dB 2:55 20-On The Way To The Bottom

Number of tracks: 20
Official DR value: DR12

Samplerate: 44100 Hz
Channels: 2
Bits per sample: 16
Bitrate: 786 kbps
Codec: FLAC

[CUETools log; Date: 06.07.2015 12:23:08; Version: 2.1.5]
[CTDB TOCID: mSbBOAdx9vRDSZ1gOs7Q8kBgpr0-] found.
Track | CTDB Status
1 | (4/4) Accurately ripped
2 | (4/4) Accurately ripped
3 | (4/4) Accurately ripped
4 | (4/4) Accurately ripped
5 | (4/4) Accurately ripped
6 | (4/4) Accurately ripped
7 | (4/4) Accurately ripped
8 | (4/4) Accurately ripped
9 | (4/4) Accurately ripped
10 | (4/4) Accurately ripped
11 | (4/4) Accurately ripped
12 | (4/4) Accurately ripped
13 | (4/4) Accurately ripped
14 | (4/4) Accurately ripped
15 | (4/4) Accurately ripped
16 | (4/4) Accurately ripped
17 | (4/4) Accurately ripped
18 | (4/4) Accurately ripped
19 | (4/4) Accurately ripped
20 | (4/4) Accurately ripped
[AccurateRip ID: 002be045-02806841-1c0e1b14] found.
Track [ CRC | V2 ] Status
01 [49275f22|7bf137ff] (4+3/7) Accurately ripped
02 [ff078a66|b9b322fa] (4+3/7) Accurately ripped
03 [af202ef7|c186f3c8] (4+3/7) Accurately ripped
04 [2f052566|1ef4dee7] (4+3/7) Accurately ripped
05 [7bca9629|9af17785] (4+3/7) Accurately ripped
06 02febfb|ab155755 (4+3/7) Accurately ripped
07 [d4db9150|c4696df6] (4+3/7) Accurately ripped
08 [918f6e73|39922342] (4+3/7) Accurately ripped
09 [cc3f3f98|599d90c6] (4+3/7) Accurately ripped
10 [a96ebb74|a675313a] (4+3/7) Accurately ripped
11 [225e9784|6a401eeb] (4+3/7) Accurately ripped
12 9f2f643|972b694d (4+3/7) Accurately ripped
13 [9ae700b7|d29a4b77] (4+3/7) Accurately ripped
14 [2e18bebf|69d5e0af] (4+3/7) Accurately ripped
15 [a340ecaf|5daa9dd0] (4+3/7) Accurately ripped
16 [57719f0e|2a940632] (4+3/7) Accurately ripped
17 [75dec491|09fc913d] (4+2/6) Accurately ripped
18 [1d264b41|424bbc4d] (4+2/6) Accurately ripped
19 [450a328e|92f5f1cc] (4+2/6) Accurately ripped
20 1a694db|f4d059eb (4+2/6) Accurately ripped

Track Peak [ CRC32 ] [W/O NULL] [ LOG ]
-- 100,0 [3E4A5DDB] [A188F2AF] CRC32
01 81,3 [77B51267] [674C668D]
02 94,6 [8951AEDF] [3B5B0475]
03 87,3 [074E7ECF] [598AD281]
04 66,7 [A7C69BE2] [0D4CC5C9]
05 100,0 37C101A [7B859224]
06 90,5 [A6FCE63A] [DF89A3A7]
07 90,7 [092C1A57] [6574654F]
08 72,0 [D239F356] [7C812417]
09 67,8 [7AAD7121] [794E288E]
10 87,6 [32D4AA47] [589CD3A8]
11 84,4 [399A5943] [57C9A653]
12 99,9 [721B563D] [4BBD9779]
13 85,9 [3A5193B7] [17C2C954]
14 93,6 [6156B1CE] 050B605
15 92,4 [8B64041D] [06B6C76A]
16 92,9 [DE6B3B7C] [C1B81BBC]
17 92,6 [35540BC4] [D49B742E]
18 97,5 [EE89BAC0] [1234D0A3]
19 100,0 [E2D7AB7E] 9591D5A
20 96,5 [24CE170B] D230D93

Dr. Hook - Collection (1996)



DOWNLOAD LINKS
Buy Premium From My Links To Get Resumable Support & Max Speed & To Support Me


Links are Interchangeable - No Password - Single Extraction
Direct Download

Tags: Collection

Dr. Hook - Collection (1996) Download via Hotfile Rapidshare Fileserve Megaupload & FileSonic, Dr. Hook - Collection (1996) free torrent downloads included crack, serial, keygen.Dr. Hook - Collection (1996) Fast Download via Rapidshare Hotfile Fileserve Filesonic Megaupload, Dr. Hook - Collection (1996) Torrents and Emule Download or anything related.
Leave a Comment
Your Name:
E-Mail:
Add Comments:

Enter Code: