Andrew Hill - Andrew!!! (1964) {2015 Japan SHM-CD Blue Note 24-192 Remaster}

Download Now


Andrew Hill - Andrew!!! (1964) {2015 Japan SHM-CD Blue Note 24-192 Remaster}
Andrew Hill - Andrew!!! (1964) {2015 Japan SHM-CD Blue Note 24-192 Remaster}
EAC rip (secure mode) | FLAC (tracks)+CUE+LOG -> 328 Mb | MP3 @320 -> 122 Mb
Full Artwork @ 600 dpi (png) -> 174 Mb | 5% repair rar | 24-bit 192 kHz remaster
© 2015 Universal Japan / Blue Note | BN 75th The Masterworks | UCCQ-5115
Jazz / Post Bop / Avant-Garde Jazz / Piano

"Quite possibly our favorite album ever from pianist Andrew Hill - a really unique outing that features the vibes of Bobby Hutcherson and a rare non-Sun Ra appearance by tenorist John Gilmore! The presence of Hutcherson brings a real "new thing" energy to the album - a feel that's similar to Bobby's classic Dialogue album, of which Hill was such an important part. But the searching tenor of Gilmore also brings a striking new level to the session as well - and his solos open up with a raw, earthy quality that really shades in the album with a great deal of feeling. Gilmore's role here is a bit like that of Joe Henderson on his freer Blue Note material - but his sound still undeniably unique, at a level that really makes us wish he'd recorded more albums like this at the time. The tracks are all originals by Hill, and include the titles "Duplicity", "Black Monday", "The Griots", and "Le Serpent Qui Danse". CD features 2 bonus alternate takes too!"

Andrew Hill - Andrew!!! (1964) {2015 Japan SHM-CD Blue Note 24-192 Remaster}


Personnel:
Andrew Hill - piano
John Gilmore - tenor saxophone
Bobby Hutcherson - vibraphone
Richard Davis - bass
Joe Chambers - drums


Andrew Hill - Andrew!!! (1964) {2015 Japan SHM-CD Blue Note 24-192 Remaster}


tracklist:
01 - The Griots
02 - Black Monday
03 - Duplicity
04 - Le Serpent Qui Danse
05 - No Doubt
06 - Symmetry
07 - The Griots (alt. take) (bonus track)
08 - Symmetry (alt. take) (bonus track)

Exact Audio Copy V1.0 beta 6 from 9. April 2015

EAC extraction logfile from 6. July 2015, 12:37

Andrew Hill / Andrew!!!

Used drive : ATAPI iHAS124 B Adapter: 2 ID: 0

Read mode : Secure
Utilize accurate stream : Yes
Defeat audio cache : Yes
Make use of C2 pointers : No

Read offset correction

: 6
Overread into Lead-In and Lead-Out : No
Fill up missing offset samples with silence : Yes
Delete leading and trailing silent blocks : No
Null samples used in CRC calculations : Yes
Used interface
: Installed external ASPI interface
Gap handling
: Appended to previous track

Used output format : User Defined Encoder
Selected bitrate : 1024 kBit/s
Quality : High
Add ID3 tag : No
Command line compressor : C:\Program Files (x86)\FLAC Frontend\tools\flac.exe
Additional command line options : -8 -V -T "ARTIST=%artist%" -T "TITLE=%title%" -T "ALBUM=%albumtitle%" -T "DATE=%year%" -T "TRACKNUMBER=%tracknr%" -T "TOTALTRACKS=%numtracks%" -T "GENRE=%genre%" -T "ALBUMARTIST=%albumartist%" -T "ALBUM ARTIST=%albumartist%" -T "COMMENT=EAC Secure Mode, Test & Copy, AccurateRip, FLAC -8" %source%

TOC of the extracted CD Track | Start | Length | Start sector | End sector
--1 | 0:00.00 | 6:04.09 | 0 | 27308 2 | 6:04.09 | 8:55.08 | 27309 | 67441 3 | 14:59.17 | 6:11.71 | 67442 | 95337 4 | 21:11.13 | 6:55.65 | 95338 | 126527 5 | 28:07.03 | 4:23.05 | 126528 | 146257 6 | 32:30.08 | 7:08.52 | 146258 | 178409 7 | 39:38.60 | 5:07.45 | 178410 | 201479 8 | 44:46.30 | 6:30.13 | 201480 | 230742

Track 1 Filename D:\_EAC\Andrew Hill - Andrew!!! (1964) [FLAC] {2015 Japan SHM-CD Blue Note 24-192 Remaster}\01 - The Griots.wav Pre-gap length 0:00:02.00 Peak level 98.2 %
Extraction speed 3.6 X
Track quality 100.0 %
Test CRC 3F1FED7A
Copy CRC 3F1FED7A
Accurately ripped (confidence 1) 75CC458 (AR v2)
Copy OK

Track 2 Filename D:\_EAC\Andrew Hill - Andrew!!! (1964) [FLAC] {2015 Japan SHM-CD Blue Note 24-192 Remaster}\02 - Black Monday.wav Pre-gap length 0:00:02.28 Peak level 98.5 %
Extraction speed 4.5 X
Track quality 100.0 %
Test CRC BBB3F6CD
Copy CRC BBB3F6CD
Accurately ripped (confidence 1) [25869C27] (AR v2)
Copy OK

Track 3 Filename D:\_EAC\Andrew Hill - Andrew!!! (1964) [FLAC] {2015 Japan SHM-CD Blue Note 24-192 Remaster}\03 - Duplicity.wav Pre-gap length 0:00:02.28 Peak level 99.0 %
Extraction speed 5.0 X
Track quality 100.0 %
Test CRC 9828B4FB
Copy CRC 9828B4FB
Accurately ripped (confidence 1) [D4446650] (AR v2)
Copy OK

Track 4 Filename D:\_EAC\Andrew Hill - Andrew!!! (1964) [FLAC] {2015 Japan SHM-CD Blue Note 24-192 Remaster}\04 - Le Serpent Qui Danse.wav Pre-gap length 0:00:02.43 Peak level 99.4 %
Extraction speed 5.5 X
Track quality 100.0 %
Test CRC C9C12295
Copy CRC C9C12295
Accurately ripped (confidence 1) [48B6A356] (AR v2)
Copy OK

Track 5 Filename D:\_EAC\Andrew Hill - Andrew!!! (1964) [FLAC] {2015 Japan SHM-CD Blue Note 24-192 Remaster}\05 - No Doubt.wav Pre-gap length 0:00:02.28 Peak level 97.0 %
Extraction speed 5.6 X
Track quality 100.0 %
Test CRC D0D2B4D3
Copy CRC D0D2B4D3
Accurately ripped (confidence 1) [F9C0086B] (AR v2)
Copy OK

Track 6 Filename D:\_EAC\Andrew Hill - Andrew!!! (1964) [FLAC] {2015 Japan SHM-CD Blue Note 24-192 Remaster}\06 - Symmetry.wav Pre-gap length 0:00:02.28 Peak level 97.9 %
Extraction speed 6.2 X
Track quality 100.0 %
Test CRC D152E36A
Copy CRC D152E36A
Accurately ripped (confidence 1) [732BCEB6] (AR v2)
Copy OK

Track 7 Filename D:\_EAC\Andrew Hill - Andrew!!! (1964) [FLAC] {2015 Japan SHM-CD Blue Note 24-192 Remaster}\07 - The Griots (alt. take) (bonus track).wav Pre-gap length 0:00:02.55 Peak level 97.3 %
Extraction speed 6.3 X
Track quality 100.0 %
Test CRC 1E90CE0F
Copy CRC 1E90CE0F
Accurately ripped (confidence 1) [03B0DA1B] (AR v2)
Copy OK

Track 8 Filename D:\_EAC\Andrew Hill - Andrew!!! (1964) [FLAC] {2015 Japan SHM-CD Blue Note 24-192 Remaster}\08 - Symmetry (alt. take) (bonus track).wav Pre-gap length 0:00:02.43 Peak level 97.5 %
Extraction speed 6.8 X
Track quality 100.0 %
Test CRC B395280E
Copy CRC B395280E
Accurately ripped (confidence 1) [5F22B28B] (AR v2)
Copy OK

All tracks accurately ripped

No errors occurred

End of status report

==== Log checksum E1BB19C9A4E0ECF6C50C691B01B6F2B81820D64E3D775A5B6FA9F6DCD588FE8D ====

Andrew Hill - Andrew!!! (1964) {2015 Japan SHM-CD Blue Note 24-192 Remaster}

Andrew Hill - Andrew!!! (1964) {2015 Japan SHM-CD Blue Note 24-192 Remaster}

DOWNLOAD LINKS
Buy Premium From My Links To Get Resumable Support & Max Speed & To Support Me


Links are Interchangeable - No Password - Single Extraction
Direct Download

Tags: Andrew, Andrew, Remaster

Andrew Hill - Andrew!!! (1964) {2015 Japan SHM-CD Blue Note 24-192 Remaster} Download via Hotfile Rapidshare Fileserve Megaupload & FileSonic, Andrew Hill - Andrew!!! (1964) {2015 Japan SHM-CD Blue Note 24-192 Remaster} free torrent downloads included crack, serial, keygen.Andrew Hill - Andrew!!! (1964) {2015 Japan SHM-CD Blue Note 24-192 Remaster} Fast Download via Rapidshare Hotfile Fileserve Filesonic Megaupload, Andrew Hill - Andrew!!! (1964) {2015 Japan SHM-CD Blue Note 24-192 Remaster} Torrents and Emule Download or anything related.
Leave a Comment
Your Name:
E-Mail:
Add Comments:

Enter Code: