Donovan - Cosmic Wheels (1973)

Download Now

Donovan - Cosmic Wheels (1973)

Donovan - Cosmic Wheels (1973)
EAC | Flac(Image) + Cue + Log & MP3 CBR 320Kbps
1994 | Rewind / Epic, 477378-2 | ~ 256 or 111 Mb | Scans Included
Folk Rock / Psychedelic Rock

"Cosmic Wheels was Donovan's first album in three years to be aimed at mainstream listeners (as opposed to the audience of children and parents for HMS Donovan). For most onlookers, the passage of time meant that this record should have differed considerably from its predecessor..."


Tracklist:

01. Cosmic Wheels (4:10)
02. Earth Sign Man (4:03)
03. Sleep (3:54)
04. Maria Magenta (2:20)
05. Wild Witch Lady (4:36)
06. The Music Makers (4:29)
07. The Intergalactic Laxative (2:53)
08. I Like You (3:19)
09. Only The Blues (3:44)

Exact Audio Copy V0.99 prebeta 4 from 23. January 2008

EAC extraction logfile from 17. December 2008, 19:26

Donovan / Cosmic Wheels

Used drive : COMPAQ DVD-ROM GDR8160B Adapter: 1 ID: 0

Read mode : Secure
Utilize accurate stream : Yes
Defeat audio cache : Yes
Make use of C2 pointers : No

Read offset correction

: 102
Overread into Lead-In and Lead-Out : No
Fill up missing offset samples with silence : Yes
Delete leading and trailing silent blocks : No
Null samples used in CRC calculations : Yes
Used interface
: Installed external ASPI interface

Used output format : User Defined Encoder
Selected bitrate : 768 kBit/s
Quality : High
Add ID3 tag : No
Command line compressor : C:\My Files\Exact Audio Copy\FLAC\FLAC.EXE
Additional command line options : --best -V -T "DATE=%y" -T "GENRE=%m" %s

TOC of the extracted CD Track | Start | Length | Start sector | End sector
--1 | 0:00.00 | 4:10.22 | 0 | 18771 2 | 4:10.22 | 4:03.18 | 18772 | 37014 3 | 8:13.40 | 3:53.72 | 37015 | 54561 4 | 12:07.37 | 2:20.43 | 54562 | 65104 5 | 14:28.05 | 4:35.72 | 65105 | 85801 6 | 19:04.02 | 4:29.35 | 85802 | 106011 7 | 23:33.37 | 2:53.15 | 106012 | 119001 8 | 26:26.52 | 5:22.70 | 119002 | 143221 9 | 31:49.47 | 3:18.63 | 143222 | 158134
10 | 35:08.35 | 3:44.07 | 158135 | 174941

Range status and errors

Selected range Filename C:\Veritas from Korea with Friendship\CDImage.wav Peak level 99.8 %
Range quality 100.0 %
Test CRC 9AA5405B
Copy CRC 9AA5405B
Copy OK

No errors occurred


AccurateRip summary

Track 1 not present in database
Track 2 not present in database
Track 3 not present in database
Track 4 not present in database
Track 5 not present in database
Track 6 not present in database
Track 7 not present in database
Track 8 not present in database
Track 9 not present in database
Track 10 not present in database

None of the tracks are present in the AccurateRip database

End of status report

foobar2000 1.2.9 / Dynamic Range Meter 1.1.1
log date: 2015-07-07 21:14:47

Analyzed: Donovan / Cosmic Wheels

DR Peak RMS Duration Track

DR12 -0.24 dB -15.68 dB 4:10 01-Cosmic Wheels
DR13 -0.21 dB -16.42 dB 4:03 02-Earth Sign Man
DR11 -0.45 dB -14.84 dB 3:54 03-Sleep
DR12 -0.38 dB -15.71 dB 2:21 04-Maria Magenta
DR11 -0.05 dB -13.91 dB 4:36 05-Wild Witch Lady
DR13 -0.97 dB -16.75 dB 4:29 06-The Music Makers
DR13 -1.90 dB -17.85 dB 2:53 07-The Intergalactic Laxative
DR12 -0.01 dB -17.65 dB 5:23 08-I Like You
DR13 -0.74 dB -15.97 dB 3:19 09-Only The Blues
DR12 -1.67 dB -17.41 dB 3:44 10-Appearances

Number of tracks: 10
Official DR value: DR12

Samplerate: 44100 Hz
Channels: 2
Bits per sample: 16
Bitrate: 809 kbps
Codec: FLAC

[CUETools log; Date: 05.07.2015 19:50:56; Version: 2.1.5]
[CTDB TOCID: Ixs0qh5edRwP5_h3mI_5Z.ZlVaI-] found.
Track | CTDB Status
1 | (4/4) Accurately ripped
2 | (4/4) Accurately ripped
3 | (4/4) Accurately ripped
4 | (4/4) Accurately ripped
5 | (4/4) Accurately ripped
6 | (4/4) Accurately ripped
7 | (4/4) Accurately ripped
8 | (4/4) Accurately ripped
9 | (4/4) Accurately ripped
10 | (4/4) Accurately ripped
[AccurateRip ID: 000eb009-00756e71-7b091c0a] found.
Track [ CRC | V2 ] Status
01 [8fa5e060|e854f87e] (02+08/12) Accurately ripped
02 [ad6686f5|f4b78ed3] (02+08/12) Accurately ripped
03 [99976a77|0cbf5c57] (02+08/12) Accurately ripped
04 [d4b685e6|4fd1dd34] (02+08/12) Accurately ripped
05 [7354ae06|6c503636] (02+08/12) Accurately ripped
06 [70cbde76|309e742e] (02+08/12) Accurately ripped
07 84d0d97|df05bc41 (02+08/12) Accurately ripped
08 [98ecab9f|32cbfad7] (02+08/12) Accurately ripped
09 [06a44111|d6488edb] (02+08/12) Accurately ripped
10 [e3194306|0f5dc49b] (02+08/12) Accurately ripped
Offsetted by -947:
01 [fdb0a1a5] (00/12) No match (V2 was not tested)
02 [9d4adca2] (00/12) No match (V2 was not tested)
03 [21fd736c] (00/12) No match (V2 was not tested)
04 [219f6500] (00/12) No match (V2 was not tested)
05 [340e7613] (00/12) No match (V2 was not tested)
06 [f58f515a] (00/12) No match (V2 was not tested)
07 [7f09c16b] (00/12) No match (V2 was not tested)
08 [794f1d4c] (00/12) No match (V2 was not tested)
09 [d89f5bf4] (00/12) No match (V2 was not tested)
10 [6d88d8db] (00/12) No match (V2 was not tested)

Track Peak [ CRC32 ] [W/O NULL] [ LOG ]
-- 99,8 [9AA5405B] [38B296C8] CRC32
01 97,2 [DEAEB00D] [127A6CD6]
02 97,6 [8DF51A6E] [00AEF757]
03 94,9 [912B7DA5] 69021F0
04 95,7 [141FA752] [CAA74CC8]
05 99,4 [72EDAB75] [4AC03662]
06 89,4 [6F175EA5] [FAA6A6AB]
07 80,3 [79268116] [DF7C5611]
08 99,8 [48E718A8] [5785D250]
09 91,8 [99E4885F] [C69D7C22]
10 82,4 [C797F483] [D5A0363E]

Donovan - Cosmic Wheels (1973)

DOWNLOAD LINKS:
(Premium Recommended)


All above links are interchangable. No password
Direct Download

Tags: Donovan, Cosmic, Wheels

Donovan - Cosmic Wheels (1973) Download via Hotfile Rapidshare Fileserve Megaupload & FileSonic, Donovan - Cosmic Wheels (1973) free torrent downloads included crack, serial, keygen.Donovan - Cosmic Wheels (1973) Fast Download via Rapidshare Hotfile Fileserve Filesonic Megaupload, Donovan - Cosmic Wheels (1973) Torrents and Emule Download or anything related.
Leave a Comment
Your Name:
E-Mail:
Add Comments:

Enter Code: