Stuart Smith - Heaven & Earth (1999)

Download Now

Stuart Smith - Heaven & Earth (1999)

Stuart Smith - Heaven & Earth (1999)
EAC Rip | WavPack (*.wv): Image+Cue+Log | 480 Mb | MP3 CBR 320 kbps | 160 Mb | Scans | Time: 01:05:08
Genre: Classic Rock, Hard Rock, Blues Rock | Label: CD-Maximum | Cat.№: CDM 0901-696

"In 1999, Smith recruited friends like guitarist Richie Sambora (Bon Jovi), singer Joe Lynn Turner (Rainbow), bassist and singer Glenn Hughes (Deep Purple), drummer Camine Appice (Vanilla Fudge), guitarist Howard Leese (Heart), singer Kelly Hansen (Foreigner), bassist Chuck Wright (Quiet Riot) and drummer Richie Onari (Sweet) to record the critically acclaimed Stuart Smith's Heaven & Earth. This incredible debut album by rock/blues band Heaven & Earth features British guitarist Stuart Smith (who critics have compared to Beck, Blackmore, Clapton, and Page)."



Track Listing

01. Don't Keep Me Waiting (05:10)
02. Heaven & Earth (04:14)
03. See That My Grave Is Kept Clean (04:23)
04. When A Blind Man Cries (05:30)
05. Memories (04:30)
06. Dreams Of Desire (Instrumental) (03:37)
07. Trouble In Paradise (03:44)
08. Shadow Of The Tyburn Tree (03:31)
09. It's Got To Be Love (04:28)
10. When The Blues Catch Up With You (05:20)
11. Do You Ever Think Of Me? (04:55)
12. Road To Melnibone (Instrumental) (04:34)
13. Howlin' At The Moon (03:56)
14. Telstar 2000 (Instrumental) (03:42)
15. Lose My Number (03:28)

Produced by Pat Regan & Howard Leese

Musicians

* Stuart Smith - guitar

* Kelly Hansen - vocals (1, 8, 15 & 16)
* Joe Lynn Turner - vocals (2, 7, 9, 10 & 14)
* Glenn Hughes - vocals (3)
* Richie Sambora - vocals (4), guitar (4 & 8) and dobro (3)
* Bobby Kimball - vocals (5)
* Al Mirikitani - vocals (12) and guitar (12, 13)
* Paul Shortino - vocals (13)
* Howard Leese - guitar (2, 11 & 12) and strings (6)
* Ian Hersey - guitar (11)
* Marvin Sperling - bass (1, 2, 4, 6 & 9)
* Chuck Wright - bass (3, 8, 11, 14 & 16)
* Dave Chamberlain - bass (5 & 7)
* Byod La'Fan - bass (12 & 13)
* Steve Priest - bass (15)
* Richie Onori - drums (1, 4, 6, 7 & 9)
* Jay Schellen - drums (2, 5 & 16)
* Carmine Appice - drums (3, 8 & 14)
* Joe Pa'Fume - drums (12 & 13)
* Mike Terrana - drums (11 & 15)
* Ray Rodriguez - keyboards (1, 2, 3, 4, 8, 14 & 16)
* Pat Regan - keyboards (6, 11 & 15) and strings (10)
* Teddy Andreas - keyboards (9)
* Arlan Schierbaum - hammond (5, 7, 12 & 13)
* Richard Hardy - woodwinds (10)

Stuart Smith - Heaven & Earth (1999)



Exact Audio Copy V0.99 prebeta 5 from 4. May 2009

EAC extraction logfile from 27. June 2010, 23:13

Smith, Stuart / Heaven & Earth

Used drive : PIONEER DVD-RW DVR-118L Adapter: 0 ID: 1

Read mode : Secure
Utilize accurate stream : Yes
Defeat audio cache : Yes
Make use of C2 pointers : No

Read offset correction

: 6
Overread into Lead-In and Lead-Out : No
Fill up missing offset samples with silence : Yes
Delete leading and trailing silent blocks : No
Null samples used in CRC calculations : Yes
Used interface
: Native Win32 interface for Win NT & 2000

Used output format : Internal WAV Routines
Sample format : 44.100 Hz; 16 Bit; Stereo

TOC of the extracted CD Track | Start | Length | Start sector | End sector
--1 | 0:00.00 | 5:10.18 | 0 | 23267 2 | 5:10.18 | 4:14.27 | 23268 | 42344 3 | 9:24.45 | 4:23.50 | 42345 | 62119 4 | 13:48.20 | 5:29.72 | 62120 | 86866 5 | 19:18.17 | 4:30.06 | 86867 | 107122 6 | 23:48.23 | 3:36.74 | 107123 | 123396 7 | 27:25.22 | 3:44.03 | 123397 | 140199 8 | 31:09.25 | 3:31.58 | 140200 | 156082 9 | 34:41.08 | 4:28.58 | 156083 | 176240
10 | 39:09.66 | 5:20.06 | 176241 | 200246
11 | 44:29.72 | 4:55.57 | 200247 | 222428
12 | 49:25.54 | 4:34.06 | 222429 | 242984
13 | 53:59.60 | 3:56.58 | 242985 | 260742
14 | 57:56.43 | 3:42.17 | 260743 | 277409
15 | 61:38.60 | 3:28.30 | 277410 | 293039

Range status and errors

Selected range Filename D:\PIPETKA\Smith, Stuart [1999] Heaven & Earth\Smith, Stuart - Heaven & Earth.wav Peak level 100.0 %
Range quality 100.0 %
Test CRC 6D9BE18E
Copy CRC 6D9BE18E
Copy OK

No errors occurred


AccurateRip summary

Track 1 not present in database
Track 2 not present in database
Track 3 not present in database
Track 4 not present in database
Track 5 not present in database
Track 6 not present in database
Track 7 not present in database
Track 8 not present in database
Track 9 not present in database
Track 10 not present in database
Track 11 not present in database
Track 12 not present in database
Track 13 not present in database
Track 14 not present in database
Track 15 not present in database

None of the tracks are present in the AccurateRip database

End of status report

Many thanks to the original uploader: gatherone
DOWNLOAD:
Buy Premium To Support Me & Get Resumable Support & Max Speed


Links are Interchangeable - No Password
Direct Download

Tags: Stuart, Heaven

Stuart Smith - Heaven & Earth (1999) Download via Hotfile Rapidshare Fileserve Megaupload & FileSonic, Stuart Smith - Heaven & Earth (1999) free torrent downloads included crack, serial, keygen.Stuart Smith - Heaven & Earth (1999) Fast Download via Rapidshare Hotfile Fileserve Filesonic Megaupload, Stuart Smith - Heaven & Earth (1999) Torrents and Emule Download or anything related.
Leave a Comment
Your Name:
E-Mail:
Add Comments:

Enter Code: