B.B. King - The Blues King's Best (2013)

Download Now

B.B. King - The Blues King's Best (2013)

B.B. King - The Blues King's Best (2013)
2CD | EAC Rip | FLAC (Img) + Cue + Log ~ 716 Mb | MP3 CBR320 ~ 328 Mb
Scans Included (JPG, 400 dpi) | RAR 5% Recovery
Blues, R&B | Cleopatra Records/Stardust Records #CLP9295

"The 2012 two-disc anthology The Blues King's Best compiles many of legendary guitarist B.B. King's recordings. The first disc features studio recordings from 1949 to 1960 and the second disc showcases live recordings from various dates over the years -- some well past 1960. Included are such stellar studio recordings as "B.B. Boogie," "Please Love Me," "Swing Low, Sweet Chariot," "The Thrill Is Gone," "How Blue Can You Get?," and many others. This a solid collection that works well as a thorough overview of King's long career."

Track List CD1:

01. Got The Blues [02:50]
02. B.B.Boogie [03:13]
03. Mistreated Woman [02:52]
04. Walkin' And Cryin' [03:30]
05. A New Way Of Driving [01:58]
06. Please Love Me [02:50]
07. From The Bottom (feat.sonny Boy Williamson) [02:45]
08. Every Day I Have The Blues [05:04]
09. Take My Hand, Precious Lord [03:24]
10. Save A Seat For Me [03:07]
11. Swing Low, Sweet Chariot [02:12]
12. I Am Willing To Run All The Way [03:41]
13. You've Done Lost Your Good Thing Now [05:16]
14. It's My Own Fault [03:36]
15. Catfish Blues (a/k/a Fishin' After Me) [02:30]

Exact Audio Copy V1.0 beta 3 from 29. August 2011

EAC extraction logfile from 1. July 2015, 1:03

B.B.King / The Blues King's Best CD1

Used drive : PIONEER BD-RW BDR-TD03 Adapter: 0 ID: 1

Read mode : Secure
Utilize accurate stream : Yes
Defeat audio cache : Yes
Make use of C2 pointers : No

Read offset correction

: 667
Overread into Lead-In and Lead-Out : No
Fill up missing offset samples with silence : Yes
Delete leading and trailing silent blocks : No
Null samples used in CRC calculations : Yes
Used interface
: Native Win32 interface for Win NT & 2000

Used output format : User Defined Encoder
Selected bitrate : 768 kBit/s
Quality : High
Add ID3 tag : No
Command line compressor : C:\Program Files (x86)\Exact Audio Copy\FLAC\FLAC.EXE
Additional command line options : -6 -V -T "ARTIST=%artist%" -T "TITLE=%title%" -T "ALBUM=%albumtitle%" -T "DATE=%year%" -T "TRACKNUMBER=%tracknr%" -T "GENRE=%genre%" -T "COMMENT=%comment%" -T "BAND=%albuminterpret%" -T "ALBUMARTIST=%albuminterpret%" -T "COMPOSER=%composer%" %haslyrics%--tag-from-file=LYRICS="%lyricsfile%"%haslyrics% -T "DISCNUMBER=%cdnumber%" -T "TOTALDISCS=%totalcds%" -T "TOTALTRACKS=%numtracks%" %hascover%--picture="%coverfile%"%hascover% %source% -o %dest%

TOC of the extracted CD Track | Start | Length | Start sector | End sector
--1 | 0:00.00 | 2:49.10 | 0 | 12684 2 | 2:49.10 | 3:12.30 | 12685 | 27114 3 | 6:01.40 | 2:51.18 | 27115 | 39957 4 | 8:52.58 | 3:29.41 | 39958 | 55673 5 | 12:22.24 | 1:57.05 | 55674 | 64453 6 | 14:19.29 | 2:49.26 | 64454 | 77154 7 | 17:08.55 | 2:44.63 | 77155 | 89517 8 | 19:53.43 | 5:03.55 | 89518 | 112297 9 | 24:57.23 | 3:23.18 | 112298 | 127540
10 | 28:20.41 | 3:06.13 | 127541 | 141503
11 | 31:26.54 | 2:11.18 | 141504 | 151346
12 | 33:37.72 | 3:40.30 | 151347 | 167876
13 | 37:18.27 | 5:15.48 | 167877 | 191549
14 | 42:34.00 | 3:35.16 | 191550 | 207690
15 | 46:09.16 | 2:29.35 | 207691 | 218900

Range status and errors

Selected range Filename C:\Users\Deris\Desktop\BBBest\cd1\B.B.King - The Blues King's Best CD1.wav Peak level 98.7 %
Extraction speed 4.5 X
Range quality 100.0 %
Test CRC 26142CCD
Copy CRC 26142CCD
Copy OK

No errors occurred


AccurateRip summary

Track 1 not present in database
Track 2 not present in database
Track 3 not present in database
Track 4 not present in database
Track 5 not present in database
Track 6 not present in database
Track 7 not present in database
Track 8 not present in database
Track 9 not present in database
Track 10 not present in database
Track 11 not present in database
Track 12 not present in database
Track 13 not present in database
Track 14 not present in database
Track 15 not present in database

None of the tracks are present in the AccurateRip database

End of status report

- CUETools DB Plugin V2.1.3

[CTDB TOCID: Ld.ZQiFOIa3bm0lTPGlslubR6.k-] found, Submit result: Ld.ZQiFOIa3bm0lTPGlslubR6.k- has been uploaded
[098ca807] (1/1) No match

==== Log checksum B7B4385A677B749B7B998BC214B824B103532C8F9EB92E0E9759A05A3289A3E6 ====

foobar2000 1.2.6 / Dynamic Range Meter 1.1.1
log date: 2015-07-07 22:57:13

Analyzed: B.B.King / The Blues King's Best CD1

DR Peak RMS Duration Track

DR8 -0.11 dB -9.30 dB 2:49 01-Got The Blues
DR6 -0.11 dB -7.91 dB 3:12 02-B.B.Boogie
DR7 -0.11 dB -9.03 dB 2:51 03-Mistreated Woman
DR8 -0.11 dB -9.64 dB 3:30 04-Walkin' And Cryin'
DR7 -0.11 dB -8.09 dB 1:57 05-A New Way Of Driving
DR7 -0.11 dB -8.95 dB 2:49 06-Please Love Me
DR10 -0.11 dB -11.98 dB 2:45 07-From The Bottom (feat.sonny Boy Williamson)
DR8 -0.11 dB -10.17 dB 5:04 08-Every Day I Have The Blues
DR7 -0.11 dB -10.55 dB 3:23 09-Take My Hand, Precious Lord
DR9 -0.11 dB -11.75 dB 3:06 10-Save A Seat For Me
DR7 -0.11 dB -10.08 dB 2:11 11-Swing Low, Sweet Chariot
DR8 -0.11 dB -10.85 dB 3:40 12-I Am Willing To Run All The Way
DR10 -0.11 dB -12.67 dB 5:16 13-You've Done Lost Your Good Thing Now
DR8 -0.11 dB -10.05 dB 3:35 14-It's My Own Fault
DR9 -0.11 dB -11.11 dB 2:29 15-Catfish Blues (a/k/a Fishin' After Me)

Number of tracks: 15
Official DR value: DR8

Samplerate: 44100 Hz
Channels: 2
Bits per sample: 16
Bitrate: 762 kbps
Codec: FLAC

[CUETools log; Date: 07.07.2015 22:56:50; Version: 2.1.5]
[CTDB TOCID: Ld.ZQiFOIa3bm0lTPGlslubR6.k-] found.
Track | CTDB Status
1 | (2/2) Accurately ripped
2 | (2/2) Accurately ripped
3 | (2/2) Accurately ripped
4 | (2/2) Accurately ripped
5 | (2/2) Accurately ripped
6 | (2/2) Accurately ripped
7 | (2/2) Accurately ripped
8 | (2/2) Accurately ripped
9 | (2/2) Accurately ripped
10 | (1/2) Accurately ripped
11 | (2/2) Accurately ripped
12 | (1/2) Accurately ripped
13 | (1/2) Accurately ripped
14 | (1/2) Accurately ripped
15 | (1/2) Accurately ripped
[AccurateRip ID: 0019b714-0126ee29-c60b660f] disk not present in database.

Track Peak [ CRC32 ] [W/O NULL] [ LOG ]
-- 98,7 [26142CCD] [D871A01C] CRC32
01 98,7 [A781020A] [CFEB912B]
02 98,7 BB6B7E2 [61590BE0]
03 98,7 [FA4C2C36] [CB652787]
04 98,7 [2AB2A62C] [D7FEE3D2]
05 98,7 [5D896A02] [3E84688F]
06 98,7 [76A93214] [5639134A]
07 98,7 [EDF6A036] [C8F2F1B5]
08 98,7 [35D7D4FF] [2B5D386D]
09 98,7 [CCEE8167] [AEB84C1F]
10 98,7 [5773DA12] [74F9E021]
11 98,7 [AC5FC831] [6A434C20]
12 98,7 [6FFC5E48] [E8335856]
13 98,7 [66931FC3] [DEF1E82D]
14 98,7 [C37FE80A] [CE7838C5]
15 98,7 [2A5006F5] 5F31448

B.B. King - The Blues King's Best (2013)

Track List CD2:

01. The Thrill Is Gone [04:54]
02. Every Day I Have The Blues [04:46]
03. Guess Who [05:40]
04. Now Blue Can You Get? [03:26]
05. I Got Some Help (I Don't Really Need) [a k a Outside Help] [06:54]
06. Payin' The Cost To Be The Boss [06:27]
07. Sweet Sixteen [04:19]
08. That Evil Child [03:54]
09. Why I Sing The Blues [04:19]
10. You Know I Love You [05:07]
11. Sweet Little Angel [06:01]
12. All Over Again [07:07]
13. Caldonia [03:27]
14. Please Love Me [03:03]

Exact Audio Copy V1.0 beta 3 from 29. August 2011

EAC extraction logfile from 2. July 2015, 14:30

B.B. King / The Blues King's Best CD2

Used drive : PIONEER BD-RW BDR-TD03 Adapter: 0 ID: 1

Read mode : Secure
Utilize accurate stream : Yes
Defeat audio cache : Yes
Make use of C2 pointers : No

Read offset correction

: 667
Overread into Lead-In and Lead-Out : No
Fill up missing offset samples with silence : Yes
Delete leading and trailing silent blocks : No
Null samples used in CRC calculations : Yes
Used interface
: Native Win32 interface for Win NT & 2000

Used output format : User Defined Encoder
Selected bitrate : 768 kBit/s
Quality : High
Add ID3 tag : No
Command line compressor : C:\Program Files (x86)\Exact Audio Copy\FLAC\FLAC.EXE
Additional command line options : -6 -V -T "ARTIST=%artist%" -T "TITLE=%title%" -T "ALBUM=%albumtitle%" -T "DATE=%year%" -T "TRACKNUMBER=%tracknr%" -T "GENRE=%genre%" -T "COMMENT=%comment%" -T "BAND=%albuminterpret%" -T "ALBUMARTIST=%albuminterpret%" -T "COMPOSER=%composer%" %haslyrics%--tag-from-file=LYRICS="%lyricsfile%"%haslyrics% -T "DISCNUMBER=%cdnumber%" -T "TOTALDISCS=%totalcds%" -T "TOTALTRACKS=%numtracks%" %hascover%--picture="%coverfile%"%hascover% %source% -o %dest%

TOC of the extracted CD Track | Start | Length | Start sector | End sector
--1 | 0:00.00 | 4:53.22 | 0 | 21996 2 | 4:53.22 | 4:45.04 | 21997 | 43375 3 | 9:38.26 | 5:39.07 | 43376 | 68807 4 | 15:17.33 | 3:25.61 | 68808 | 84243 5 | 18:43.19 | 6:53.58 | 84244 | 115276 6 | 25:37.02 | 6:26.07 | 115277 | 144233 7 | 32:03.09 | 4:18.65 | 144234 | 163648 8 | 36:21.74 | 3:54.00 | 163649 | 181198 9 | 40:15.74 | 4:18.28 | 181199 | 200576
10 | 44:34.27 | 5:06.56 | 200577 | 223582
11 | 49:41.08 | 6:00.66 | 223583 | 250648
12 | 55:41.74 | 7:06.64 | 250649 | 282662
13 | 62:48.63 | 3:26.24 | 282663 | 298136
14 | 66:15.12 | 3:02.10 | 298137 | 311796

Range status and errors

Selected range Filename C:\Users\Deris\Desktop\BBBest\cd2\B.B. King - The Blues King's Best CD2.wav Peak level 97.2 %
Extraction speed 5.0 X
Range quality 99.9 %
Test CRC 5F6D67FB
Copy CRC 5F6D67FB
Copy OK

No errors occurred


AccurateRip summary

Track 1 not present in database
Track 2 not present in database
Track 3 not present in database
Track 4 not present in database
Track 5 not present in database
Track 6 not present in database
Track 7 not present in database
Track 8 not present in database
Track 9 not present in database
Track 10 not present in database
Track 11 not present in database
Track 12 not present in database
Track 13 not present in database
Track 14 not present in database

None of the tracks are present in the AccurateRip database

End of status report

- CUETools DB Plugin V2.1.3

[CTDB TOCID: E_2xn5w9B5nqyJT037d8gSbHV.I-] found, Submit result: E_2xn5w9B5nqyJT037d8gSbHV.I- has been uploaded
[99fd0626] (1/1) No match

==== Log checksum 7BF9A34005388CFF9BAE97AF322AE5E9A3D8F3ACA677796C19FE4193E1B7ADD0 ====

foobar2000 1.2.6 / Dynamic Range Meter 1.1.1
log date: 2015-07-07 22:58:45

Analyzed: B.B. King / The Blues King's Best CD2

DR Peak RMS Duration Track

DR9 -0.25 dB -12.89 dB 4:53 01-The Thrill Is Gone
DR9 -0.25 dB -12.15 dB 4:45 02-Every Day I Have The Blues
DR9 -0.25 dB -12.13 dB 5:39 03-Guess Who
DR7 -0.25 dB -9.44 dB 3:26 04-Now Blue Can You Get?
DR6 -0.25 dB -9.18 dB 6:54 05-I Got Some Help (I Don't Really Need) [a k a Outside Help]
DR9 -0.24 dB -12.40 dB 6:26 06-Payin' The Cost To Be The Boss
DR7 -0.25 dB -9.74 dB 4:19 07-Sweet Sixteen
DR7 -0.25 dB -8.42 dB 3:54 08-That Evil Child
DR9 -0.25 dB -12.38 dB 4:18 09-Why I Sing The Blues
DR9 -0.25 dB -13.41 dB 5:07 10-You Know I Love You
DR9 -0.25 dB -13.17 dB 6:01 11-Sweet Little Angel
DR10 -0.25 dB -14.65 dB 7:07 12-All Over Again
DR9 -0.25 dB -11.55 dB 3:26 13-Caldonia
DR8 -0.25 dB -9.57 dB 3:02 14-Please Love Me

Number of tracks: 14
Official DR value: DR8

Samplerate: 44100 Hz
Channels: 2
Bits per sample: 16
Bitrate: 753 kbps
Codec: FLAC

[CUETools log; Date: 07.07.2015 22:58:43; Version: 2.1.5]
[CTDB TOCID: E_2xn5w9B5nqyJT037d8gSbHV.I-] found.
Track | CTDB Status
1 | (2/2) Accurately ripped
2 | (2/2) Accurately ripped
3 | (2/2) Accurately ripped
4 | (2/2) Accurately ripped
5 | (2/2) Accurately ripped
6 | (1/2) Accurately ripped
7 | (1/2) Accurately ripped
8 | (1/2) Accurately ripped
9 | (1/2) Accurately ripped
10 | (1/2) Accurately ripped
11 | (1/2) Accurately ripped
12 | (1/2) Accurately ripped
13 | (1/2) Accurately ripped
14 | (1/2) Accurately ripped
[AccurateRip ID: 002478ae-018541b1-dd103d0e] disk not present in database.

Track Peak [ CRC32 ] [W/O NULL] [ LOG ]
-- 97,2 [5F6D67FB] [CDFC4B05] CRC32
01 97,2 [4AB1A20B] 844C6D0
02 97,1 [58376479] [083EA82F]
03 97,2 [FBB7D9D9] [0F617804]
04 97,2 [F6DDED79] 22A05B8
05 97,2 [9D877E5E] [DF0E80AF]
06 97,2 [828428CA] [09B79A1B]
07 97,2 [9C6AF819] [8F94D688]
08 97,2 [F996C42C] [D378E10B]
09 97,1 [5238ABBF] [D4402A7A]
10 97,2 [F86DF46D] [4872CFDF]
11 97,2 [A901E12E] [08C61FF8]
12 97,2 [5A4E5660] [44A8EB5A]
13 97,2 [18AEBDCF] [AB6BC13A]
14 97,2 [6C6EA097] [8144B99E]

B.B. King - The Blues King's Best (2013)

All thanks go to Boris1


DOWNLOAD LINKS
Buy Premium From My Links To Get Resumable Support & Max Speed & To Support Me

Rapidgator.net:
http://rapidgator.net/file/848eab0dc55e12722877562c8130e170/pioot.BBKng13ThBlsKngsBstCD1flac.part1.rar.html
http://rapidgator.net/file/ac3d9614c45fb5b5b2b428a2d645e1a3/pioot.BBKng13ThBlsKngsBstCD1flac.part2.rar.html
http://rapidgator.net/file/d6f6d5f7ae313db2715b2eb1e4e34f89/pioot.BBKng13ThBlsKngsBstCD1mp3.rar.html
http://rapidgator.net/file/32eb15c9d67e6456d6fb8531dc669807/pioot.BBKng13ThBlsKngsBstCD2flac.part1.rar.html
http://rapidgator.net/file/758d89baf30aca04bfad6ebdb00efc69/pioot.BBKng13ThBlsKngsBstCD2flac.part2.rar.html
http://rapidgator.net/file/1efa3e50eed749b97c7e2c2b4d15b695/pioot.BBKng13ThBlsKngsBstCD2mp3.rar.html

Uploaded.net:
http://uploaded.net/file/kcy5khe0/pioot.BBKng13ThBlsKngsBstCD1flac.part1.rar
http://uploaded.net/file/97cr91ky/pioot.BBKng13ThBlsKngsBstCD1flac.part2.rar
http://uploaded.net/file/1f12nlcx/pioot.BBKng13ThBlsKngsBstCD1mp3.rar
http://uploaded.net/file/uhibug0b/pioot.BBKng13ThBlsKngsBstCD2flac.part1.rar
http://uploaded.net/file/6ab1iuoj/pioot.BBKng13ThBlsKngsBstCD2flac.part2.rar
http://uploaded.net/file/rqkmb7lf/pioot.BBKng13ThBlsKngsBstCD2mp3.rar

Uploadable.ch:
http://www.uploadable.ch/file/SzqKVK5Wqa5e/pioot.BBKng13ThBlsKngsBstCD1flac.part1.rar
http://www.uploadable.ch/file/YBQqDHSRpaBr/pioot.BBKng13ThBlsKngsBstCD1flac.part2.rar
http://www.uploadable.ch/file/A2fzu87EuMNr/pioot.BBKng13ThBlsKngsBstCD1mp3.rar
http://www.uploadable.ch/file/FK9Q6BdpJHFa/pioot.BBKng13ThBlsKngsBstCD2flac.part1.rar
http://www.uploadable.ch/file/XHJrHpNx6QG3/pioot.BBKng13ThBlsKngsBstCD2flac.part2.rar
http://www.uploadable.ch/file/KA6n9ZDz3uFQ/pioot.BBKng13ThBlsKngsBstCD2mp3.rar

Links are Interchangeable - No Password - Single Extraction
Direct Download

B.B. King - The Blues King's Best (2013) Download via Hotfile Rapidshare Fileserve Megaupload & FileSonic, B.B. King - The Blues King's Best (2013) free torrent downloads included crack, serial, keygen.B.B. King - The Blues King's Best (2013) Fast Download via Rapidshare Hotfile Fileserve Filesonic Megaupload, B.B. King - The Blues King's Best (2013) Torrents and Emule Download or anything related.
Leave a Comment
Your Name:
E-Mail:
Add Comments:

Enter Code: