Manfred Mann's Earth Band Box Set (1992) New Rip

Download Now

Manfred Mann's Earth Band Box Set (1992) New Rip

Manfred Mann's Earth Band Box Set (1992)
EAC | Flac(Image) + Cue + Log & MP3 CBR 320Kbps
13CD | Cohesion Records, MM Box 1 | ~ 2918 or 1172 Mb | Scans(png) -> 1153 Mb
Progressive Rock / Classic Rock / Pop Rock | Box Art(png) -> 616 Mb

~ 13 Non Remastered CDs / 1972-1992 ~


Manfred Mann's Earth Band Box Set (1992) New Rip

Manfred Mann's Earth Band at Wiki | Manfred Mann's Earth Band at Discogs | Manfred Mann's Earth Band at Allmusic | Manfred Mann's Earth Band HomePage

***********

Manfred Mann's Earth Band Box Set at Discogs
Manfred Mann's Earth Band Box Set (1992):

Manfred Mann's Earth Band Box Set (1992) New Rip

CD01: Manfred Mann's Earth Band - Manfred Mann's Earth Band (1972)
EAC | Flac(Image) + Cue + Log & MP3 CBR 320Kbps
COMMECD6 | ~ 235 or 105 Mb | Scans(png) -> 93 Mb
Progressive Rock

"Most folks know Manfred Mann from his '60s hits, but too few have ever heard the brilliant Manfred Mann's Earth Band album. Exploring arty and progressive directions, the Earth Band was a wholly different group from Mann's earlier lineup. Unlike the heavier art rock groups that would follow (Emerson, Lake & Palmer, Yes), the Earth Band never became burdened by its own seriousness. Manfred Mann's Earth Band combines hypnotic instrumentals ("Tribute"), exhilarating original songs ("Captain Bobby Stout"), and three definitive covers all laden with hooks worthy of "Do Wah Diddy Diddy." Mann mines Dylan's basement tapes again for "Please Mrs. Henry" (see "Quinn the Eskimo" and "Get Your Rocks Off" on other releases). An obscure Dr. John song, "Jump Sturdy" nearly jumps off the record. The synthesizer solo "Sloth" segues into the album's centerpiece, "Living Without You." With its thumping bassline and "So hard" chorus, this might be the best version of a Randy Newman song ever recorded. Closing the album, the Mann himself takes vocal turns on "Part Time Man" and "Up & Leaving," quiet acoustic tales that contrast with the complex instrumentals of the rest of the record. On whole, Manfred Mann's Earth Band is a completely satisfying album and one of the most underrated of the '70s.


by J.P. Ollio, AMG
"


Tracklist:

01. California Coastline (Walt Meskell, Tim Martin) 02:49
02. Captain Bobby Scout (Lane Tietgen) 06:59
03. Sloth (Manfred Mann, Mick Rogers) 01:26
04. Living Without You (Randy Newman) 03:38
05. Tribute (Mann) 05:37
06. Please Mrs Henry (Bob Dylan) 04:36
07. Jump Sturdy (Dr. John Creaux) 04:54
08. Prayer (Mann) 05:43
09. Part Tine Man (David Sadler, Mann) 03:06
10. I'm Up And I'm Leaving (Mann, Sadler) 03:06

Musicians:

Mick Rogers - guitar, vocals
Manfred Mann - organ, synthesizer, vocals
Colin Pattenden - bass guitar
Chris Slade - drums


Exact Audio Copy V1.0 beta 3 from 29. August 2011

EAC extraction logfile from 13. March 2015, 9:38

Manfred Mann's Earth Band / Manfred Mann's Earth Band (COMMECD6)

Used drive : SONY CD-RW CRX210E1 Adapter: 0 ID: 1

Read mode : Secure
Utilize accurate stream : Yes
Defeat audio cache : Yes
Make use of C2 pointers : No

Read offset correction

: 6
Overread into Lead-In and Lead-Out : No
Fill up missing offset samples with silence : Yes
Delete leading and trailing silent blocks : No
Null samples used in CRC calculations : Yes
Used interface
: Native Win32 interface for Win NT & 2000

Used output format : User Defined Encoder
Selected bitrate : 768 kBit/s
Quality : High
Add ID3 tag : No
Command line compressor : D:\ПРОГИ\Flac\flac.exe
Additional command line options : -V -8 %source%

TOC of the extracted CD Track | Start | Length | Start sector | End sector
--1 | 0:00.00 | 2:49.55 | 0 | 12729 2 | 2:49.55 | 6:59.40 | 12730 | 44194 3 | 9:49.20 | 1:26.08 | 44195 | 50652 4 | 11:15.28 | 3:38.35 | 50653 | 67037 5 | 14:53.63 | 5:37.42 | 67038 | 92354 6 | 20:31.30 | 4:36.63 | 92355 | 113117 7 | 25:08.18 | 4:54.07 | 113118 | 135174 8 | 30:02.25 | 5:43.55 | 135175 | 160954 9 | 35:46.05 | 3:06.08 | 160955 | 174912
10 | 38:52.13 | 3:06.25 | 174913 | 188887

Range status and errors

Selected range Filename D:\Ready.zp\Manfred Mann's Earth Band - Manfred Mann's Earth Band (COMMECD6).wav Peak level 97.7 %
Extraction speed 14.3 X
Range quality 100.0 %
Test CRC 2CE8F44D
Copy CRC 2CE8F44D
Copy OK

No errors occurred


AccurateRip summary

Track 1 accurately ripped (confidence 6) [D50D335A] (AR v2)
Track 2 accurately ripped (confidence 6) [15C77698] (AR v2)
Track 3 accurately ripped (confidence 6) [86562F6D] (AR v2)
Track 4 accurately ripped (confidence 7) [5CA1AFEA] (AR v2)
Track 5 accurately ripped (confidence 6) [5E0F6B90] (AR v2)
Track 6 accurately ripped (confidence 5) [39B5CA52] (AR v2)
Track 7 accurately ripped (confidence 5) [8BBA45AC] (AR v2)
Track 8 accurately ripped (confidence 4) [77767AF6] (AR v2)
Track 9 accurately ripped (confidence 5) [EDC0FF8C] (AR v2)
Track 10 accurately ripped (confidence 5) [214780AD] (AR v2)

All tracks accurately ripped

End of status report

==== Log checksum C98FF537377ED679BC1BE8A134E216F09B1E3F4C5C36F73A69C101699907DF42 ====

foobar2000 1.2.9 / Dynamic Range Meter 1.1.1
log date: 2015-07-08 13:00:55

Analyzed: Manfred Mann's Earth Band / Manfred Mann's Earth Band (COMMECD6)

DR Peak RMS Duration Track

DR12 -0.20 dB -15.85 dB 2:50 01-California Coastline
DR12 -0.20 dB -13.73 dB 7:00 02-Captain Bobby Scout
DR9 -3.90 dB -15.83 dB 1:26 03-Sloth
DR11 -0.65 dB -13.42 dB 3:38 04-Living Without You
DR11 -5.73 dB -19.95 dB 5:38 05-Tribute
DR11 -0.20 dB -12.91 dB 4:37 06-Please Mrs Henry
DR10 -0.20 dB -12.33 dB 4:54 07-Jump Sturdy
DR11 -0.20 dB -12.84 dB 5:44 08-Prayer
DR14 -0.70 dB -18.80 dB 3:06 09-Part Tine Man
DR10 -2.15 dB -14.79 dB 3:06 10-I'm Up And I'm Leaving

Number of tracks: 10
Official DR value: DR11

Samplerate: 44100 Hz
Channels: 2
Bits per sample: 16
Bitrate: 760 kbps
Codec: FLAC

[CUETools log; Date: 08.07.2015 13:00:49; Version: 2.1.4]
[CTDB TOCID: dbWNYN8FoWwRT8lsJsuzn.6bVpA-] found.
Track | CTDB Status
1 | (12/12) Accurately ripped
2 | (12/12) Accurately ripped
3 | (12/12) Accurately ripped
4 | (12/12) Accurately ripped
5 | (12/12) Accurately ripped
6 | (12/12) Accurately ripped
7 | (12/12) Accurately ripped
8 | (12/12) Accurately ripped
9 | (12/12) Accurately ripped
10 | (12/12) Accurately ripped
[AccurateRip ID: 000fde94-00802769-7c09d60a] found.
Track [ CRC | V2 ] Status
01 [966eda27|d50d335a] (03+07/10) Accurately ripped
02 [f6ca5673|15c77698] (03+07/10) Accurately ripped
03 [7430eb2a|86562f6d] (03+07/10) Accurately ripped
04 [f418cdf3|5ca1afea] (03+08/11) Accurately ripped
05 [6edd0ab9|5e0f6b90] (03+07/10) Accurately ripped
06 [17802943|39b5ca52] (03+06/09) Accurately ripped
07 [2364b888|8bba45ac] (03+06/09) Accurately ripped
08 [90e89676|77767af6] (03+05/08) Accurately ripped
09 e0e01ae|edc0ff8c (03+06/09) Accurately ripped
10 [afb3159f|214780ad] (03+06/09) Accurately ripped

Track Peak [ CRC32 ] [W/O NULL] [ LOG ]
-- 97,7 [2CE8F44D] [0052243D] CRC32
01 97,7 [85F35868] [734E4345]
02 97,7 7D09269 [07306DD5]
03 63,8 [04720D6D] [CC29753E]
04 92,8 [F6198E4A] [FA790996]
05 51,7 [56779312] [95ADD7A8]
06 97,7 2564234 [11814868]
07 97,7 [67EC6F58] [6F550314]
08 97,7 [3CAFFF1D] [ACE628EB]
09 92,2 [184F48AA] [9A445F3D]
10 78,0 [9AF18A98] [22722AB4]

* * * * *

Manfred Mann's Earth Band Box Set (1992) New Rip

CD02: Manfred Mann's Earth Band - Glorified Magnified (1972)
EAC | Flac(Image) + Cue + Log & MP3 CBR 320Kbps
COMMECD11 | ~ 255 or 91 Mb | Scans(png) -> 54 Mb
Progressive Rock

"The second album by Manfred Mann's Earth Band to be released in 1972, Glorified Magnified is as solid a heavy rock album as you're likely to find from that era, and it still holds up three decades later, mostly because these guys are smarter than the music they're playing and don't mind indulging their taste as well as their dexterity. They can romp and stomp through "Meat" or "I'm Gonna Have You All," complete with a slashing guitar solo by Mick Rogers on the latter, or throw in a synthesizer interlude by Mann on "One Way Glass" that's so quietly and carefully executed as to be worthy of a classical piece -- and not skip a beat doing it. Between Rogers' bold yet tasteful leads, Mann's beautifully assertive yet virtuoso synthesizer and general keyboard work, and Colin Pattenden's muscular bass playing, this is a consistently inspired group, even when their material isn't as interesting as what they do with it, which is the case here. On "Look Around," for example, Rogers' playing on the break starts off as brief, fragmentary digressions off from a not too terribly diverting central riff that turn into longer progressions that eventually take the entire band with him -- and just when you think you've got this band pegged in terms of what it's about, along comes "Ashes to the Wind," opening side two of the original LP, which includes room for an acoustic guitar amid the high-wattage excursions, all leading into a surprisingly effective synthesizer workout by Mann on "Wind," before moving onto the acoustic guitar-driven "It's All Over Now, Baby Blue." The latter, which adds instrumentation until it's so totally removed from its opening section as to be a different song, is one of the best Dylan covers of its era, and is almost worth the price of admission by itself. And then there's the title instrumental, a mix of rock and synthesizer sounds -- with a choir in there somewhere -- that sounds like mid-'70s King Crimson in rehearsal.


by Bruce Eder, AMG
"


Tracklist:

01. Meat (Mann) 04:05
02. Look Around (Slade) 05:11
03. One Way Glass (Mann, Peter Thomas) 04:14
04. I'm Gonna Have You All (Mann) 05:22
05. Down Home (Rogers) 03:19
06. Our Friend George (Mann) 03:03
07. Ashes to the Wind (Charyl Edmonds, Jonah Thompson) 02:14
08. Wind (Mann, Rogers, Pattenden, Slade) 02:01
09. It's All Over Now, Baby Blue (Bob Dylan) 04:27
10. Glorified Magnified (Mann) 04:36

Musicians:

Manfred Mann - organ, synthesiser, vocals
Mick Rogers - guitar, vocals
Colin Pattenden - bass guitar
Chris Slade - drums


Exact Audio Copy V1.0 beta 3 from 29. August 2011

EAC extraction logfile from 13. March 2015, 9:58

Manfred Mann's Earth Band / Glorified Magnified (COMMECD11)

Used drive : SONY CD-RW CRX210E1 Adapter: 0 ID: 1

Read mode : Secure
Utilize accurate stream : Yes
Defeat audio cache : Yes
Make use of C2 pointers : No

Read offset correction

: 6
Overread into Lead-In and Lead-Out : No
Fill up missing offset samples with silence : Yes
Delete leading and trailing silent blocks : No
Null samples used in CRC calculations : Yes
Used interface
: Native Win32 interface for Win NT & 2000

Used output format : User Defined Encoder
Selected bitrate : 768 kBit/s
Quality : High
Add ID3 tag : No
Command line compressor : D:\ПРОГИ\Flac\flac.exe
Additional command line options : -V -8 %source%

TOC of the extracted CD Track | Start | Length | Start sector | End sector
--1 | 0:00.00 | 4:05.65 | 0 | 18439 2 | 4:05.65 | 5:11.60 | 18440 | 41824 3 | 9:17.50 | 4:14.65 | 41825 | 60939 4 | 13:32.40 | 5:22.65 | 60940 | 85154 5 | 18:55.30 | 3:19.07 | 85155 | 100086 6 | 22:14.37 | 3:03.70 | 100087 | 113881 7 | 25:18.32 | 2:14.73 | 113882 | 124004 8 | 27:33.30 | 2:01.45 | 124005 | 133124 9 | 29:35.00 | 4:27.70 | 133125 | 153219
10 | 34:02.70 | 4:36.37 | 153220 | 173956

Range status and errors

Selected range Filename D:\Ready.zp\Manfred Mann's Earth Band - Glorified Magnified (COMMECD11).wav Peak level 90.1 %
Extraction speed 14.0 X
Range quality 100.0 %
Test CRC C144F4F3
Copy CRC C144F4F3
Copy OK

No errors occurred


AccurateRip summary

Track 1 accurately ripped (confidence 8) [1B89FA79] (AR v2)
Track 2 accurately ripped (confidence 9) [280B5E3D] (AR v2)
Track 3 accurately ripped (confidence 9) [40A915FE] (AR v2)
Track 4 accurately ripped (confidence 9) [E8206E09] (AR v2)
Track 5 accurately ripped (confidence 9) [79DB0E67] (AR v2)
Track 6 accurately ripped (confidence 9) 99678F7 (AR v2)
Track 7 accurately ripped (confidence 9) [D2F48DC6] (AR v2)
Track 8 accurately ripped (confidence 9) [23CDDBEB] (AR v2)
Track 9 accurately ripped (confidence 9) [EE69AD55] (AR v2)
Track 10 accurately ripped (confidence 8) [CE02A0C5] (AR v2)

All tracks accurately ripped

End of status report

==== Log checksum 0C4C2DD74D4E603BF51C0C1D9740FAAE855A91638BB712B2F8E2F55AB7A50E70 ====

foobar2000 1.2.9 / Dynamic Range Meter 1.1.1
log date: 2015-07-08 13:01:17

Analyzed: Manfred Mann's Earth Band / Glorified Magnified (COMMECD11)

DR Peak RMS Duration Track

DR13 -0.90 dB -16.17 dB 4:06 01-Meat
DR11 -2.27 dB -16.09 dB 5:12 02-Look Around
DR12 -2.23 dB -21.15 dB 4:15 03-One Way Glass
DR12 -1.46 dB -17.91 dB 5:23 04-I'm Gonna Have You All
DR13 -1.10 dB -17.06 dB 3:19 05-Down Home
DR12 -1.78 dB -16.93 dB 3:04 06-Our Friend George
DR12 -2.10 dB -19.44 dB 2:15 07-Ashes to the Wind
DR12 -4.00 dB -21.08 dB 2:02 08-Wind
DR12 -1.46 dB -17.24 dB 4:28 09-It's All Over Now, Baby Blue
DR12 -2.23 dB -17.92 dB 4:36 10-Glorified Magnified

Number of tracks: 10
Official DR value: DR12

Samplerate: 44100 Hz
Channels: 2
Bits per sample: 16
Bitrate: 871 kbps
Codec: FLAC

[CUETools log; Date: 08.07.2015 13:01:04; Version: 2.1.4]
[CTDB TOCID: UJ9LbPNa3X46bZzW_0XSrXEvfOY-] found.
Track | CTDB Status
1 | (11/12) Accurately ripped
2 | (11/12) Accurately ripped
3 | (11/12) Accurately ripped
4 | (11/12) Accurately ripped
5 | (11/12) Accurately ripped
6 | (11/12) Accurately ripped
7 | (11/12) Accurately ripped
8 | (11/12) Accurately ripped
9 | (11/12) Accurately ripped
10 | (11/12) Accurately ripped
[AccurateRip ID: 000f545c-00780487-81090f0a] found.
Track [ CRC | V2 ] Status
01 [8acf94bf|1b89fa79] (17+08/28) Accurately ripped
02 [c47b2250|280b5e3d] (17+09/29) Accurately ripped
03 [383f8f4a|40a915fe] (17+09/29) Accurately ripped
04 [d2245ad7|e8206e09] (18+09/30) Accurately ripped
05 [109ac97c|79db0e67] (17+09/29) Accurately ripped
06 [d9afb18c|b99678f7] (18+09/30) Accurately ripped
07 [889f5a4a|d2f48dc6] (17+09/29) Accurately ripped
08 [43f3ab95|23cddbeb] (17+09/29) Accurately ripped
09 [8effb1d8|ee69ad55] (16+09/28) Accurately ripped
10 [726ec15e|ce02a0c5] (17+08/28) Accurately ripped
Offsetted by -2223:
01 [7a4f5f49] (03/28) Accurately ripped
02 [4858e52e] (03/29) Accurately ripped
03 [e1035ad7] (03/29) Accurately ripped
04 [8dda2c46] (03/30) Accurately ripped
05 [907fac8e] (03/29) Accurately ripped
06 [29d3a9d4] (03/30) Accurately ripped
07 [87cd8039] (03/29) Accurately ripped
08 [5ffbe7fb] (03/29) Accurately ripped
09 [dd54bd0c] (03/28) Accurately ripped
10 [8c98abf4] (03/28) Accurately ripped

Track Peak [ CRC32 ] [W/O NULL] [ LOG ]
-- 90,1 [C144F4F3] [D3AA8F2E] CRC32
01 90,1 [FB5CB7B7] [0DE168E1]
02 76,9 [F656D744] [CF0C1451]
03 77,3 [0439AE01] [5A6E37E1]
04 84,5 [D1554C21] [88F2CFEE]
05 88,0 [69D60E8D] [C0493DC1]
06 81,4 [FA100291] [1C3E3337]
07 78,5 [79844568] [3EFE39C7]
08 63,1 [9DEEF65F] [3C95F29F]
09 84,5 [D9A0839C] [63EB4283]
10 77,3 [530E61B5] [E388D48B]

* * * * *

Manfred Mann's Earth Band Box Set (1992) New Rip

CD03: Manfred Mann's Earth Band - Messin (1973)
EAC | Flac(Image) + Cue + Log & MP3 CBR 320Kbps
COMMECD7 | ~ 234 or 104 Mb | Scans(png) -> 111 Mb
Progressive Rock

"Opening with Mike Hugg's title track, which builds on Mick Rogers' intense riffing and the killer vocals of Vicki Brown, Judith Powell, Liza Strike, and Ruby James, Messin' is pretty intense and involving from its very first bars. It's also damned topical and serious, for all of the free-wheeling rock & roll spirits and the progressive rock complexities that go into the playing. And the result is a spellbinding whole, featuring some astonishing keyboard flourishes by Manfred Mann himself (who ventures into Rick Wakeman and Keith Emerson territory on "Buddah," even as the rest of the band seems to be emulating Deep Purple) and killer guitar from Mick Rogers, while Colin Pattenden and Chris Slade lay down the rhythm section like a pair of articulate pile-drivers. They pretty much stomp their way through their rendition of Bob Dylan's "Get Your Rocks Off" and do a gorgeous high-wattage blues rendition of "Black and Blue." The whole record comes out somewhere in the middle of art rock and heavy metal, along with (amazingly enough) topical folk, and does no violence to any of the genres -- and the band even works in a loose-limbed version of Dr. John's "Mardi Gras Day" as a finale. In a way, it's surprising from hearing this record that it took this band another two years, and an embrace of one of Bruce Springsteen's songs, for Manfred Mann's Earth Band to become truly well known, because all of the ingredients were in place, and their genre-bending sound was only the best, most accessible kind. The album was also issued with a different cover as Get Your Rocks Off, but Messin' has become the reissue title.


by Bruce Eder, AMG
"


Tracklist:

01. Messin' (Mike Hugg) 09:57
02. Buddah (Manfred Mann, Mick Rogers) 07:05
03. Cloudy Eyes (Mann) 05:36
04. Get Your Rocks Off 02:55
05. Sadjoy (Mann) 05:26
06. Black And Blue (Chain: Barry Sullivan, Matt Taylor, Phil Manning, Barry Harvey) 07:24
07. Mardy Gras Day (Dr John Creaux) 03:03

Musicians:

Manfred Mann - synthesiser, organ
Mick Rogers - guitar, vocals
Colin Pattenden - bass guitar
Chris Slade - drums

Laurie Baker - Machines and Zoo on "Messin'"
Liza Strike, Vicki Brown, Judith Powell, Ruby James - backing vocals


Exact Audio Copy V1.0 beta 3 from 29. August 2011

EAC extraction logfile from 13. March 2015, 10:09

Manfred Mann's Earth Band / Messin' (COMMECD7)

Used drive : SONY CD-RW CRX210E1 Adapter: 0 ID: 1

Read mode : Secure
Utilize accurate stream : Yes
Defeat audio cache : Yes
Make use of C2 pointers : No

Read offset correction

: 6
Overread into Lead-In and Lead-Out : No
Fill up missing offset samples with silence : Yes
Delete leading and trailing silent blocks : No
Null samples used in CRC calculations : Yes
Used interface
: Native Win32 interface for Win NT & 2000

Used output format : User Defined Encoder
Selected bitrate : 768 kBit/s
Quality : High
Add ID3 tag : No
Command line compressor : D:\ПРОГИ\Flac\flac.exe
Additional command line options : -V -8 %source%

TOC of the extracted CD Track | Start | Length | Start sector | End sector
--1 | 0:00.00 | 9:57.62 | 0 | 44836 2 | 9:57.62 | 7:05.20 | 44837 | 76731 3 | 17:03.07 | 5:36.73 | 76732 | 102004 4 | 22:40.05 | 2:55.05 | 102005 | 115134 5 | 25:35.10 | 5:26.37 | 115135 | 139621 6 | 31:01.47 | 7:24.20 | 139622 | 172941 7 | 38:25.67 | 3:03.43 | 172942 | 186709

Range status and errors

Selected range Filename D:\Ready.zp\Manfred Mann's Earth Band - Messin' (COMMECD7).wav Peak level 97.7 %
Extraction speed 14.3 X
Range quality 100.0 %
Test CRC 8E4BFCB2
Copy CRC 8E4BFCB2
Copy OK

No errors occurred


AccurateRip summary

Track 1 accurately ripped (confidence 3) [F92A9398] (AR v2)
Track 2 accurately ripped (confidence 3) [1E743124] (AR v2)
Track 3 accurately ripped (confidence 3) [35DF1BEC] (AR v2)
Track 4 accurately ripped (confidence 3) [E57165B3] (AR v2)
Track 5 accurately ripped (confidence 3) [09399B8A] (AR v2)
Track 6 accurately ripped (confidence 3) [78456FC5] (AR v2)
Track 7 accurately ripped (confidence 2) [E9615764] (AR v2)

All tracks accurately ripped

End of status report

==== Log checksum 556E58DDE4552D4E5111897DBC43AAD6125E0AEAF2989E1BF25AC2BD6A5C3433 ====

foobar2000 1.2.9 / Dynamic Range Meter 1.1.1
log date: 2015-07-08 13:01:41

Analyzed: Manfred Mann's Earth Band / Messin' (COMMECD7)

DR Peak RMS Duration Track

DR12 -0.20 dB -14.99 dB 9:58 01-Messin'
DR13 -0.20 dB -18.53 dB 7:05 02-Buddah
DR12 -2.15 dB -17.24 dB 5:37 03-Cloudy Eyes
DR10 -1.12 dB -13.17 dB 2:55 04-Get Your Rocks Off
DR10 -0.20 dB -15.11 dB 5:26 05-Sadjoy
DR12 -0.42 dB -16.91 dB 7:24 06-Black And Blue
DR12 -0.20 dB -14.93 dB 3:04 07-Mardy Gras Day

Number of tracks: 7
Official DR value: DR12

Samplerate: 44100 Hz
Channels: 2
Bits per sample: 16
Bitrate: 765 kbps
Codec: FLAC

[CUETools log; Date: 08.07.2015 13:01:43; Version: 2.1.4]
[CTDB TOCID: LeDPBZbu_ui0Ni0QU1.fEQtZlrI-] found.
Track | CTDB Status
1 | (14/14) Accurately ripped
2 | (14/14) Accurately ripped
3 | (14/14) Accurately ripped
4 | (14/14) Accurately ripped
5 | (13/14) Accurately ripped
6 | (13/14) Accurately ripped
7 | (13/14) Accurately ripped
[AccurateRip ID: 000cc95f-0049f004-5b09b907] found.
Track [ CRC | V2 ] Status
01 [d67f4a82|f92a9398] (05+03/25) Accurately ripped
02 [2ba92c7c|1e743124] (05+03/25) Accurately ripped
03 [74a0d743|35df1bec] (06+03/26) Accurately ripped
04 6b1ef1e|e57165b3 (05+03/25) Accurately ripped
05 [4872f576|09399b8a] (05+03/25) Accurately ripped
06 [4147605b|78456fc5] (04+03/22) Accurately ripped
07 b7ffb57|e9615764 (05+02/20) Accurately ripped
Offsetted by 1611:
01 [5dc5fc93] (12/25) Accurately ripped
02 7ae5bb4 (12/25) Accurately ripped
03 [a870437f] (12/26) Accurately ripped
04 [203a9fb7] (12/25) Accurately ripped
05 fdd3217 (12/25) Accurately ripped
06 [d244bd46] (10/22) Accurately ripped
07 [db6ad17e] (09/20) Accurately ripped

Track Peak [ CRC32 ] [W/O NULL] [ LOG ]
-- 97,7 [8E4BFCB2] [FCE86644] CRC32
01 97,7 [5E795904] [2DD5F7FC]
02 97,7 [F03CE6E0] [10880F04]
03 78,0 [23EF122C] [4ECF47B4]
04 87,9 [0E1DA184] [6E6BE5CE]
05 97,7 [22ABBA50] [DD788F3A]
06 95,2 [6FF523FE] [FD731BBB]
07 97,7 [3EB8CC17] D0E235B

* * * * *

Manfred Mann's Earth Band Box Set (1992) New Rip

CD04: Manfred Mann's Earth Band - Solar Fire (1974)
EAC | Flac(Image) + Cue + Log & MP3 CBR 320Kbps
COMMECD1 | ~ 232 or 87 Mb | Scans(png) -> 105 Mb
Progressive Rock

"Fans of muscular progressive rock will love Solar Fire, a concept album loosely designed around cosmology. The album opens with the majestic "Father of Night, Father of Day," which has the drive and complexity of a prime King Crimson track. As unlikely as it may seem, the track was controversial in Mann's native South Africa because of the "Father of black, father of white" line, implying that apartheid might not extend to infinite space. The album moves on to the progressive rock/jazz fusion of "In the Beginning, Darkness," a swinging, even funky track that benefits from soulful vocals by Doreen Chanter and Irene Chanter of the Grove Singers. The same duo contributes to the title track, a slow piece that begins with a fairly standard rock structure and incorporates a massive progressive jam in the middle. The instrumental suite which follows is a showcase for the combination of angular, sometimes slightly dissonant guitar with fluid keyboard work, and the band rocks straight through with stately grace. Once again, one is reminded of early King Crimson, which was about the only other group to turn out complex, shifting instrumentals of this quality. The album closes with the strange "Earth, the Circle, Pt. 1," which begins almost like a nursery rhyme, switches to a jazz shuffle, and fades out as an odd combination of the two. The album was groundbreaking when it was released and is still a delightful listen. If you like the hard-edged side of Manfred Mann, this may be your favorite album.


by Richard Foss, AMG
"


Tracklist:

01. Father Of Day, Father Of Night (Bob Dylan) 09:56
02. In The Beginning, Darkness (Manfred Mann, Mick Rogers, Chris Slade) 05:22
03. Pluto The Dog (Mann, Rogers, Slade, Colin Pattenden) 02:50
04. Solar Fire (Mann, Rogers, Slade, Pattenden) 05:17
05. Saturn, Lord Of The Ring / Mercury, The Winged Messenger (Mann/Mann, Rogers) 06:32
06. Earth, The Circle Part 2 (Mann) 03:23
07. Earth, The Circle Part 1 (Mann) 03:48

Musicians:

Manfred Mann - organ, mellotron, synthesiser, vocals
Mick Rogers - guitar, vocals
Chris Slade - drums
Colin Pattenden - bass guitar

Irene Chanter, Doreen Chanter, Grove Singers - backing vocals


Exact Audio Copy V1.0 beta 3 from 29. August 2011

EAC extraction logfile from 13. March 2015, 10:19

Manfred Mann's Earth Band / Solar Fire (COMMECD1)

Used drive : SONY CD-RW CRX210E1 Adapter: 0 ID: 1

Read mode : Secure
Utilize accurate stream : Yes
Defeat audio cache : Yes
Make use of C2 pointers : No

Read offset correction

: 6
Overread into Lead-In and Lead-Out : No
Fill up missing offset samples with silence : Yes
Delete leading and trailing silent blocks : No
Null samples used in CRC calculations : Yes
Used interface
: Native Win32 interface for Win NT & 2000

Used output format : User Defined Encoder
Selected bitrate : 768 kBit/s
Quality : High
Add ID3 tag : No
Command line compressor : D:\ПРОГИ\Flac\flac.exe
Additional command line options : -V -8 %source%

TOC of the extracted CD Track | Start | Length | Start sector | End sector
--1 | 0:00.12 | 9:56.73 | 12 | 44784 2 | 9:57.10 | 5:22.65 | 44785 | 68999 3 | 15:20.00 | 2:50.57 | 69000 | 81806 4 | 18:10.57 | 5:17.08 | 81807 | 105589 5 | 23:27.65 | 6:32.30 | 105590 | 135019 6 | 30:00.20 | 3:23.50 | 135020 | 150294 7 | 33:23.70 | 3:48.55 | 150295 | 167449

Range status and errors

Selected range Filename D:\Ready.zp\Manfred Mann's Earth Band - Solar Fire (COMMECD1).wav Peak level 97.7 %
Extraction speed 13.9 X
Range quality 99.9 %
Test CRC 4039E9F6
Copy CRC 4039E9F6
Copy OK

No errors occurred


AccurateRip summary

Track 1 accurately ripped (confidence 17) [7CF07191] (AR v2)
Track 2 accurately ripped (confidence 17) [1B25143E] (AR v2)
Track 3 accurately ripped (confidence 17) [17FCC035] (AR v2)
Track 4 accurately ripped (confidence 17) [51EC685A] (AR v2)
Track 5 accurately ripped (confidence 17) 49E245C (AR v2)
Track 6 accurately ripped (confidence 17) [98E0BA01] (AR v2)
Track 7 accurately ripped (confidence 17) [9E2F73BB] (AR v2)

All tracks accurately ripped

End of status report

==== Log checksum 991D839D8A19056EB5D3F6F719D7E60CDDE93D6BAEABB948F2638580716809D7 ====

foobar2000 1.2.9 / Dynamic Range Meter 1.1.1
log date: 2015-07-08 13:01:57

Analyzed: Manfred Mann's Earth Band / Solar Fire (COMMECD1)

DR Peak RMS Duration Track

DR11 -0.20 dB -14.42 dB 9:57 01-Father Of Day, Father Of Night
DR11 -0.20 dB -13.94 dB 5:23 02-In The Beginning, Darkness
DR11 -1.04 dB -14.97 dB 2:51 03-Pluto The Dog
DR11 -0.93 dB -15.13 dB 5:17 04-Solar Fire
DR10 -0.30 dB -13.85 dB 6:32 05-Saturn, Lord Of The Ring / Mercury, The Winged Messenger
DR11 -0.57 dB -14.45 dB 3:24 06-Earth, The Circle Part 2
DR11 -0.56 dB -16.29 dB 3:49 07-Earth, The Circle Part 1

Number of tracks: 7
Official DR value: DR11

Samplerate: 44100 Hz
Channels: 2
Bits per sample: 16
Bitrate: 848 kbps
Codec: FLAC

[CUETools log; Date: 08.07.2015 13:02:00; Version: 2.1.4]
Pregap length 00:00:12.
[CTDB TOCID: Syibk2pfs3ArW0NlWDPBZwNai8Q-] found.
Track | CTDB Status
1 | (21/21) Accurately ripped
2 | (21/21) Accurately ripped
3 | (21/21) Accurately ripped
4 | (21/21) Accurately ripped
5 | (20/21) Accurately ripped
6 | (21/21) Accurately ripped
7 | (21/21) Accurately ripped
[AccurateRip ID: 000b8127-00426e09-5208b807] found.
Track [ CRC | V2 ] Status
01 [d68dece5|7cf07191] (19+18/39) Accurately ripped
02 [fe593844|1b25143e] (19+18/39) Accurately ripped
03 [3ab07da7|17fcc035] (19+18/39) Accurately ripped
04 171395a|51ec685a (19+18/39) Accurately ripped
05 [eb5a926e|b49e245c] (19+18/39) Accurately ripped
06 [296c5cb0|98e0ba01] (19+18/39) Accurately ripped
07 [018ef10e|9e2f73bb] (19+18/39) Accurately ripped
Offsetted by -1864:
01 [55901bd5] (00/39) No match (V2 was not tested)
02 [7819cbec] (00/39) No match (V2 was not tested)
03 [9219a35f] (00/39) No match (V2 was not tested)
04 [03d5497a] (00/39) No match (V2 was not tested)
05 [2d4977b6] (00/39) No match (V2 was not tested)
06 [8ff0dd60] (00/39) No match (V2 was not tested)
07 [d37cb56e] (00/39) No match (V2 was not tested)

Track Peak [ CRC32 ] [W/O NULL] [ LOG ]
-- 97,7 [4039E9F6] [94A7FD3D] CRC32
01 97,7 [C7803DD6] 608E328
02 97,7 [C426DF81] [E275EBFC]
03 88,7 [CA169F70] [14504A01]
04 89,8 [CAB92EA8] [DB6A4AFA]
05 96,6 [64DEC240] [78FF3053]
06 93,6 [6B5F9E76] [F572AF61]
07 93,7 [D15F7187] [D2C922CF]

* * * * *

Manfred Mann's Earth Band Box Set (1992) New Rip

CD05: Manfred Mann's Earth Band - The Good Earth (1974)
EAC | Flac(Image) + Cue + Log & MP3 CBR 320Kbps
COMMECD12 | ~ 220 or 91 Mb | Scans(png) -> 90 Mb
Progressive Rock

"Another piece of topical hard rock from Manfred Mann's Earth Band and, as before, listenable even to those without a serious bone in their bodies, by virtue of the playing. Moving between hard rock and British blues influences (with a special debt to Cream on the opening cut, "Give Me the Good Earth") and progressive rock, the quartet cuts a mean swathe across the sonic landscape, between Mick Rogers' soaring guitar solos and Manfred Mann's inimitable synthesizer work. Some of the less ambitious cuts, such as "I'll Be Gone," are relatively dispensable, but when these guys start reaching, as on "Earth Hymn," that's when their best musical instincts take hold, and the results are always worth hearing. There's stuff here that King Crimson or Be Bop Deluxe wouldn't have been ashamed to have had on any of their albums; indeed, the instrumental "Sky High" is worth the price of admission by itself as a showcase for the talents of all four players as both hard rock musicians and an art rock ensemble. They even manage to work in elements of folk-rock, and its attendant lyricism, on the album, by way of the Christopher Logue-based "Be Not Too Hard" (which was also recorded, in a different adaptation, by Joan Baez about seven years earlier). And "Earth Hymn, Pt. 2" closes out the album in grand style, once again pushing the band to the edge of their unique brand of progressive/hard rock.


by Bruce Eder, AMG
"


Tracklist:

01. Give Me The Good Earth (Gary Wright) 08:32
02. Launching Place (Mike Rudd) 05:51
03. I'll Be Gone (Mike Rudd) 03:40
04. Eart Hymn (Mann, Slade) 06:21
05. Sky High (Mann, Rogers) 05:17
06. Be Not Too Hard (Rogers, Christopher Logue) 04:14
07. Eart Hymn Part 2 (Mann, Slade) 04:15

Musicians:

Manfred Mann - keyboards
Mick Rogers - guitars, vocals
Chris Slade - drums
Colin Pattenden - bass guitar


Exact Audio Copy V1.0 beta 3 from 29. August 2011

EAC extraction logfile from 13. March 2015, 10:41

Manfred Mann's Earth Band / The Good Earth (COMMECD12)

Used drive : SONY CD-RW CRX210E1 Adapter: 0 ID: 1

Read mode : Secure
Utilize accurate stream : Yes
Defeat audio cache : Yes
Make use of C2 pointers : No

Read offset correction

: 6
Overread into Lead-In and Lead-Out : No
Fill up missing offset samples with silence : Yes
Delete leading and trailing silent blocks : No
Null samples used in CRC calculations : Yes
Used interface
: Native Win32 interface for Win NT & 2000

Used output format : User Defined Encoder
Selected bitrate : 768 kBit/s
Quality : High
Add ID3 tag : No
Command line compressor : D:\ПРОГИ\Flac\flac.exe
Additional command line options : -V -8 %source%

TOC of the extracted CD Track | Start | Length | Start sector | End sector
--1 | 0:00.00 | 8:32.43 | 0 | 38442 2 | 8:32.43 | 5:51.35 | 38443 | 64802 3 | 14:24.03 | 3:40.17 | 64803 | 81319 4 | 18:04.20 | 6:21.20 | 81320 | 109914 5 | 24:25.40 | 5:17.55 | 109915 | 133744 6 | 29:43.20 | 4:14.33 | 133745 | 152827 7 | 33:57.53 | 4:15.52 | 152828 | 172004

Range status and errors

Selected range Filename D:\Ready.zp\Manfred Mann's Earth Band - The Good Earth (COMMECD12).wav Peak level 100.0 %
Extraction speed 14.3 X
Range quality 100.0 %
Test CRC 3475B6BA
Copy CRC 3475B6BA
Copy OK

No errors occurred


AccurateRip summary

Track 1 accurately ripped (confidence 10) [4B3D772F] (AR v2)
Track 2 accurately ripped (confidence 10) [307B59CC] (AR v2)
Track 3 accurately ripped (confidence 10) [AA428E1F] (AR v2)
Track 4 accurately ripped (confidence 10) [A0E5C024] (AR v2)
Track 5 accurately ripped (confidence 10) [0D3539E3] (AR v2)
Track 6 accurately ripped (confidence 10) [2E1BFD0C] (AR v2)
Track 7 accurately ripped (confidence 10) [F633B862] (AR v2)

All tracks accurately ripped

End of status report

==== Log checksum F98D4C9B50CE576AA35B45B7D19212E38EA530DAF2996C53B2CC4CA636F77860 ====

foobar2000 1.2.9 / Dynamic Range Meter 1.1.1
log date: 2015-07-08 13:02:24

Analyzed: Manfred Mann's Earth Band / The Good Earth (COMMECD12)

DR Peak RMS Duration Track

DR11 -0.01 dB -14.97 dB 8:33 01-Give Me The Good Earth
DR11 -1.02 dB -15.29 dB 5:51 02-Launching Place
DR11 0.00 dB -14.23 dB 3:40 03-I'll Be Gone
DR10 -0.97 dB -13.41 dB 6:21 04-Eart Hymn
DR9 -0.88 dB -13.12 dB 5:18 05-Sky High
DR10 -1.03 dB -13.68 dB 4:14 06-Be Not Too Hard
DR9 -1.19 dB -13.51 dB 4:16 07-Eart Hymn part 2

Number of tracks: 7
Official DR value: DR10

Samplerate: 44100 Hz
Channels: 2
Bits per sample: 16
Bitrate: 787 kbps
Codec: FLAC

[CUETools log; Date: 08.07.2015 13:02:27; Version: 2.1.4]
[CTDB TOCID: Yp.M21NHtROAfNQ9aClNIMOixeU-] found.
Track | CTDB Status
1 | (13/13) Accurately ripped
2 | (13/13) Accurately ripped
3 | (13/13) Accurately ripped
4 | (13/13) Accurately ripped
5 | (13/13) Accurately ripped
6 | (13/13) Accurately ripped
7 | (13/13) Accurately ripped
[AccurateRip ID: 000b7da3-00430dd9-6408f507] found.
Track [ CRC | V2 ] Status
01 [c9654223|4b3d772f] (13+10/23) Accurately ripped
02 [a6f6c474|307b59cc] (14+10/24) Accurately ripped
03 [9a0f6a00|aa428e1f] (13+10/23) Accurately ripped
04 [e9865a23|a0e5c024] (15+10/25) Accurately ripped
05 [1efb1b8a|0d3539e3] (13+10/23) Accurately ripped
06 [3795eef8|2e1bfd0c] (13+10/23) Accurately ripped
07 [defa62e5|f633b862] (13+10/23) Accurately ripped

Track Peak [ CRC32 ] [W/O NULL] [ LOG ]
-- 100,0 [3475B6BA] [28F5ECB2] CRC32
01 99,8 [3A2823F3] [220C71B0]
02 88,9 [3D7474BE] [17932487]
03 100,0 [43DC5F53] BBFBAFF
04 89,4 [2165999A] [9D71B320]
05 90,3 [E2A3F631] [6FAE232E]
06 88,7 [F8D53F85] [3F8A1DD1]
07 87,2 [C94EBD86] [0B0442F6]

* * * * *

Manfred Mann's Earth Band Box Set (1992) New Rip

CD06: Manfred Mann's Earth Band - Nightingales & Bombers (1975)
EAC | Flac(Image) + Cue + Log & MP3 CBR 320Kbps
COMMECD8 | ~ 220 or 90 Mb | Scans(png) -> 91 Mb
Progressive Rock

"The album that was Manfred Mann's commercial breakthrough was a departure from the previous albums made with the Earth Band. Though the personnel are the same and the musicianship is as mind-blowing as ever, the songs are shorter and punchier, in some cases more poppy. This is not to say that the band had sacrificed a bit of ingenuity or complexity, but the long jams are gone in favor of briefer sound portraits. Nightingales and Bombers included Manfred Mann's first cover of a Bruce Springsteen song, the album-opening "Spirits in the Night," a single that charted, and became one of the only pieces written in 10/4 time ever to do so. It would prove to be an important move in their recording career, as 1976's Roaring Silence earned them a big hit with Springsteen's "Blinded by the Light." Another foreshadowing of that tune can be detected in the track "Fat Nelly," which includes a synthesizer part almost identical to the intro of the aforementioned hit. Also featured in Nightingales and Bombers are such synth-driven rockers as "Crossfade," "Countdown," and the title track, in which Manfred Mann appear to be trying to capture the prog rock crown. Nightingales and Bombers featured in almost every "Best of the Year" list for 1975. Justifiably so -- though attention at the time was naturally on the hits, the rest of the album features a mix of good originals and eccentric covers, inspired playing, and tight, focused arrangements. The album stands up to repeated listening decades after it was created, and though fans of the more expansive progressive phase may prefer earlier works, they will generally allow the excellence of this one. (The name of the album was once regarded as a possible drug reference, but it is actually taken from a nature recording made during World War II. An ornithologist who was trying to record birdcalls captured not only the sound of birds, but also of incoming enemy aircraft. That recording is used in the track "As Above, So Below," and gives it an eerie character.)


by Richard Foss, AMG
"


Tracklist:

01. Spirits In The Night (Bruce Springsteen) 06:27
02. Countdown (Mann) 03:06
03. Time Is Right (Mann, Slade, Rogers) 06:34
04. Crossfade (Mann, Slade, Rogers, Pattenden) 03:40
05. Visionary Mountains (Pam Nestor, Joan Armatrading) 05:42
06. Nightingales And Bombers (Rogers) 04:56
07. Fat Nelly (Mann, Thomas) 03:21
08. As Above So Below (Recorded Live) (Mann, Slade, Rogers, Pattenden) 04:13

Musicians:

Manfred Mann - organ, synthesisers
Mick Rogers - guitars, vocals
Chris Slade - drums, percussion
Colin Pattenden - bass

Ruby James, Doreen Chanter, Martha Smith - backing vocals
David Millman, Chris Warren-Green - violin
Nigel Warren-Green, Graham Elliott, David Boswell-Brown - cello


Exact Audio Copy V1.0 beta 3 from 29. August 2011

EAC extraction logfile from 13. March 2015, 10:52

Manfred Mann's Earth Band / Nightingales & Bombers (COMMECD8)

Used drive : SONY CD-RW CRX210E1 Adapter: 0 ID: 1

Read mode : Secure
Utilize accurate stream : Yes
Defeat audio cache : Yes
Make use of C2 pointers : No

Read offset correction

: 6
Overread into Lead-In and Lead-Out : No
Fill up missing offset samples with silence : Yes
Delete leading and trailing silent blocks : No
Null samples used in CRC calculations : Yes
Used interface
: Native Win32 interface for Win NT & 2000

Used output format : User Defined Encoder
Selected bitrate : 768 kBit/s
Quality : High
Add ID3 tag : No
Command line compressor : D:\ПРОГИ\Flac\flac.exe
Additional command line options : -V -8 %source%

TOC of the extracted CD Track | Start | Length | Start sector | End sector
--1 | 0:00.00 | 6:27.35 | 0 | 29059 2 | 6:27.35 | 3:06.45 | 29060 | 43054 3 | 9:34.05 | 6:34.35 | 43055 | 72639 4 | 16:08.40 | 3:40.48 | 72640 | 89187 5 | 19:49.13 | 5:42.20 | 89188 | 114857 6 | 25:31.33 | 4:56.30 | 114858 | 137087 7 | 30:27.63 | 3:21.67 | 137088 | 152229 8 | 33:49.55 | 4:13.45 | 152230 | 171249

Range status and errors

Selected range Filename D:\Ready.zp\Manfred Mann's Earth Band - Nightingales & Bombers (COMMECD8).wav Peak level 97.7 %
Extraction speed 14.2 X
Range quality 100.0 %
Test CRC 52EAE5D5
Copy CRC 52EAE5D5
Copy OK

No errors occurred


AccurateRip summary

Track 1 accurately ripped (confidence 4) [074D214E] (AR v2)
Track 2 accurately ripped (confidence 4) [F1B86BFB] (AR v2)
Track 3 accurately ripped (confidence 4) [5594AB1C] (AR v2)
Track 4 accurately ripped (confidence 4) D7B1D00 (AR v2)
Track 5 accurately ripped (confidence 4) [04D398BC] (AR v2)
Track 6 accurately ripped (confidence 4) [F5341826] (AR v2)
Track 7 accurately ripped (confidence 4) [483C1065] (AR v2)
Track 8 accurately ripped (confidence 3) [1E3DD09B] (AR v2)

All tracks accurately ripped

End of status report

==== Log checksum EBFE39A880BE57270525916CD07287C59A733AD9F2856182D3366F51B5A5CAF2 ====

foobar2000 1.2.9 / Dynamic Range Meter 1.1.1
log date: 2015-07-08 13:02:40

Analyzed: Manfred Mann's Earth Band / Nightingales & Bombers (COMMECD8)

DR Peak RMS Duration Track

DR12 -1.33 dB -17.05 dB 6:27 01-Spirits In The Night
DR10 -0.91 dB -13.08 dB 3:07 02-Countdown
DR12 -0.20 dB -14.83 dB 6:34 03-Time Is Right
DR11 -1.70 dB -14.32 dB 3:41 04-Crossfade
DR11 -1.38 dB -15.06 dB 5:42 05-Visionary Mountains
DR12 -0.64 dB -15.63 dB 4:56 06-Nightingales And Bombers
DR12 -0.90 dB -16.04 dB 3:22 07-Fat Nelly
DR13 -0.97 dB -18.04 dB 4:14 08-As Above So Below (Recorded Live)

Number of tracks: 8
Official DR value: DR12

Samplerate: 44100 Hz
Channels: 2
Bits per sample: 16
Bitrate: 785 kbps
Codec: FLAC

[CUETools log; Date: 08.07.2015 13:02:43; Version: 2.1.4]
[CTDB TOCID: 8qkTHJuaRz7S5jLGTVwCNOb8Vi4-] found.
Track | CTDB Status
1 | (21/23) Accurately ripped
2 | (21/23) Accurately ripped
3 | (21/23) Accurately ripped
4 | (21/23) Accurately ripped
5 | (21/23) Accurately ripped
6 | (21/23) Accurately ripped
7 | (21/23) Accurately ripped
8 | (21/23) Accurately ripped
[AccurateRip ID: 000c5999-00515ab8-6a08eb08] found.
Track [ CRC | V2 ] Status
01 [aa9556ba|074d214e] (02+04/27) Accurately ripped
02 [f03f084c|f1b86bfb] (02+04/27) Accurately ripped
03 [d5095757|5594ab1c] (02+04/27) Accurately ripped
04 [609eeefc|bd7b1d00] (02+04/25) Accurately ripped
05 [6fa5f4d2|04d398bc] (02+04/26) Accurately ripped
06 [5b6fefc2|f5341826] (02+04/25) Accurately ripped
07 [674ecac0|483c1065] (02+04/23) Accurately ripped
08 [3e092a62|1e3dd09b] (02+03/23) Accurately ripped
Offsetted by -1196:
01 [800d3e86] (10/27) Accurately ripped
02 [feca953d] (09/27) Accurately ripped
03 [dcc473ae] (09/27) Accurately ripped
04 [4d649925] (08/25) Accurately ripped
05 [2e5adae8] (10/26) Accurately ripped
06 [342f262b] (09/25) Accurately ripped
07 [6a7567dc] (09/23) Accurately ripped
08 [413293c6] (09/23) Accurately ripped

Track Peak [ CRC32 ] [W/O NULL] [ LOG ]
-- 97,7 [52EAE5D5] [8125F9B2] CRC32
01 85,8 [031D9FC5] [F0519A24]
02 90,0 [37AF08B4] [33B578A0]
03 97,7 [42DB4AB4] [94881B97]
04 82,1 [2089450C] [23C18EB6]
05 85,3 [EE97D780] [43C50E82]
06 92,9 [4F3CA3F5] [52E7EE7D]
07 90,1 [706B3D17] [D352FDD1]
08 89,4 [09A78F73] [37CC6540]

* * * * *

Manfred Mann's Earth Band Box Set (1992) New Rip

CD07: Manfred Mann's Earth Band - The Roaring Silence (1976)
EAC | Flac(Image) + Cue + Log & MP3 CBR 320Kbps
COMMECD2 | ~ 258 or 93 Mb | Scans(png) -> 95 Mb
Progressive Rock

"The reason that The Roaring Silence became Manfred Mann's Earth Band's best-selling album may have been because of both Bruce Springsteen-penned singles, but its instrumental makeup, by way of Mann's keyboard manipulation coupled with Chris Thompson's chiseled singing, had just as much of an affect. "Blinded By the Light" and "Spirit in the Night" gave the band hits at both ends of the Top 40 spectrum, with "Blinded" going to number one while the mysteriously-sounding "Spirit in the Night" edged in at number 40 six months later. Outside of the singles, The Roaring Silence is made up of clean-cut, well-established synthesizer and guitar work, with touches of techno psychedelia that are sometimes lengthy but never messy. Tracks such as "Questions," "This Side of Paradise," and even "Starbird" uncover the band's creativity and instrumental wit. Mann is careful not to stray too far with his keys, and his compliance with Thompson's vocals are noticeable in almost every track. Aside from the music, The Roaring Silence basks in veiled poetry, cryptic but at the same time intriguing, verging on the complexities of progressive rock but far from its pretentiousness. Eventually achieving gold status, The Roaring Silence both commercially and artistically became the group's finest effort.


by Mike DeGagne, AMG
"


Tracklist:

01. Blinded By The Light (Bruce Springsteen) 07:07
02. Singing The Dolphin Through (Mike Heron) 08:15
03. Questions (Manfred Mann) 03:58
04. The Road To Babylon (Mann, Thomas, Colin Pattenden) 06:52
05. This Side Of Paradise (Mann, Thomas, Pattenden) 04:44
06. Starbird (Mann, Slade) 03:07
07. Waiter, There's A Yawn In My Ear (Mann, Slade) 05:37

Musicians:

Manfred Mann - keyboards, backing vocals
Colin Pattenden - bass
Dave Flett - lead guitar
Chris Hamlet Thompson - vocals, guitar
Chris Slade - drums, percussion, backing vocals

Doreen Chanter, Irene Chanter, Susanne Lynch, Mick Rogers - backing vocals
Barbara Thompson - saxophone


Exact Audio Copy V1.0 beta 3 from 29. August 2011

EAC extraction logfile from 13. March 2015, 11:02

Manfred Mann's Earth Band / The Roaring Silence (COMMECD2)

Used drive : SONY CD-RW CRX210E1 Adapter: 0 ID: 1

Read mode : Secure
Utilize accurate stream : Yes
Defeat audio cache : Yes
Make use of C2 pointers : No

Read offset correction

: 6
Overread into Lead-In and Lead-Out : No
Fill up missing offset samples with silence : Yes
Delete leading and trailing silent blocks : No
Null samples used in CRC calculations : Yes
Used interface
: Native Win32 interface for Win NT & 2000

Used output format : User Defined Encoder
Selected bitrate : 768 kBit/s
Quality : High
Add ID3 tag : No
Command line compressor : D:\ПРОГИ\Flac\flac.exe
Additional command line options : -V -8 %source%

TOC of the extracted CD Track | Start | Length | Start sector | End sector
--1 | 0:00.62 | 7:07.35 | 62 | 32121 2 | 7:08.22 | 8:15.33 | 32122 | 69279 3 | 15:23.55 | 3:58.70 | 69280 | 87199 4 | 19:22.50 | 6:52.25 | 87200 | 118124 5 | 26:15.00 | 4:44.72 | 118125 | 139496 6 | 30:59.72 | 3:07.60 | 139497 | 153581 7 | 34:07.57 | 5:37.50 | 153582 | 178906

Range status and errors

Selected range Filename D:\Ready.zp\Manfred Mann's Earth Band - The Roaring Silence (COMMECD2).wav Peak level 97.7 %
Extraction speed 14.4 X
Range quality 99.9 %
Test CRC ABCF3CD1
Copy CRC ABCF3CD1
Copy OK

No errors occurred


AccurateRip summary

Track 1 accurately ripped (confidence 22) [7714B7C9] (AR v2)
Track 2 accurately ripped (confidence 21) [610C97F1] (AR v2)
Track 3 accurately ripped (confidence 22) [8C85EFDE] (AR v2)
Track 4 accurately ripped (confidence 20) [71871CE0] (AR v2)
Track 5 accurately ripped (confidence 21) [8A48A5A9] (AR v2)
Track 6 accurately ripped (confidence 21) [0C404555] (AR v2)
Track 7 accurately ripped (confidence 21) [E768447D] (AR v2)

All tracks accurately ripped

End of status report

==== Log checksum 50466CD94F2D7C80FE2675427CC9584D462C906EC069D15D1B12E5E012C65438 ====

foobar2000 1.2.9 / Dynamic Range Meter 1.1.1
log date: 2015-07-08 13:02:56

Analyzed: Manfred Mann's Earth Band / The Roaring Silence (COMMECD2)

DR Peak RMS Duration Track

DR12 -0.20 dB -13.87 dB 7:07 01-Blinded By The Light
DR12 -0.20 dB -15.29 dB 8:15 02-Singing The Dolphin Through
DR11 -1.76 dB -16.86 dB 3:59 03-Questions
DR12 -0.20 dB -14.88 dB 6:52 04-The Road To Babylon
DR11 -0.26 dB -14.45 dB 4:45 05-This Side Of Paradise
DR11 -0.42 dB -14.94 dB 3:08 06-Starbird
DR12 -0.33 dB -15.33 dB 5:38 07-Waiter, There's A Yawn In My Ear

Number of tracks: 7
Official DR value: DR12

Samplerate: 44100 Hz
Channels: 2
Bits per sample: 16
Bitrate: 856 kbps
Codec: FLAC

[CUETools log; Date: 08.07.2015 13:02:59; Version: 2.1.4]
Pregap length 00:00:62.
[CTDB TOCID: t4HHjT13M.IVMZkQ86VtQrthnso-] found.
Track | CTDB Status
1 | (23/24) Accurately ripped
2 | (23/24) Accurately ripped
3 | (24/24) Accurately ripped
4 | (24/24) Accurately ripped
5 | (24/24) Accurately ripped
6 | (24/24) Accurately ripped
7 | (24/24) Accurately ripped
[AccurateRip ID: 000be217-00458083-58095107] found.
Track [ CRC | V2 ] Status
01 [29127c53|7714b7c9] (15+24/58) Accurately ripped
02 [92098d91|610c97f1] (15+23/57) Accurately ripped
03 [00a53ea5|8c85efde] (14+24/57) Accurately ripped
04 [8cecabb2|71871ce0] (15+22/54) Accurately ripped
05 [9f9d4158|8a48a5a9] (15+23/57) Accurately ripped
06 [ea004397|0c404555] (15+23/57) Accurately ripped
07 [2654f5ee|e768447d] (15+23/57) Accurately ripped
Offsetted by 275:
01 6cb1237 (09/58) Accurately ripped
02 [623bd25e] (09/57) Accurately ripped
03 [f4429702] (09/57) Accurately ripped
04 [13eaf25a] (09/54) Accurately ripped
05 [a7bbf9de] (09/57) Accurately ripped
06 [9aa740ab] (09/57) Accurately ripped
07 [94ce7bc9] (09/57) Accurately ripped
Offsetted by -384:
01 [81e5ea53] (00/58) No match (V2 was not tested)
02 [c22b9f11] (00/57) No match (V2 was not tested)
03 [78570825] (00/57) No match (V2 was not tested)
04 [488317b2] (00/54) No match (V2 was not tested)
05 [cb330e58] (00/57) No match (V2 was not tested)
06 [1d389997] (00/57) No match (V2 was not tested)
07 [d867506e] (00/57) No match (V2 was not tested)
Offsetted by 1728:
01 [995b0d53] (00/58) No match (V2 was not tested)
02 9703ed1 (00/57) No match (V2 was not tested)
03 [e60533e5] (00/57) No match (V2 was not tested)
04 [40c7c5b2] (00/54) No match (V2 was not tested)
05 [5b7b26d8] (00/57) No match (V2 was not tested)
06 [0382c097] (00/57) No match (V2 was not tested)
07 [85025eae] (00/57) No match (V2 was not tested)

Track Peak [ CRC32 ] [W/O NULL] [ LOG ]
-- 97,7 [ABCF3CD1] [77D126B8] CRC32
01 97,7 [582E0650] [249A2EDC]
02 97,7 [A46A46B0] [7C165FCE]
03 81,6 [49DB67AD] [A13E3E16]
04 97,7 [FE59AFB3] [94C711CF]
05 97,0 E6C2186 [336B16BF]
06 95,2 [2B5F948F] [2C85F84F]
07 96,2 [366B15D7] [E30197A8]
Direct Download

Tags: Manfred

Manfred Mann's Earth Band Box Set (1992) New Rip Download via Hotfile Rapidshare Fileserve Megaupload & FileSonic, Manfred Mann's Earth Band Box Set (1992) New Rip free torrent downloads included crack, serial, keygen.Manfred Mann's Earth Band Box Set (1992) New Rip Fast Download via Rapidshare Hotfile Fileserve Filesonic Megaupload, Manfred Mann's Earth Band Box Set (1992) New Rip Torrents and Emule Download or anything related.
Leave a Comment
Your Name:
E-Mail:
Add Comments:

Enter Code: