John Zorn - Naked City - The Complete Studio Recordings (2005) [5CD Box Set] {Tzadik}

Download Now


John Zorn - Naked City - The Complete Studio Recordings (2005) [5CD Box Set] {Tzadik}
John Zorn - Naked City - The Complete Studio Recordings (2005) [5CD Box Set] {Tzadik}
EAC rip (secure mode) | FLAC (tracks)+CUE+LOG -> 2.06 Gb | MP3 @320 -> 783 Mb
Artwork @ 300 dpi (jpg) -> 43 Mb | 5% repair rar
© 2005 Tzadik | TZ 7344-5 | Tzadik Archival Series
Jazz / Avant-Garde Jazz / Experimental / Modern Composition / Structured Improvisation

"Naked City: The Complete Studio Recordings is a five disc box set that contains all of the studio albums released by Naked City during their five-year history. Probably Zorn's most popular and most controversial musical project, the music of Naked City has been debated, analyzed, adored and reviled by fans, critics and academics alike, but nothing can replace the experience of hearing it in all its frightening glory. Most people know this music from the single domestic release on Nonesuch, but the major portion of their studio recordings were issued from 1989 - 1993 on the hard to find Japanese labels Avant and Toy's Factory."

John Zorn - Naked City - The Complete Studio Recordings (2005) [5CD Box Set] {Tzadik}

John Zorn - Naked City - The Complete Studio Recordings (2005) [5CD Box Set] {Tzadik}

"This long awaited set pulls together all of their recorded output - seven studio albums ( including five released only in Japan ) - on 5 CDs in beautiful new packaging, with a special 100 page scrapbook of Naked City ephemera, including photos, posters, designs, scores, musical sketches, written tributes by members of the Naked City family and pages from Zorn's original notebooks showing the development of the music that drove so many people out of their minds. Zorn's music at its most brutal and uncompromising best.

BONUS TRACK CREATED EXCLUSIVELY FOR THIS SET: A spectacular new vocal version of the 18' composition Grand Guignol featuring the charismatic singer from Fantomas, Mr. Bungle and Faith No More, Naked City Alumni Mike Patton. A tour de force concerto for voice and ensemble, finally realizing Zorn's long form composition as it was originally conceived."


John Zorn - Naked City - The Complete Studio Recordings (2005) [5CD Box Set] {Tzadik}

""I have radically remastered this music with exacting and loving attention to every last detail. Mistakes have been corrected, balances adjusted and thanks to the latest in digital technology the music is louder, clearer, more in your face and exploding with more energy than ever before. Even if you already own all of the original discs, I strongly urge you to pick this set up and experience Naked City as it always should have sounded. " --John Zorn"


John Zorn - Naked City - The Complete Studio Recordings (2005) [5CD Box Set] {Tzadik}


I'm very sorry but it's impossible to scan the booklet!

Personnel:
Joey Baron: Drums
Yamataka Eye: Vocals
Bill Frisell: Guitar
Fred Frith: Bass
Wayne Horvitz: Keyboards
Mike Patton: Vocals
John Zorn: Alto Sax, Vocals

John Zorn - Naked City - The Complete Studio Recordings (2005) [5CD Box Set] {Tzadik}

John Zorn - Naked City - The Complete Studio Recordings (2005) [5CD Box Set] {Tzadik}

John Zorn - Naked City - The Complete Studio Recordings (2005) [5CD Box Set] {Tzadik}


===


John Zorn - Naked City - The Complete Studio Recordings (2005) [5CD Box Set] {Tzadik}
Naked City (1989)
EAC rip (secure mode) | FLAC (tracks)+CUE+LOG -> 389 Mb | MP3 @320 -> 133 Mb

"The violent cover photo (which shows a man after he was shot dead) sets the stage for the rather passionate music on this John Zorn set. With guitarist Bill Frisell, keyboardist Wayne Horvitz, bassist Fred Frith, drummer Joey Baron, and guest vocalist Yamatsuka Eye making intense contributions, altoist Zorn performs his unpredictable originals, abstract versions of some movie themes (including "A Shot in the Dark," "I Want to Live," "Chinatown," and "The James Bond Theme"), plus Ornette Coleman's "Lonely Woman." The stimulating music rewards repeated listenings by more open-minded listeners."


tracklist:
01. Batman
02. The Sicilian Clan
03. You Will Be Shot
04. Latin Quarter
05. A Shot In The Dark
06. Reanimator
07. Snagglepuss
08. I Want To Live
09. Lonely Woman
10. Igneous Ejaculation
11. Blood Duster
12. Hammerhead
13. Demon Sanctuary
14. Obeah Man
15. Ujaku
16. Fuck The Facts
17. Speedball
18. Chinatown
19. Punk China Doll
20. N.Y. Flat Top Box
21. Saigon Pickup
22. The James Bond Theme
23. Den Of Sins
24. Contempt
25. Graveyard Shift
26. Inside Straight

Exact Audio Copy V0.99 prebeta 3 from 28. July 2007

EAC extraction logfile from 22. March 2009, 20:48

Naked City / Naked City

Used drive : MATSHITAUJDA765aDVD/CDRW Adapter: 0 ID: 1

Read mode : Secure
Utilize accurate stream : Yes
Defeat audio cache : Yes
Make use of C2 pointers : No

Read offset correction

: 102
Overread into Lead-In and Lead-Out : No
Fill up missing offset samples with silence : Yes
Delete leading and trailing silent blocks : No
Null samples used in CRC calculations : Yes
Used interface
: Installed external ASPI interface
Gap handling
: Appended to previous track

Used output format : User Defined Encoder
Selected bitrate : 192 kBit/s
Quality : High
Add ID3 tag : No
Command line compressor : C:\Program Files\Exact Audio Copy\Flac\flac.exe
Additional command line options : -8 -V -T "ARTIST=%a" -T "TITLE=%t" -T "ALBUM=%g" -T "DATE=%y" -T "TRACKNUMBER=%n" -T "GENRE=%m" -T "COMMENT=EAC FLAC -8" %s

TOC of the extracted CD Track | Start | Length | Start sector | End sector
--1 | 0:00.00 | 2:04.11 | 0 | 9310 2 | 2:04.11 | 3:32.71 | 9311 | 25281 3 | 5:37.07 | 1:31.31 | 25282 | 32137 4 | 7:08.38 | 4:11.68 | 32138 | 51030 5 | 11:20.31 | 3:13.17 | 51031 | 65522 6 | 14:33.48 | 1:43.03 | 65523 | 73250 7 | 16:16.51 | 2:20.35 | 73251 | 83785 8 | 18:37.11 | 2:12.00 | 83786 | 93685 9 | 20:49.11 | 2:45.47 | 93686 | 106107
10 | 23:34.58 | 0:24.06 | 106108 | 107913
11 | 23:58.64 | 0:16.56 | 107914 | 109169
12 | 24:15.45 | 0:11.16 | 109170 | 110010
13 | 24:26.61 | 0:41.68 | 110011 | 113153
14 | 25:08.54 | 0:20.30 | 113154 | 114683
15 | 25:29.09 | 0:30.57 | 114684 | 116990
16 | 25:59.66 | 0:14.18 | 116991 | 118058
17 | 26:14.09 | 0:43.47 | 118059 | 121330
18 | 26:57.56 | 4:28.29 | 121331 | 141459
19 | 31:26.10 | 3:04.34 | 141460 | 155293
20 | 34:30.44 | 0:45.46 | 155294 | 158714
21 | 35:16.15 | 4:50.46 | 158715 | 180510
22 | 40:06.61 | 3:06.17 | 180511 | 194477
23 | 43:13.03 | 1:15.30 | 194478 | 200132
24 | 44:28.33 | 2:54.56 | 200133 | 213238
25 | 47:23.14 | 3:32.03 | 213239 | 229141
26 | 50:55.17 | 4:16.70 | 229142 | 248411

Track 1 Filename E:\Ups\Naked City - Naked City (2005) [FLAC] {Tzadik, Complete Studio Recordings Box Set}\01 - Naked City - Batman.wav Pre-gap length 0:00:02.00 Peak level 100.0 %
Track quality 100.0 %
Test CRC 68DFCF89
Copy CRC 68DFCF89
Copy OK

Track 2 Filename E:\Ups\Naked City - Naked City (2005) [FLAC] {Tzadik, Complete Studio Recordings Box Set}\02 - Naked City - The Sicilian Clan.wav Peak level 100.0 %
Track quality 100.0 %
Test CRC D59155D8
Copy CRC D59155D8
Copy OK

Track 3 Filename E:\Ups\Naked City - Naked City (2005) [FLAC] {Tzadik, Complete Studio Recordings Box Set}\03 - Naked City - You Will Be Shot.wav Peak level 100.0 %
Track quality 100.0 %
Test CRC A619CCD3
Copy CRC A619CCD3
Copy OK

Track 4 Filename E:\Ups\Naked City - Naked City (2005) [FLAC] {Tzadik, Complete Studio Recordings Box Set}\04 - Naked City - Latin Quarter.wav Peak level 100.0 %
Track quality 100.0 %
Test CRC 5F4FF9C8
Copy CRC 5F4FF9C8
Copy OK

Track 5 Filename E:\Ups\Naked City - Naked City (2005) [FLAC] {Tzadik, Complete Studio Recordings Box Set}\05 - Naked City - A Shot In The Dark.wav Peak level 100.0 %
Track quality 100.0 %
Test CRC E0587AB2
Copy CRC E0587AB2
Copy OK

Track 6 Filename E:\Ups\Naked City - Naked City (2005) [FLAC] {Tzadik, Complete Studio Recordings Box Set}\06 - Naked City - Reanimator.wav Peak level 100.0 %
Track quality 100.0 %
Test CRC B9A68A12
Copy CRC B9A68A12
Copy OK

Track 7 Filename E:\Ups\Naked City - Naked City (2005) [FLAC] {Tzadik, Complete Studio Recordings Box Set}\07 - Naked City - Snagglepuss.wav Peak level 100.0 %
Track quality 99.9 %
Test CRC B09CE84E
Copy CRC B09CE84E
Copy OK

Track 8 Filename E:\Ups\Naked City - Naked City (2005) [FLAC] {Tzadik, Complete Studio Recordings Box Set}\08 - Naked City - I Want To Live.wav Peak level 100.0 %
Track quality 100.0 %
Test CRC 3CF1FBE4
Copy CRC 3CF1FBE4
Copy OK

Track 9 Filename E:\Ups\Naked City - Naked City (2005) [FLAC] {Tzadik, Complete Studio Recordings Box Set}\09 - Naked City - Lonely Woman.wav Peak level 100.0 %
Track quality 100.0 %
Test CRC 44AD69FA
Copy CRC 44AD69FA
Copy OK

Track 10 Filename E:\Ups\Naked City - Naked City (2005) [FLAC] {Tzadik, Complete Studio Recordings Box Set}\10 - Naked City - Igneous Ejaculation.wav Peak level 100.0 %
Track quality 100.0 %
Test CRC 32A55037
Copy CRC 32A55037
Copy OK

Track 11 Filename E:\Ups\Naked City - Naked City (2005) [FLAC] {Tzadik, Complete Studio Recordings Box Set}\11 - Naked City - Blood Duster.wav Peak level 100.0 %
Track quality 100.0 %
Test CRC 3C6CB845
Copy CRC 3C6CB845
Copy OK

Track 12 Filename E:\Ups\Naked City - Naked City (2005) [FLAC] {Tzadik, Complete Studio Recordings Box Set}\12 - Naked City - Hammerhead.wav Peak level 100.0 %
Track quality 100.0 %
Test CRC 158142A5
Copy CRC 158142A5
Copy OK

Track 13 Filename E:\Ups\Naked City - Naked City (2005) [FLAC] {Tzadik, Complete Studio Recordings Box Set}\13 - Naked City - Demon Sanctuary.wav Peak level 100.0 %
Track quality 100.0 %
Test CRC 3E8860E4
Copy CRC 3E8860E4
Copy OK

Track 14 Filename E:\Ups\Naked City - Naked City (2005) [FLAC] {Tzadik, Complete Studio Recordings Box Set}\14 - Naked City - Obeah Man.wav Peak level 100.0 %
Track quality 100.0 %
Test CRC 1C2864D1
Copy CRC 1C2864D1
Copy OK

Track 15 Filename E:\Ups\Naked City - Naked City (2005) [FLAC] {Tzadik, Complete Studio Recordings Box Set}\15 - Naked City - Ujaku.wav Peak level 100.0 %
Track quality 100.0 %
Test CRC 1ED2FEC1
Copy CRC 1ED2FEC1
Copy OK

Track 16 Filename E:\Ups\Naked City - Naked City (2005) [FLAC] {Tzadik, Complete Studio Recordings Box Set}\16 - Naked City - Fuck The Facts.wav Peak level 100.0 %
Track quality 100.0 %
Test CRC AEE102EE
Copy CRC AEE102EE
Copy OK

Track 17 Filename E:\Ups\Naked City - Naked City (2005) [FLAC] {Tzadik, Complete Studio Recordings Box Set}\17 - Naked City - Speedball.wav Peak level 100.0 %
Track quality 100.0 %
Test CRC C862B9AE
Copy CRC C862B9AE
Copy OK

Track 18 Filename E:\Ups\Naked City - Naked City (2005) [FLAC] {Tzadik, Complete Studio Recordings Box Set}\18 - Naked City - Chinatown.wav Peak level 100.0 %
Track quality 100.0 %
Test CRC DB859D0A
Copy CRC DB859D0A
Copy OK

Track 19 Filename E:\Ups\Naked City - Naked City (2005) [FLAC] {Tzadik, Complete Studio Recordings Box Set}\19 - Naked City - Punk China Doll.wav Peak level 100.0 %
Track quality 100.0 %
Test CRC 52A8687D
Copy CRC 52A8687D
Copy OK

Track 20 Filename E:\Ups\Naked City - Naked City (2005) [FLAC] {Tzadik, Complete Studio Recordings Box Set}\20 - Naked City - N.Y. Flat Top Box.wav Peak level 100.0 %
Track quality 100.0 %
Test CRC B90A8E47
Copy CRC B90A8E47
Copy OK

Track 21 Filename E:\Ups\Naked City - Naked City (2005) [FLAC] {Tzadik, Complete Studio Recordings Box Set}\21 - Naked City - Saigon Pickup.wav Peak level 100.0 %
Track quality 100.0 %
Test CRC 720D9739
Copy CRC 720D9739
Copy OK

Track 22 Filename E:\Ups\Naked City - Naked City (2005) [FLAC] {Tzadik, Complete Studio Recordings Box Set}\22 - Naked City - The James Bond Theme.wav Peak level 100.0 %
Track quality 100.0 %
Test CRC C1318D3B
Copy CRC C1318D3B
Copy OK

Track 23 Filename E:\Ups\Naked City - Naked City (2005) [FLAC] {Tzadik, Complete Studio Recordings Box Set}\23 - Naked City - Den Of Sins.wav Peak level 100.0 %
Track quality 99.8 %
Test CRC 8BF993C2
Copy CRC 8BF993C2
Copy OK

Track 24 Filename E:\Ups\Naked City - Naked City (2005) [FLAC] {Tzadik, Complete Studio Recordings Box Set}\24 - Naked City - Contempt.wav Peak level 100.0 %
Track quality 100.0 %
Test CRC AF725A19
Copy CRC AF725A19
Copy OK

Track 25 Filename E:\Ups\Naked City - Naked City (2005) [FLAC] {Tzadik, Complete Studio Recordings Box Set}\25 - Naked City - Graveyard Shift.wav Peak level 100.0 %
Track quality 100.0 %
Test CRC F23910AB
Copy CRC F23910AB
Copy OK

Track 26 Filename E:\Ups\Naked City - Naked City (2005) [FLAC] {Tzadik, Complete Studio Recordings Box Set}\26 - Naked City - Inside Straight.wav Peak level 100.0 %
Track quality 100.0 %
Test CRC FAD30A22
Copy CRC FAD30A22
Copy OK

No errors occurred

End of status report

John Zorn - Naked City - The Complete Studio Recordings (2005) [5CD Box Set] {Tzadik}

John Zorn - Naked City - The Complete Studio Recordings (2005) [5CD Box Set] {Tzadik}
Grand Guignol (1991)
EAC rip (secure mode) | FLAC (tracks)+CUE+LOG -> 475 Mb | MP3 @320 -> 188 Mb

"Naked City's follow up to their self-titled album is a departure from the New York noir that they had perfected. Here, after a 17 minute, moody title piece, all low rumbling punctuated by drum thrashes and distorted screams, is a very straight transcription of Debussy's "Cathedrale Engloutie" featuring some very lovely, watery guitar work from Bill Frisell. Other modern pieces follow, with works by Scriabin, Ives, Messian, and Di Lassus. And then for something completely different: 32 thrash'n'burn numbers lasting anywhere from 10 seconds to a whopping 1:14, most with humorous titles (some favorites: "Jazz Snob: Eat Shit," "Perfume of a Critic's Burning Flesh," "Pigfucker"). Forget the subtlety of the first half -- this is thrash jazz! Yamatsuka Eye of the Boredoms provides vocals. As they say, there's screaming, and then there's Yamatsuka Eye. Whether or not such eclecticism makes for awkward listening is apparently the last thing on Zorn's list, and it probably shouldn't be a concern anyway. A rewarding album."


tracklist:
01. Grand Guignol
02. Blood Is Thin
03. Thrash Jazz Assassin
04. Dead Spot
05. Bonehead
06. Piledriver
07. Shangkuan Lin-Feng
08. Numbskull
09. Perfume Of A Critic's Burning Flesh
10. Jazz Snob: Eat Shit
11. The Prestidigitator
12. No Reason To Believe
13. Hellraiser
14. Torture Garden
15. Slan
16. The Ways Of Pain
17. Slan
18. Sack Of Shit
19. Blunt Instrument
20. Osaka Bondage
21. Shallow Grave
22. Kaoru
23. Dead Dread
24. Billy Liar
25. Victims Of Torture
26. Speedfreaks
27. New Jersey Scum Swamp
28. S/M Sniper
29. Pigfucker
30. Cairo Chop Shop
31. Facelifter
32. Whiplash
33. The Blade
34. Gob Of Spit
35. La Cathedrale Engloutie
36. Three Preludes Op. 74: Douloureux, Dechirant
37. Three Preludes Op. 74: Tres Lent, Contemplatif
38. Three Preludes Op. 74: Allegro Drammatico
39. Prophetiae Sybillarum
40. The Cage
41. The Cage
42. Grand Guignol (Version Vocale)

Exact Audio Copy V0.99 prebeta 3 from 28. July 2007

EAC extraction logfile from 22. March 2009, 18:34

Naked City / Grand Guignol

Used drive : MATSHITAUJDA765aDVD/CDRW Adapter: 0 ID: 1

Read mode : Secure
Utilize accurate stream : Yes
Defeat audio cache : Yes
Make use of C2 pointers : No

Read offset correction

: 102
Overread into Lead-In and Lead-Out : No
Fill up missing offset samples with silence : Yes
Delete leading and trailing silent blocks : No
Null samples used in CRC calculations : Yes
Used interface
: Installed external ASPI interface
Gap handling
: Appended to previous track

Used output format : User Defined Encoder
Selected bitrate : 192 kBit/s
Quality : High
Add ID3 tag : No
Command line compressor : C:\Program Files\Exact Audio Copy\Flac\flac.exe
Additional command line options : -8 -V -T "ARTIST=%a" -T "TITLE=%t" -T "ALBUM=%g" -T "DATE=%y" -T "TRACKNUMBER=%n" -T "GENRE=%m" -T "COMMENT=EAC FLAC -8" %s

TOC of the extracted CD Track | Start | Length | Start sector | End sector
--1 | 0:00.00 | 17:49.05 | 0 | 80179 2 | 17:49.05 | 1:03.41 | 80180 | 84945 3 | 18:52.46 | 0:48.50 | 84946 | 88595 4 | 19:41.21 | 0:35.11 | 88596 | 91231 5 | 20:16.32 | 0:56.08 | 91232 | 95439 6 | 21:12.40 | 0:37.53 | 95440 | 98267 7 | 21:50.18 | 1:18.36 | 98268 | 104153 8 | 23:08.54 | 0:32.03 | 104154 | 106556 9 | 23:40.57 | 0:28.38 | 106557 | 108694
10 | 24:09.20 | 0:27.36 | 108695 | 110755
11 | 24:36.56 | 0:47.55 | 110756 | 114335
12 | 25:24.36 | 0:27.55 | 114336 | 116415
13 | 25:52.16 | 0:42.06 | 116416 | 119571
14 | 26:34.22 | 0:39.52 | 119572 | 122548
15 | 27:13.74 | 0:26.09 | 122549 | 124507
16 | 27:40.08 | 0:35.69 | 124508 | 127201
17 | 28:16.02 | 0:12.51 | 127202 | 128152
18 | 28:28.53 | 0:48.00 | 128153 | 131752
19 | 29:16.53 | 0:56.02 | 131753 | 135954
20 | 30:12.55 | 1:16.37 | 135955 | 141691
21 | 31:29.17 | 0:43.69 | 141692 | 144985
22 | 32:13.11 | 0:54.64 | 144986 | 149099
23 | 33:08.00 | 0:49.24 | 149100 | 152798
24 | 33:57.24 | 0:15.32 | 152799 | 153955
25 | 34:12.56 | 0:26.19 | 153956 | 155924
26 | 34:39.00 | 0:51.72 | 155925 | 159821
27 | 35:30.72 | 0:44.04 | 159822 | 163125
28 | 36:15.01 | 0:16.38 | 163126 | 164363
29 | 36:31.39 | 0:27.04 | 164364 | 166392
30 | 36:58.43 | 0:24.39 | 166393 | 168231
31 | 37:23.07 | 0:57.30 | 168232 | 172536
32 | 38:20.37 | 0:23.31 | 172537 | 174292
33 | 38:43.68 | 0:43.22 | 174293 | 177539
34 | 39:27.15 | 0:28.46 | 177540 | 179685
35 | 39:55.61 | 6:26.56 | 179686 | 208691
36 | 46:22.42 | 1:22.19 | 208692 | 214860
37 | 47:44.61 | 1:42.60 | 214861 | 222570
38 | 49:27.46 | 0:51.07 | 222571 | 226402
39 | 50:18.53 | 1:52.27 | 226403 | 234829
40 | 52:11.05 | 2:03.09 | 234830 | 244063
41 | 54:14.14 | 7:23.41 | 244064 | 277329
42 | 61:37.55 | 17:40.37 | 277330 | 356866

Track 1 Filename E:\Ups\Naked City - Grand Guignol (2005) [FLAC] {Tzadik, Complete Studio Recordings Box Set}\01 - Naked City - Grand Guignol.wav Pre-gap length 0:00:02.00 Peak level 100.0 %
Track quality 100.0 %
Test CRC 328FDB96
Copy CRC 328FDB96
Copy OK

Track 2 Filename E:\Ups\Naked City - Grand Guignol (2005) [FLAC] {Tzadik, Complete Studio Recordings Box Set}\02 - Naked City - Blood is Thin.wav Pre-gap length 0:00:07.68 Peak level 100.0 %
Track quality 100.0 %
Test CRC DB8E3EA6
Copy CRC DB8E3EA6
Copy OK

Track 3 Filename E:\Ups\Naked City - Grand Guignol (2005) [FLAC] {Tzadik, Complete Studio Recordings Box Set}\03 - Naked City - Thrash Jazz Assasin.wav Pre-gap length 0:00:01.37 Peak level 100.0 %
Track quality 100.0 %
Test CRC 51DBE9AC
Copy CRC 51DBE9AC
Copy OK

Track 4 Filename E:\Ups\Naked City - Grand Guignol (2005) [FLAC] {Tzadik, Complete Studio Recordings Box Set}\04 - Naked City - Dead Spot.wav Pre-gap length 0:00:01.24 Peak level 100.0 %
Track quality 100.0 %
Test CRC 5649D1F4
Copy CRC 5649D1F4
Copy OK

Track 5 Filename E:\Ups\Naked City - Grand Guignol (2005) [FLAC] {Tzadik, Complete Studio Recordings Box Set}\05 - Naked City - Bonehead.wav Pre-gap length 0:00:01.92 Peak level 100.0 %
Track quality 99.8 %
Test CRC CE01C6CE
Copy CRC CE01C6CE
Copy OK

Track 6 Filename E:\Ups\Naked City - Grand Guignol (2005) [FLAC] {Tzadik, Complete Studio Recordings Box Set}\06 - Naked City - Piledriver.wav Pre-gap length 0:00:01.73 Peak level 100.0 %
Track quality 100.0 %
Test CRC 39D7D7EB
Copy CRC 39D7D7EB
Copy OK

Track 7 Filename E:\Ups\Naked City - Grand Guignol (2005) [FLAC] {Tzadik, Complete Studio Recordings Box Set}\07 - Naked City - Shangkuan Ling-Feng.wav Pre-gap length 0:00:01.46 Peak level 100.0 %
Track quality 100.0 %
Test CRC C299B81F
Copy CRC C299B81F
Copy OK

Track 8 Filename E:\Ups\Naked City - Grand Guignol (2005) [FLAC] {Tzadik, Complete Studio Recordings Box Set}\08 - Naked City - Numbskull.wav Pre-gap length 0:00:02.12 Peak level 100.0 %
Track quality 100.0 %
Test CRC CA26FF4A
Copy CRC CA26FF4A
Copy OK

Track 9 Filename E:\Ups\Naked City - Grand Guignol (2005) [FLAC] {Tzadik, Complete Studio Recordings Box Set}\09 - Naked City - Perfume of a Critic's Burning Flesh.wav Pre-gap length 0:00:00.96 Peak level 100.0 %
Track quality 100.0 %
Test CRC B113812A
Copy CRC B113812A
Copy OK

Track 10 Filename E:\Ups\Naked City - Grand Guignol (2005) [FLAC] {Tzadik, Complete Studio Recordings Box Set}\10 - Naked City - Jazz Snob, Eat Shit.wav Pre-gap length 0:00:02.26 Peak level 100.0 %
Track quality 100.0 %
Test CRC 118CFDA0
Copy CRC 118CFDA0
Copy OK

Track 11 Filename E:\Ups\Naked City - Grand Guignol (2005) [FLAC] {Tzadik, Complete Studio Recordings Box Set}\11 - Naked City - The Prestidigitator.wav Pre-gap length 0:00:01.04 Peak level 100.0 %
Track quality 100.0 %
Test CRC 481BD1F6
Copy CRC 481BD1F6
Copy OK

Track 12 Filename E:\Ups\Naked City - Grand Guignol (2005) [FLAC] {Tzadik, Complete Studio Recordings Box Set}\12 - Naked City - No Reason to Believe.wav Pre-gap length 0:00:01.70 Peak level 100.0 %
Track quality 100.0 %
Test CRC E338E6B0
Copy CRC E338E6B0
Copy OK

Track 13 Filename E:\Ups\Naked City - Grand Guignol (2005) [FLAC] {Tzadik, Complete Studio Recordings Box Set}\13 - Naked City - Hellraiser.wav Peak level 100.0 %
Track quality 100.0 %
Test CRC BD768520
Copy CRC BD768520
Copy OK

Track 14 Filename E:\Ups\Naked City - Grand Guignol (2005) [FLAC] {Tzadik, Complete Studio Recordings Box Set}\14 - Naked City - Torture Garden.wav Pre-gap length 0:00:01.52 Peak level 100.0 %
Track quality 100.0 %
Test CRC 601696DE
Copy CRC 601696DE
Copy OK

Track 15 Filename E:\Ups\Naked City - Grand Guignol (2005) [FLAC] {Tzadik, Complete Studio Recordings Box Set}\15 - Naked City - Slan.wav Pre-gap length 0:00:02.54 Peak level 100.0 %
Track quality 100.0 %
Test CRC 5FD92C2A
Copy CRC 5FD92C2A
Copy OK

Track 16 Filename E:\Ups\Naked City - Grand Guignol (2005) [FLAC] {Tzadik, Complete Studio Recordings Box Set}\16 - Naked City - The Ways of Pain.wav Pre-gap length 0:00:01.84 Peak level 100.0 %
Track quality 100.0 %
Test CRC E51E7C9E
Copy CRC E51E7C9E
Copy OK

Track 17 Filename E:\Ups\Naked City - Grand Guignol (2005) [FLAC] {Tzadik, Complete Studio Recordings Box Set}\17 - Naked City - The Noose.wav Pre-gap length 0:00:02.49 Peak level 100.0 %
Track quality 100.0 %
Test CRC 2A1A38F4
Copy CRC 2A1A38F4
Copy OK

Track 18 Filename E:\Ups\Naked City - Grand Guignol (2005) [FLAC] {Tzadik, Complete Studio Recordings Box Set}\18 - Naked City - Sack of Shit.wav Peak level 100.0 %
Track quality 100.0 %
Test CRC 8D63FCE4
Copy CRC 8D63FCE4
Copy OK

Track 19 Filename E:\Ups\Naked City - Grand Guignol (2005) [FLAC] {Tzadik, Complete Studio Recordings Box Set}\19 - Naked City - Blunt Instrument.wav Pre-gap length 0:00:02.33 Peak level 100.0 %
Track quality 100.0 %
Test CRC 0FBFB373
Copy CRC 0FBFB373
Copy OK

Track 20 Filename E:\Ups\Naked City - Grand Guignol (2005) [FLAC] {Tzadik, Complete Studio Recordings Box Set}\20 - Naked City - Osaka Bondage.wav Peak level 100.0 %
Track quality 100.0 %
Test CRC 179ADEEA
Copy CRC 179ADEEA
Copy OK

Track 21 Filename E:\Ups\Naked City - Grand Guignol (2005) [FLAC] {Tzadik, Complete Studio Recordings Box Set}\21 - Naked City - Shallow Grave.wav Peak level 100.0 %
Track quality 100.0 %
Test CRC DC40DC70
Copy CRC DC40DC70
Copy OK

Track 22 Filename E:\Ups\Naked City - Grand Guignol (2005) [FLAC] {Tzadik, Complete Studio Recordings Box Set}\22 - Naked City - Kaoru.wav Pre-gap length 0:00:01.70 Peak level 100.0 %
Track quality 100.0 %
Test CRC D0743BF1
Copy CRC D0743BF1
Copy OK

Track 23 Filename E:\Ups\Naked City - Grand Guignol (2005) [FLAC] {Tzadik, Complete Studio Recordings Box Set}\23 - Naked City - Dead Dread.wav Pre-gap length 0:00:01.66 Peak level 100.0 %
Track quality 100.0 %
Test CRC E3181CE3
Copy CRC E3181CE3
Copy OK

Track 24 Filename E:\Ups\Naked City - Grand Guignol (2005) [FLAC] {Tzadik, Complete Studio Recordings Box Set}\24 - Naked City - Billy Liar.wav Pre-gap length 0:00:01.61 Peak level 100.0 %
Track quality 100.0 %
Test CRC EDE186E6
Copy CRC EDE186E6
Copy OK

Track 25 Filename E:\Ups\Naked City - Grand Guignol (2005) [FLAC] {Tzadik, Complete Studio Recordings Box Set}\25 - Naked City - Victims of Torture.wav Pre-gap length 0:00:02.84 Peak level 100.0 %
Track quality 99.5 %
Test CRC 46D3B27D
Copy CRC 46D3B27D
Copy OK

Track 26 Filename E:\Ups\Naked City - Grand Guignol (2005) [FLAC] {Tzadik, Complete Studio Recordings Box Set}\26 - Naked City - Speedfreaks.wav Pre-gap length 0:00:02.29 Peak level 100.0 %
Track quality 100.0 %
Test CRC 59263D26
Copy CRC 59263D26
Copy OK

Track 27 Filename E:\Ups\Naked City - Grand Guignol (2005) [FLAC] {Tzadik, Complete Studio Recordings Box Set}\27 - Naked City - New Jersey Scum Swamp.wav Pre-gap length 0:00:01.52 Peak level 100.0 %
Track quality 100.0 %
Test CRC 14985205
Copy CRC 14985205
Copy OK

Track 28 Filename E:\Ups\Naked City - Grand Guignol (2005) [FLAC] {Tzadik, Complete Studio Recordings Box Set}\28 - Naked City - S and M Sniper.wav Peak level 100.0 %
Track quality 100.0 %
Test CRC CDDB3487
Copy CRC CDDB3487
Copy OK

Track 29 Filename E:\Ups\Naked City - Grand Guignol (2005) [FLAC] {Tzadik, Complete Studio Recordings Box Set}\29 - Naked City - Pigfucker.wav Peak level 100.0 %
Track quality 100.0 %
Test CRC 57076D99
Copy CRC 57076D99
Copy OK

Track 30 Filename E:\Ups\Naked City - Grand Guignol (2005) [FLAC] {Tzadik, Complete Studio Recordings Box Set}\30 - Naked City - Cairo Chop Shop.wav Pre-gap length 0:00:02.77 Peak level 100.0 %
Track quality 100.0 %
Test CRC 240845CC
Copy CRC 240845CC
Copy OK

Track 31 Filename E:\Ups\Naked City - Grand Guignol (2005) [FLAC] {Tzadik, Complete Studio Recordings Box Set}\31 - Naked City - Facelifter.wav Peak level 100.0 %
Track quality 100.0 %
Test CRC D2D4DA21
Copy CRC D2D4DA21
Copy OK

Track 32 Filename E:\Ups\Naked City - Grand Guignol (2005) [FLAC] {Tzadik, Complete Studio Recordings Box Set}\32 - Naked City - Whiplash.wav Peak level 100.0 %
Track quality 100.0 %
Test CRC D6751517
Copy CRC D6751517
Copy OK

Track 33 Filename E:\Ups\Naked City - Grand Guignol (2005) [FLAC] {Tzadik, Complete Studio Recordings Box Set}\33 - Naked City - The Blade.wav Pre-gap length 0:00:01.86 Peak level 100.0 %
Track quality 100.0 %
Test CRC 6965FB8F
Copy CRC 6965FB8F
Copy OK

Track 34 Filename E:\Ups\Naked City - Grand Guignol (2005) [FLAC] {Tzadik, Complete Studio Recordings Box Set}\34 - Naked City - Gob of Spit.wav Pre-gap length 0:00:04.46 Peak level 100.0 %
Track quality 100.0 %
Test CRC 66636BB1
Copy CRC 66636BB1
Copy OK

Track 35 Filename E:\Ups\Naked City - Grand Guignol (2005) [FLAC] {Tzadik, Complete Studio Recordings Box Set}\35 - Naked City - La Cathedrale Engloutie.wav Pre-gap length 0:00:07.97 Peak level 98.8 %
Track quality 100.0 %
Test CRC CED68138
Copy CRC CED68138
Copy OK

Track 36 Filename E:\Ups\Naked City - Grand Guignol (2005) [FLAC] {Tzadik, Complete Studio Recordings Box Set}\36 - Naked City - Three Preludes op. 74, Douloureux, Dechirant.wav Pre-gap length 0:00:02.48 Peak level 94.9 %
Track quality 100.0 %
Test CRC 14D775B4
Copy CRC 14D775B4
Copy OK

Track 37 Filename E:\Ups\Naked City - Grand Guignol (2005) [FLAC] {Tzadik, Complete Studio Recordings Box Set}\37 - Naked City - Three Preludes op. 74, Tres Lent, Contemplatif.wav Pre-gap length 0:00:05.73 Peak level 98.8 %
Track quality 100.0 %
Test CRC 41AD0843
Copy CRC 41AD0843
Copy OK

Track 38 Filename E:\Ups\Naked City - Grand Guignol (2005) [FLAC] {Tzadik, Complete Studio Recordings Box Set}\38 - Naked City - Three Preludes op. 74, Allegro Drammatico.wav Peak level 98.8 %
Track quality 100.0 %
Test CRC 2F96FB52
Copy CRC 2F96FB52
Copy OK

Track 39 Filename E:\Ups\Naked City - Grand Guignol (2005) [FLAC] {Tzadik, Complete Studio Recordings Box Set}\39 - Naked City - Prophetiae Sybillarum.wav Pre-gap length 0:00:02.60 Peak level 98.8 %
Track quality 100.0 %
Test CRC 9C49F36D
Copy CRC 9C49F36D
Copy OK

Track 40 Filename E:\Ups\Naked City - Grand Guignol (2005) [FLAC] {Tzadik, Complete Studio Recordings Box Set}\40 - Naked City - The Cage.wav Pre-gap length 0:00:06.85 Peak level 98.8 %
Track quality 100.0 %
Test CRC B176F99D
Copy CRC B176F99D
Copy OK

Track 41 Filename E:\Ups\Naked City - Grand Guignol (2005) [FLAC] {Tzadik, Complete Studio Recordings Box Set}\41 - Naked City - Louange a l'Eternite de Jesus.wav Pre-gap length 0:00:02.24 Peak level 62.9 %
Track quality 100.0 %
Test CRC 809E3720
Copy CRC 809E3720
Copy OK

Track 42 Filename E:\Ups\Naked City - Grand Guignol (2005) [FLAC] {Tzadik, Complete Studio Recordings Box Set}\42 - Naked City - Grand Guignol (version vocale).wav Pre-gap length 0:00:15.65 Peak level 98.8 %
Track quality 100.0 %
Test CRC A70F080F
Copy CRC A70F080F
Copy OK

No errors occurred

End of status report

John Zorn - Naked City - The Complete Studio Recordings (2005) [5CD Box Set] {Tzadik}


-

John Zorn - Naked City - The Complete Studio Recordings (2005) [5CD Box Set] {Tzadik}
Heretic, Jeux des Dames Cruelles (1992)
EAC rip (secure mode) | FLAC (tracks)+CUE+LOG -> 361 Mb | MP3 @320 -> 135 Mb

"Naked City's tenure as a workshop for a rock group's compositional opportunities led to this album, which is performed mostly by subsets of the full group. Only one track of the 24 includes all six band members, the relatively anonymous "Fire and Ice (Club Scene)," where Joey Baron, Fred Frith, and Bill Frisell set up a slow funky groove for Wayne Horvitz and John Zorn's improvisations. The rest of the pieces are all performed by various duos (12 tracks) and trios (11 tracks). The exploratory nature of the groupings means that there are many fewer references to popular music styles compared to other Naked City albums, and the pieces all sound improvisional. As such, every listener will find his or her favorites, but all of the pieces are of high quality, as befits a grouping of great improvisers that form the group. The two duos by Zorn and Yamatsuka Eye (where they match each other squeal for squawk) or the ones between Zorn and Frith (who have demonstrated their close empathy in other sessions before and after Naked City) are particularly noteworthy. Although this album is credited as a soundtrack for a porn movie (scenes from which decorate the sleeve art), its music will appeal to many improv-oriented listeners who have a hard time with the thrash/hardcore atmosphere that is so characteristic of the band's first album and the Torture Garden pieces."


tracklist:
01. Main Titles
02. Sex Games
03. The Brood
04. Sweat, Sperm + Blood
05. Vliet
06. Heretic 1
07. Submission
08. Heretic 2
09. Catacombs
10. Heretic 3
11. My Master, My Slave
12. Saint Jude
13. The Conqueror Worm
14. Dominatrix 2B
15. Back Through The Looking Glass
16. Here Come The 7,000 Frogs
17. Slaughterhouse/Chase Sequence
18. Castle Keep
19. Mantra Of Resurrected Shit
20. Trypsicore
21. Fire And Ice (Club Scene)
22. Crosstalk
23. Copraphagist Rituals
24. Labyrinth

Exact Audio Copy V0.99 prebeta 3 from 28. July 2007

EAC extraction logfile from 22. March 2009, 23:15

Naked City / Heretic, Jeux des Dames Cruelles

Used drive : MATSHITAUJDA765aDVD/CDRW Adapter: 0 ID: 1

Read mode : Secure
Utilize accurate stream : Yes
Defeat audio cache : Yes
Make use of C2 pointers : No

Read offset correction

: 102
Overread into Lead-In and Lead-Out : No
Fill up missing offset samples with silence : Yes
Delete leading and trailing silent blocks : No
Null samples used in CRC calculations : Yes
Used interface
: Installed external ASPI interface
Gap handling
: Appended to previous track

Used output format : User Defined Encoder
Selected bitrate : 192 kBit/s
Quality : High
Add ID3 tag : No
Command line compressor : C:\Program Files\Exact Audio Copy\Flac\flac.exe
Additional command line options : -8 -V -T "ARTIST=%a" -T "TITLE=%t" -T "ALBUM=%g" -T "DATE=%y" -T "TRACKNUMBER=%n" -T "GENRE=%m" -T "COMMENT=EAC FLAC -8" %s

TOC of the extracted CD Track | Start | Length | Start sector | End sector
--1 | 0:00.00 | 1:28.36 | 0 | 6635 2 | 1:28.36 | 2:23.20 | 6636 | 17380 3 | 3:51.56 | 2:49.45 | 17381 | 30100 4 | 6:41.26 | 2:04.74 | 30101 | 39474 5 | 8:46.25 | 0:50.11 | 39475 | 43235 6 | 9:36.36 | 2:33.16 | 43236 | 54726 7 | 12:09.52 | 4:23.03 | 54727 | 74454 8 | 16:32.55 | 1:46.28 | 74455 | 82432 9 | 18:19.08 | 2:46.68 | 82433 | 94950
10 | 21:06.01 | 2:43.29 | 94951 | 107204
11 | 23:49.30 | 2:23.66 | 107205 | 117995
12 | 26:13.21 | 2:13.43 | 117996 | 128013
13 | 28:26.64 | 2:32.36 | 128014 | 139449
14 | 30:59.25 | 2:15.54 | 139450 | 149628
15 | 33:15.04 | 2:40.01 | 149629 | 161629
16 | 35:55.05 | 1:59.74 | 161630 | 170628
17 | 37:55.04 | 2:19.38 | 170629 | 181091
18 | 40:14.42 | 1:49.27 | 181092 | 189293
19 | 42:03.69 | 1:43.14 | 189294 | 197032
20 | 43:47.08 | 1:47.07 | 197033 | 205064
21 | 45:34.15 | 2:37.26 | 205065 | 216865
22 | 48:11.41 | 1:41.47 | 216866 | 224487
23 | 49:53.13 | 0:53.41 | 224488 | 228503
24 | 50:46.54 | 5:49.54 | 228504 | 254732

Track 1 Filename E:\Ups\Naked City - Heretic, Jeux Des Dames Cruelles (2005) [FLAC] {Tzadik, Complete Studio Recordings Box Set}\01 - Naked City - Main Titles.wav Pre-gap length 0:00:02.00 Peak level 98.8 %
Track quality 100.0 %
Test CRC 41A9EA8D
Copy CRC 41A9EA8D
Copy OK

Track 2 Filename E:\Ups\Naked City - Heretic, Jeux Des Dames Cruelles (2005) [FLAC] {Tzadik, Complete Studio Recordings Box Set}\02 - Naked City - Sex Games.wav Pre-gap length 0:00:02.08 Peak level 98.8 %
Track quality 100.0 %
Test CRC E3CEC9D4
Copy CRC E3CEC9D4
Copy OK

Track 3 Filename E:\Ups\Naked City - Heretic, Jeux Des Dames Cruelles (2005) [FLAC] {Tzadik, Complete Studio Recordings Box Set}\03 - Naked City - The Brood.wav Pre-gap length 0:00:02.32 Peak level 98.8 %
Track quality 100.0 %
Test CRC A912A0A5
Copy CRC A912A0A5
Copy OK

Track 4 Filename E:\Ups\Naked City - Heretic, Jeux Des Dames Cruelles (2005) [FLAC] {Tzadik, Complete Studio Recordings Box Set}\04 - Naked City - Sweat, Sperm plus Blood.wav Pre-gap length 0:00:01.16 Peak level 98.8 %
Track quality 100.0 %
Test CRC 18674089
Copy CRC 18674089
Copy OK

Track 5 Filename E:\Ups\Naked City - Heretic, Jeux Des Dames Cruelles (2005) [FLAC] {Tzadik, Complete Studio Recordings Box Set}\05 - Naked City - Vliet.wav Pre-gap length 0:00:01.48 Peak level 98.8 %
Track quality 99.7 %
Test CRC F3CAF96A
Copy CRC F3CAF96A
Copy OK

Track 6 Filename E:\Ups\Naked City - Heretic, Jeux Des Dames Cruelles (2005) [FLAC] {Tzadik, Complete Studio Recordings Box Set}\06 - Naked City - Heretic 1.wav Peak level 98.8 %
Track quality 100.0 %
Test CRC 7A555A26
Copy CRC 7A555A26
Copy OK

Track 7 Filename E:\Ups\Naked City - Heretic, Jeux Des Dames Cruelles (2005) [FLAC] {Tzadik, Complete Studio Recordings Box Set}\07 - Naked City - Submission.wav Pre-gap length 0:00:01.04 Peak level 98.8 %
Track quality 100.0 %
Test CRC 863A952B
Copy CRC 863A952B
Copy OK

Track 8 Filename E:\Ups\Naked City - Heretic, Jeux Des Dames Cruelles (2005) [FLAC] {Tzadik, Complete Studio Recordings Box Set}\08 - Naked City - Heretic 2.wav Pre-gap length 0:00:01.21 Peak level 98.8 %
Track quality 100.0 %
Test CRC D6F72894
Copy CRC D6F72894
Copy OK

Track 9 Filename E:\Ups\Naked City - Heretic, Jeux Des Dames Cruelles (2005) [FLAC] {Tzadik, Complete Studio Recordings Box Set}\09 - Naked City - Catacombs.wav Pre-gap length 0:00:02.05 Peak level 98.8 %
Track quality 100.0 %
Test CRC 72E10A3B
Copy CRC 72E10A3B
Copy OK

Track 10 Filename E:\Ups\Naked City - Heretic, Jeux Des Dames Cruelles (2005) [FLAC] {Tzadik, Complete Studio Recordings Box Set}\10 - Naked City - Heretic 3.wav Peak level 98.8 %
Track quality 99.9 %
Test CRC B047ABAE
Copy CRC B047ABAE
Copy OK

Track 11 Filename E:\Ups\Naked City - Heretic, Jeux Des Dames Cruelles (2005) [FLAC] {Tzadik, Complete Studio Recordings Box Set}\11 - Naked City - My Master, My Slave.wav Pre-gap length 0:00:01.82 Peak level 98.8 %
Track quality 100.0 %
Test CRC 6A650555
Copy CRC 6A650555
Copy OK

Track 12 Filename E:\Ups\Naked City - Heretic, Jeux Des Dames Cruelles (2005) [FLAC] {Tzadik, Complete Studio Recordings Box Set}\12 - Naked City - Saint Jude.wav Peak level 98.8 %
Track quality 100.0 %
Test CRC D7779CF9
Copy CRC D7779CF9
Copy OK

Track 13 Filename E:\Ups\Naked City - Heretic, Jeux Des Dames Cruelles (2005) [FLAC] {Tzadik, Complete Studio Recordings Box Set}\13 - Naked City - The Conqueror Worm.wav Pre-gap length 0:00:01.28 Peak level 98.8 %
Track quality 100.0 %
Test CRC 7FAAB8E6
Copy CRC 7FAAB8E6
Copy OK

Track 14 Filename E:\Ups\Naked City - Heretic, Jeux Des Dames Cruelles (2005) [FLAC] {Tzadik, Complete Studio Recordings Box Set}\14 - Naked City - Dominatrix 5B.wav Peak level 98.8 %
Track quality 100.0 %
Test CRC 52D7BD2E
Copy CRC 52D7BD2E
Copy OK

Track 15 Filename E:\Ups\Naked City - Heretic, Jeux Des Dames Cruelles (2005) [FLAC] {Tzadik, Complete Studio Recordings Box Set}\15 - Naked City - Back Through the Looking Glass.wav Peak level 98.8 %
Track quality 100.0 %
Test CRC 81BA9F3B
Copy CRC 81BA9F3B
Copy OK

Track 16 Filename E:\Ups\Naked City - Heretic, Jeux Des Dames Cruelles (2005) [FLAC] {Tzadik, Complete Studio Recordings Box Set}\16 - Naked City - Here Come the 7,000 Frogs.wav Pre-gap length 0:00:01.10 Peak level 98.8 %
Track quality 100.0 %
Test CRC BCCCB568
Copy CRC BCCCB568
Copy OK

Track 17 Filename E:\Ups\Naked City - Heretic, Jeux Des Dames Cruelles (2005) [FLAC] {Tzadik, Complete Studio Recordings Box Set}\17 - Naked City - Slaughterhouse, Chase Sequence.wav Peak level 98.8 %
Track quality 100.0 %
Test CRC BCD54AA3
Copy CRC BCD54AA3
Copy OK

Track 18 Filename E:\Ups\Naked City - Heretic, Jeux Des Dames Cruelles (2005) [FLAC] {Tzadik, Complete Studio Recordings Box Set}\18 - Naked City - Castle Keep.wav Pre-gap length 0:00:01.76 Peak level 98.8 %
Track quality 100.0 %
Test CRC 2AF533A1
Copy CRC 2AF533A1
Copy OK

Track 19 Filename E:\Ups\Naked City - Heretic, Jeux Des Dames Cruelles (2005) [FLAC] {Tzadik, Complete Studio Recordings Box Set}\19 - Naked City - Mantra of Resurrected Shit.wav Pre-gap length 0:00:01.29 Peak level 98.8 %
Track quality 100.0 %
Test CRC E3C6E121
Copy CRC E3C6E121
Copy OK

Track 20 Filename E:\Ups\Naked City - Heretic, Jeux Des Dames Cruelles (2005) [FLAC] {Tzadik, Complete Studio Recordings Box Set}\20 - Naked City - Trypsicore.wav Pre-gap length 0:00:01.53 Peak level 98.8 %
Track quality 100.0 %
Test CRC 6E56FC13
Copy CRC 6E56FC13
Copy OK

Track 21 Filename E:\Ups\Naked City - Heretic, Jeux Des Dames Cruelles (2005) [FLAC] {Tzadik, Complete Studio Recordings Box Set}\21 - Naked City - Fire and Ice (club scene).wav Peak level 98.8 %
Track quality 100.0 %
Test CRC A40EF235
Copy CRC A40EF235
Copy OK

Track 22 Filename E:\Ups\Naked City - Heretic, Jeux Des Dames Cruelles (2005) [FLAC] {Tzadik, Complete Studio Recordings Box Set}\22 - Naked City - Crosstalk.wav Peak level 98.8 %
Track quality 99.8 %
Test CRC C0EB0BFF
Copy CRC C0EB0BFF
Copy OK

Track 23 Filename E:\Ups\Naked City - Heretic, Jeux Des Dames Cruelles (2005) [FLAC] {Tzadik, Complete Studio Recordings Box Set}\23 - Naked City - Copraphagist Rituals.wav Pre-gap length 0:00:01.34 Peak level 98.8 %
Track quality 100.0 %
Test CRC FCEEAA7E
Copy CRC FCEEAA7E
Copy OK

Track 24 Filename E:\Ups\Naked City - Heretic, Jeux Des Dames Cruelles (2005) [FLAC] {Tzadik, Complete Studio Recordings Box Set}\24 - Naked City - Labyrinth.wav Peak level 98.8 %
Track quality 100.0 %
Test CRC AC85D5E2
Copy CRC AC85D5E2
Copy OK

No errors occurred

End of status report

John Zorn - Naked City - The Complete Studio Recordings (2005) [5CD Box Set] {Tzadik}


-

John Zorn - Naked City - The Complete Studio Recordings (2005) [5CD Box Set] {Tzadik}
Radio (1993)
EAC rip (secure mode) | FLAC (tracks)+CUE+LOG -> 416 Mb | MP3 @320 -> 138 Mb

"Naked City was a band of excellent N.Y.C.-based improvisers from the late '80s to 1993, led by avant-alto saxophonist and composer John Zorn. Unlike their self-titled debut and the second Avant release Grand Guignol, there are no cover tunes on this release, entitled Radio. Several genres and bands are skillfully evoked, however, and helpfully listed in the liner notes in order of occurrence. Jazz, surf, R&B, death metal, funk, acid rock, and serialism are grafted together in this collection, often into the same song, and the band shifts genres, tempos, and arrangements on a dime.

Supposedly, Radio was conceived as a set for a college radio program, making it a kind of "Young Person's Guide to Naked City," beginning with accessible tunes, gradually building up listener tolerance to dissonance, and finally sandbagging the listener with evil blasts of dissonant metallic noise and convincing perpetrator-and-victim screaming.

Zorn gives ace guitarist Bill Frisell and versatile keyboardist Wayne Horvitz the space to shine on this collection, and both more than meet the challenges of these pieces. Avant-garde guitarist Fred Frith takes a supporting role in the band, supplying an in-the-pocket bass that keeps the funkier tracks cooking, and the depth and range of his playing on these tunes is a consistent pleasure.

Master drummer Joey Baron alternates restraint and abandon, keeping solid time on the jazz tunes, throwing tasty fills into the funk, and laying down a muscular, punishing thrash on the metal sections. Zorn himself does a fair amount of his balloon-animal-twisting squeals and sustained shrieking blasts, but he does vary the palette. Listed also as a full band member on Radio (but not performing on every piece) is Japanese noisecore/funk screamer Yamatsuka Eye of the Boredoms (now going by Yamataka Eye). His babbling, howling, choking, and flat-out screams of terror take many of the metal performances well over the top."


tracklist:
01. Asylum
02. Sunset Surfer
03. Party Girl
04. The Outsider
05. Triggerfingers
06. Terkmani Teepee
07. Sex Friend
08. Razorwire
09. The Bitter And The Sweet
10. Krazy Kat
11. The Vault
12. Metalov
13. Poisonhead
14. Bone Orchard
15. I Die Screaming
16. Pistol Whipping
17. Skatekey
18. Shock Corridor
19. American Psycho

Exact Audio Copy V0.99 prebeta 3 from 28. July 2007

EAC extraction logfile from 22. March 2009, 16:48

Naked City / Radio

Used drive : MATSHITAUJDA765aDVD/CDRW Adapter: 0 ID: 1

Read mode : Secure
Utilize accurate stream : Yes
Defeat audio cache : Yes
Make use of C2 pointers : No

Read offset correction

: 102
Overread into Lead-In and Lead-Out : No
Fill up missing offset samples with silence : Yes
Delete leading and trailing silent blocks : No
Null samples used in CRC calculations : Yes
Used interface
: Installed external ASPI interface
Gap handling
: Appended to previous track

Used output format : User Defined Encoder
Selected bitrate : 192 kBit/s
Quality : High
Add ID3 tag : No
Command line compressor : C:\Program Files\Exact Audio Copy\Flac\flac.exe
Additional command line options : -8 -V -T "ARTIST=%a" -T "TITLE=%t" -T "ALBUM=%g" -T "DATE=%y" -T "TRACKNUMBER=%n" -T "GENRE=%m" -T "COMMENT=EAC FLAC -8" %s

TOC of the extracted CD Track | Start | Length | Start sector | End sector
--1 | 0:00.00 | 1:55.48 | 0 | 8672 2 | 1:55.48 | 3:24.28 | 8673 | 24000 3 | 5:20.01 | 2:33.56 | 24001 | 35531 4 | 7:53.57 | 2:28.04 | 35532 | 46635 5 | 10:21.61 | 3:31.60 | 46636 | 62520 6 | 13:53.46 | 3:59.10 | 62521 | 80455 7 | 17:52.56 | 3:32.02 | 80456 | 96357 8 | 21:24.58 | 5:31.06 | 96358 | 121188 9 | 26:55.64 | 4:52.45 | 121189 | 143133
10 | 31:48.34 | 1:54.33 | 143134 | 151716
11 | 33:42.67 | 4:44.28 | 151717 | 173044
12 | 38:27.20 | 2:07.34 | 173045 | 182603
13 | 40:34.54 | 1:09.64 | 182604 | 187842
14 | 41:44.43 | 3:54.59 | 187843 | 205451
15 | 45:39.27 | 2:29.03 | 205452 | 216629
16 | 48:08.30 | 0:57.30 | 216630 | 220934
17 | 49:05.60 | 1:24.52 | 220935 | 227286
18 | 50:30.37 | 1:08.20 | 227287 | 232406
19 | 51:38.57 | 6:09.19 | 232407 | 260100

Track 1 Filename E:\Ups\Naked City - Radio (2005) [FLAC] {Tzadik, Complete Studio Recordings Box Set}\01 - Naked City - Asylum.wav Pre-gap length 0:00:02.00 Peak level 100.0 %
Track quality 100.0 %
Test CRC 44A40CD0
Copy CRC 44A40CD0
Copy OK

Track 2 Filename E:\Ups\Naked City - Radio (2005) [FLAC] {Tzadik, Complete Studio Recordings Box Set}\02 - Naked City - Sunset Surfer.wav Peak level 100.0 %
Track quality 100.0 %
Test CRC DE0A2221
Copy CRC DE0A2221
Copy OK

Track 3 Filename E:\Ups\Naked City - Radio (2005) [FLAC] {Tzadik, Complete Studio Recordings Box Set}\03 - Naked City - Party Girl.wav Pre-gap length 0:00:01.30 Peak level 100.0 %
Track quality 99.9 %
Test CRC 174F85CC
Copy CRC 174F85CC
Copy OK

Track 4 Filename E:\Ups\Naked City - Radio (2005) [FLAC] {Tzadik, Complete Studio Recordings Box Set}\04 - Naked City - The Outsider.wav Peak level 100.0 %
Track quality 100.0 %
Test CRC 292E3054
Copy CRC 292E3054
Copy OK

Track 5 Filename E:\Ups\Naked City - Radio (2005) [FLAC] {Tzadik, Complete Studio Recordings Box Set}\05 - Naked City - Triggerfingers.wav Peak level 100.0 %
Track quality 100.0 %
Test CRC 9E897DE3
Copy CRC 9E897DE3
Copy OK

Track 6 Filename E:\Ups\Naked City - Radio (2005) [FLAC] {Tzadik, Complete Studio Recordings Box Set}\06 - Naked City - Terkmani Teepee.wav Peak level 100.0 %
Track quality 100.0 %
Test CRC 99B62632
Copy CRC 99B62632
Copy OK

Track 7 Filename E:\Ups\Naked City - Radio (2005) [FLAC] {Tzadik, Complete Studio Recordings Box Set}\07 - Naked City - Sex Flend.wav Pre-gap length 0:00:02.33 Peak level 100.0 %
Track quality 100.0 %
Test CRC 66A43CD3
Copy CRC 66A43CD3
Copy OK

Track 8 Filename E:\Ups\Naked City - Radio (2005) [FLAC] {Tzadik, Complete Studio Recordings Box Set}\08 - Naked City - Razorwire.wav Peak level 100.0 %
Track quality 99.9 %
Test CRC 97B258D7
Copy CRC 97B258D7
Copy OK

Track 9 Filename E:\Ups\Naked City - Radio (2005) [FLAC] {Tzadik, Complete Studio Recordings Box Set}\09 - Naked City - The Bitter and The Sweet.wav Pre-gap length 0:00:03.18 Peak level 100.0 %
Track quality 100.0 %
Test CRC 96612046
Copy CRC 96612046
Copy OK

Track 10 Filename E:\Ups\Naked City - Radio (2005) [FLAC] {Tzadik, Complete Studio Recordings Box Set}\10 - Naked City - Krazy Kat.wav Pre-gap length 0:00:04.61 Peak level 100.0 %
Track quality 100.0 %
Test CRC 0CF292E7
Copy CRC 0CF292E7
Copy OK

Track 11 Filename E:\Ups\Naked City - Radio (2005) [FLAC] {Tzadik, Complete Studio Recordings Box Set}\11 - Naked City - The Vault.wav Pre-gap length 0:00:02.60 Peak level 100.0 %
Track quality 100.0 %
Test CRC C95A68EB
Copy CRC C95A68EB
Copy OK

Track 12 Filename E:\Ups\Naked City - Radio (2005) [FLAC] {Tzadik, Complete Studio Recordings Box Set}\12 - Naked City - Metaltov.wav Peak level 100.0 %
Track quality 100.0 %
Test CRC EF7D2952
Copy CRC EF7D2952
Copy OK

Track 13 Filename E:\Ups\Naked City - Radio (2005) [FLAC] {Tzadik, Complete Studio Recordings Box Set}\13 - Naked City - Poisonhead.wav Peak level 100.0 %
Track quality 100.0 %
Test CRC 7A74E580
Copy CRC 7A74E580
Copy OK

Track 14 Filename E:\Ups\Naked City - Radio (2005) [FLAC] {Tzadik, Complete Studio Recordings Box Set}\14 - Naked City - Bone Orchard.wav Peak level 100.0 %
Track quality 99.9 %
Test CRC CE24442F
Copy CRC CE24442F
Copy OK

Track 15 Filename E:\Ups\Naked City - Radio (2005) [FLAC] {Tzadik, Complete Studio Recordings Box Set}\15 - Naked City - I Die Screaming.wav Pre-gap length 0:00:02.18 Peak level 100.0 %
Track quality 100.0 %
Test CRC E23657FB
Copy CRC E23657FB
Copy OK

Track 16 Filename E:\Ups\Naked City - Radio (2005) [FLAC] {Tzadik, Complete Studio Recordings Box Set}\16 - Naked City - Pistol Whipping.wav Peak level 100.0 %
Track quality 100.0 %
Test CRC 2548C8A2
Copy CRC 2548C8A2
Copy OK

Track 17 Filename E:\Ups\Naked City - Radio (2005) [FLAC] {Tzadik, Complete Studio Recordings Box Set}\17 - Naked City - Skatekey.wav Peak level 100.0 %
Track quality 100.0 %
Test CRC DD0F67DB
Copy CRC DD0F67DB
Copy OK

Track 18 Filename E:\Ups\Naked City - Radio (2005) [FLAC] {Tzadik, Complete Studio Recordings Box Set}\18 - Naked City - Shock Corridor.wav Peak level 100.0 %
Track quality 100.0 %
Test CRC 9A33BEE6
Copy CRC 9A33BEE6
Copy OK

Track 19 Filename E:\Ups\Naked City - Radio (2005) [FLAC] {Tzadik, Complete Studio Recordings Box Set}\19 - Naked City - American Psycho.wav Pre-gap length 0:00:03.26 Peak level 100.0 %
Track quality 99.9 %
Test CRC 4EE0DA64
Copy CRC 4EE0DA64
Copy OK

No errors occurred

End of status report

John Zorn - Naked City - The Complete Studio Recordings (2005) [5CD Box Set] {Tzadik}


-
Direct Download

Tags: Complete, Studio, Recordings, Tzadik

John Zorn - Naked City - The Complete Studio Recordings (2005) [5CD Box Set] {Tzadik} Download via Hotfile Rapidshare Fileserve Megaupload & FileSonic, John Zorn - Naked City - The Complete Studio Recordings (2005) [5CD Box Set] {Tzadik} free torrent downloads included crack, serial, keygen.John Zorn - Naked City - The Complete Studio Recordings (2005) [5CD Box Set] {Tzadik} Fast Download via Rapidshare Hotfile Fileserve Filesonic Megaupload, John Zorn - Naked City - The Complete Studio Recordings (2005) [5CD Box Set] {Tzadik} Torrents and Emule Download or anything related.
Leave a Comment
Your Name:
E-Mail:
Add Comments:

Enter Code: