Bobby Hutcherson - The View From The Inside (1976) {2013 Japanese BNLA Series 24-bit Remaster}

Download Now


Bobby Hutcherson - The View From The Inside (1976) {2013 Japanese BNLA Series 24-bit Remaster}
Bobby Hutcherson - The View From The Inside (1976) {2013 Japanese BNLA Series 24-bit Remaster}
EAC rip (secure mode) | FLAC (tracks)+CUE+LOG -> 243 Mb | MP3 @320 -> 102 Mb
Full Artwork @ 600 dpi (png) -> 192 Mb | 5% repair rar | 24bit remaster
© 2013 Blue Note / EMI Music Japan | TOCJ-50580
Jazz / Hard Bop / Post Bop / Vibes

"Sweet 70s grooves from Bobby Hutcherson - an overlooked mid 70s gem for Blue Note - done in a style that's a bit more laidback than some of his other work for the label! The group here is similar to that used on the Waiting album - and Emmanuel Boyd turns in some great tenor and soprano sax, really underscoring the deeper sounds of Bobby's vibes. But this time around, there's also lots of sweet keyboards from Larry Nash - who plays Fender Rhodes with some warmer elements that unlock a great mellow side of Hutcherson's playing - almost giving the record a Roy Ayers vibe at times! Titles include "Later Even", "Same Shame", "Love Can Be Many Things", and "Song For Annie"."

Bobby Hutcherson - The View From The Inside (1976) {2013 Japanese BNLA Series 24-bit Remaster}


Personnel:
Bobby Hutcherson - vibes
Manny Boyd - tenor saxophone, soprano saxophone
Larry Nash - piano, electric piano
James Leary - bass
Eddie Marshall - drums

Bobby Hutcherson - The View From The Inside (1976) {2013 Japanese BNLA Series 24-bit Remaster}


tracklist:
01 - Later, Even
02 - Houston St., Thursday Afternoon
03 - Same Shame
04 - Love Can Be Many Things
05 - Song For Annie
06 - Laugh, Laugh Again
07 - For Heaven's Sake

Exact Audio Copy V1.0 beta 6 from 9. April 2015

EAC extraction logfile from 8. July 2015, 14:50

Bobby Hutcherson / The View From The Inside

Used drive : ATAPI iHAS124 B Adapter: 2 ID: 0

Read mode : Secure
Utilize accurate stream : Yes
Defeat audio cache : Yes
Make use of C2 pointers : No

Read offset correction

: 6
Overread into Lead-In and Lead-Out : No
Fill up missing offset samples with silence : Yes
Delete leading and trailing silent blocks : No
Null samples used in CRC calculations : Yes
Used interface
: Installed external ASPI interface
Gap handling
: Appended to previous track

Used output format : User Defined Encoder
Selected bitrate : 1024 kBit/s
Quality : High
Add ID3 tag : No
Command line compressor : C:\Program Files (x86)\FLAC Frontend\tools\flac.exe
Additional command line options : -8 -V -T "ARTIST=%artist%" -T "TITLE=%title%" -T "ALBUM=%albumtitle%" -T "DATE=%year%" -T "TRACKNUMBER=%tracknr%" -T "TOTALTRACKS=%numtracks%" -T "GENRE=%genre%" -T "ALBUMARTIST=%albumartist%" -T "ALBUM ARTIST=%albumartist%" -T "COMMENT=EAC Secure Mode, Test & Copy, AccurateRip, FLAC -8" %source%

TOC of the extracted CD Track | Start | Length | Start sector | End sector
--1 | 0:00.00 | 3:50.16 | 0 | 17265 2 | 3:50.16 | 6:25.20 | 17266 | 46160 3 | 10:15.36 | 10:22.40 | 46161 | 92850 4 | 20:38.01 | 4:47.37 | 92851 | 114412 5 | 25:25.38 | 6:27.54 | 114413 | 143491 6 | 31:53.17 | 4:17.59 | 143492 | 162825 7 | 36:11.01 | 6:36.28 | 162826 | 192553

Track 1 Filename D:\_EAC\Bobby Hutcherson - The View From The Inside (1976) [FLAC] {2013 Japanese BNLA}\01 - Later, Even.wav Pre-gap length 0:00:02.00 Peak level 96.9 %
Extraction speed 3.3 X
Track quality 100.0 %
Test CRC A11A7C28
Copy CRC A11A7C28
Accurately ripped (confidence 2) [E7612A96] (AR v2)
Copy OK

Track 2 Filename D:\_EAC\Bobby Hutcherson - The View From The Inside (1976) [FLAC] {2013 Japanese BNLA}\02 - Houston St., Thursday Afternoon.wav Pre-gap length 0:00:00.09 Peak level 96.8 %
Extraction speed 4.1 X
Track quality 100.0 %
Test CRC F9BBCC45
Copy CRC F9BBCC45
Accurately ripped (confidence 2) [25EA2A5D] (AR v2)
Copy OK

Track 3 Filename D:\_EAC\Bobby Hutcherson - The View From The Inside (1976) [FLAC] {2013 Japanese BNLA}\03 - Same Shame.wav Pre-gap length 0:00:00.38 Peak level 97.3 %
Extraction speed 5.0 X
Track quality 100.0 %
Test CRC 34C421FC
Copy CRC 34C421FC
Accurately ripped (confidence 2) [7F866B6E] (AR v2)
Copy OK

Track 4 Filename D:\_EAC\Bobby Hutcherson - The View From The Inside (1976) [FLAC] {2013 Japanese BNLA}\04 - Love Can Be Many Things.wav Pre-gap length 0:00:00.54 Peak level 96.9 %
Extraction speed 4.3 X
Track quality 99.9 %
Test CRC 4349CDE1
Copy CRC 4349CDE1
Accurately ripped (confidence 2) [D9E92DA9] (AR v2)
Copy OK

Track 5 Filename D:\_EAC\Bobby Hutcherson - The View From The Inside (1976) [FLAC] {2013 Japanese BNLA}\05 - Song For Annie.wav Peak level 96.8 %
Extraction speed 5.7 X
Track quality 100.0 %
Test CRC 5E6E6FFF
Copy CRC 5E6E6FFF
Accurately ripped (confidence 2) [6DB4888E] (AR v2)
Copy OK

Track 6 Filename D:\_EAC\Bobby Hutcherson - The View From The Inside (1976) [FLAC] {2013 Japanese BNLA}\06 - Laugh, Laugh Again.wav Pre-gap length 0:00:01.14 Peak level 97.6 %
Extraction speed 5.8 X
Track quality 100.0 %
Test CRC A5D6DFDB
Copy CRC A5D6DFDB
Accurately ripped (confidence 2) [8A8113CB] (AR v2)
Copy OK

Track 7 Filename D:\_EAC\Bobby Hutcherson - The View From The Inside (1976) [FLAC] {2013 Japanese BNLA}\07 - For Heaven's Sake.wav Pre-gap length 0:00:00.42 Peak level 96.8 %
Extraction speed 6.4 X
Track quality 100.0 %
Test CRC 896FF397
Copy CRC 896FF397
Accurately ripped (confidence 2) [8D64F2F1] (AR v2)
Copy OK

All tracks accurately ripped

No errors occurred

End of status report

==== Log checksum 5596578EE2711D67E635C25F859D2E13A9520401C71D3507D6763E8AEA8378F2 ====

Bobby Hutcherson - The View From The Inside (1976) {2013 Japanese BNLA Series 24-bit Remaster}

Bobby Hutcherson - The View From The Inside (1976) {2013 Japanese BNLA Series 24-bit Remaster}

DOWNLOAD LINKS
Buy Premium From My Links To Get Resumable Support & Max Speed & To Support Me


Links are Interchangeable - No Password - Single Extraction
Direct Download

Tags: Hutcherson, Inside, Japanese, Series, Remaster

Bobby Hutcherson - The View From The Inside (1976) {2013 Japanese BNLA Series 24-bit Remaster} Download via Hotfile Rapidshare Fileserve Megaupload & FileSonic, Bobby Hutcherson - The View From The Inside (1976) {2013 Japanese BNLA Series 24-bit Remaster} free torrent downloads included crack, serial, keygen.Bobby Hutcherson - The View From The Inside (1976) {2013 Japanese BNLA Series 24-bit Remaster} Fast Download via Rapidshare Hotfile Fileserve Filesonic Megaupload, Bobby Hutcherson - The View From The Inside (1976) {2013 Japanese BNLA Series 24-bit Remaster} Torrents and Emule Download or anything related.
Leave a Comment
Your Name:
E-Mail:
Add Comments:

Enter Code: