Gary Peacock - Tales Of Another (1977) {ECM 1101} [Re-Up]

Download Now

Gary Peacock - Tales Of Another (1977) {ECM 1101} [Re-Up]

Gary Peacock / Keith Jarrett / Jack DeJohnette - Tales Of Another (1977) {ECM 1101}
EAC 1.0b3 | FLAC tracks level 8 | Cue+Log+M3U | Full Scans 300dpi | 256MB + 5% Recovery
Genre: Jazz

"Bassist Gary Peacock contributed all six originals to this set which also features pianist Keith Jarrett and drummer Jack DeJohnette. These musicians (who are equals) have played together many times through the years and their support of each other and close communication during these advanced improvisations is quite impressive. It's a good example of Peacock's music."

Track List
01. Vignette 7:03
02. Tone Field 7:56
03. Major Major 8:58
04. Trilogy I 8:31
05. Trilogy II 9:42
06. Trilogy III 6:20

musicians
Gary Peacock - bass
Keith Jarrett - piano
Jack DeJohnette - drums

All compositions by Gary Peacock

Produced by Manfred Eicher

Exact Audio Copy V1.0 beta 3 from 29. August 2011

EAC extraction logfile from 14. August 2012, 21:04

Gary Peacock / Tales of Another

Used drive : TSSTcorpCDDVDW SE-S084F Adapter: 1 ID: 0

Read mode : Secure
Utilize accurate stream : Yes
Defeat audio cache : Yes
Make use of C2 pointers : No

Read offset correction

: 6
Overread into Lead-In and Lead-Out : No
Fill up missing offset samples with silence : Yes
Delete leading and trailing silent blocks : No
Null samples used in CRC calculations : Yes
Used interface
: Native Win32 interface for Win NT & 2000
Gap handling
: Appended to previous track

Used output format : User Defined Encoder
Selected bitrate : 1024 kBit/s
Quality : High
Add ID3 tag : No
Command line compressor : C:\Program Files (x86)\Exact Audio Copy\FLAC\FLAC.EXE
Additional command line options : -8 -V -T "ARTIST=%artist%" -T "TITLE=%title%" -T "ALBUM=%albumtitle%" -T "DATE=%year%" -T "TRACKNUMBER=%tracknr%" -T "GENRE=%genre%" -T "PERFORMER=%albuminterpret%" -T "COMPOSER=%composer%" %haslyrics%--tag-from-file=LYRICS="%lyricsfile%"%haslyrics% -T "ALBUMARTIST=%albumartist%" -T "DISCNUMBER=%cdnumber%" -T "TOTALDISCS=%totalcds%" -T "TOTALTRACKS=%numtracks%" -T "COMMENT=%comment%" %source% -o %dest%

TOC of the extracted CD Track | Start | Length | Start sector | End sector
--1 | 0:00.33 | 7:06.65 | 33 | 32047 2 | 7:07.23 | 7:58.25 | 32048 | 67922 3 | 15:05.48 | 9:05.37 | 67923 | 108834 4 | 24:11.10 | 8:34.05 | 108835 | 147389 5 | 32:45.15 | 9:46.20 | 147390 | 191359 6 | 42:31.35 | 6:20.40 | 191360 | 219899

Track 1 Filename F:\Musique Flac\[Label] ECM\Gary Peacock - Tales Of Another (1977) [FLAC] {ECM 1101}\01 - Vignette .wav Pre-gap length 0:00:02.44 Peak level 71.2 %
Extraction speed 2.7 X
Track quality 100.0 %
Test CRC EDDF97B8
Copy CRC EDDF97B8
Cannot be verified as accurate (confidence 10) [E793CA3F], AccurateRip returned [EE239AA1] (AR v2)
Copy OK

Track 2 Filename F:\Musique Flac\[Label] ECM\Gary Peacock - Tales Of Another (1977) [FLAC] {ECM 1101}\02 - Tone Field .wav Pre-gap length 0:00:03.33 Peak level 70.4 %
Extraction speed 3.4 X
Track quality 100.0 %
Test CRC 92AE5474
Copy CRC 92AE5474
Cannot be verified as accurate (confidence 10) [D882A6AE], AccurateRip returned [92681E64] (AR v2)
Copy OK

Track 3 Filename F:\Musique Flac\[Label] ECM\Gary Peacock - Tales Of Another (1977) [FLAC] {ECM 1101}\03 - Major Major .wav Pre-gap length 0:00:02.17 Peak level 91.6 %
Extraction speed 3.8 X
Track quality 100.0 %
Test CRC 0007F0B3
Copy CRC 0007F0B3
Cannot be verified as accurate (confidence 10) [1B282A90], AccurateRip returned [723F1C14] (AR v2)
Copy OK

Track 4 Filename F:\Musique Flac\[Label] ECM\Gary Peacock - Tales Of Another (1977) [FLAC] {ECM 1101}\04 - Trilogy I .wav Pre-gap length 0:00:07.00 Peak level 78.3 %
Extraction speed 4.3 X
Track quality 100.0 %
Test CRC 39B8B925
Copy CRC 39B8B925
Cannot be verified as accurate (confidence 10) [F6C52461], AccurateRip returned [811869D3] (AR v2)
Copy OK

Track 5 Filename F:\Musique Flac\[Label] ECM\Gary Peacock - Tales Of Another (1977) [FLAC] {ECM 1101}\05 - Trilogy II .wav Pre-gap length 0:00:02.56 Peak level 80.9 %
Extraction speed 4.0 X
Track quality 99.9 %
Test CRC 5C52D483
Copy CRC 5C52D483
Cannot be verified as accurate (confidence 10) [87A4A9AB], AccurateRip returned [51A235E4] (AR v2)
Copy OK

Track 6 Filename F:\Musique Flac\[Label] ECM\Gary Peacock - Tales Of Another (1977) [FLAC] {ECM 1101}\06 - Trilogy III .wav Pre-gap length 0:00:03.53 Peak level 67.8 %
Extraction speed 4.7 X
Track quality 100.0 %
Test CRC 32C51069
Copy CRC 32C51069
Cannot be verified as accurate (confidence 10) [A74636DE], AccurateRip returned [9CB0933A] (AR v2)
Copy OK

No tracks could be verified as accurate
You may have a different pressing from the one(s) in the database

No errors occurred

End of status report

==== Log checksum 83DA0E92D536E66106D0E572F41EA3A3A23F1A111C9BB4013A094C95C15D22E2 ====

Analyzed: Gary Peacock / Tales of Another

DR Peak RMS Duration Track

DR14 -2.95 dB -21.58 dB 7:07 01-Vignette
DR15 -3.04 dB -21.61 dB 7:58 02-Tone Field
DR13 -0.76 dB -19.01 dB 9:05 03-Major Major
DR13 -2.12 dB -19.56 dB 8:34 04-Trilogy I
DR13 -1.84 dB -18.86 dB 9:46 05-Trilogy II
DR13 -3.37 dB -19.02 dB 6:21 06-Trilogy III

Number of tracks: 6
Official DR value: DR13

Samplerate: 44100 Hz
Channels: 2
Bits per sample: 16
Bitrate: 803 kbps
Codec: FLAC

Gary Peacock - Tales Of Another (1977) {ECM 1101} [Re-Up]

Gary Peacock - Tales Of Another (1977) {ECM 1101} [Re-Up]

Gary Peacock - Tales Of Another (1977) {ECM 1101} [Re-Up]

Rip by Ludovico


DOWNLOAD LINKS
Buy Premium From My Links To Get Resumable Support & Max Speed & To Support Me


Links are Interchangeable - No Password - Single Extraction
Direct Download

Tags: Peacock, Another

Gary Peacock - Tales Of Another (1977) {ECM 1101} [Re-Up] Download via Hotfile Rapidshare Fileserve Megaupload & FileSonic, Gary Peacock - Tales Of Another (1977) {ECM 1101} [Re-Up] free torrent downloads included crack, serial, keygen.Gary Peacock - Tales Of Another (1977) {ECM 1101} [Re-Up] Fast Download via Rapidshare Hotfile Fileserve Filesonic Megaupload, Gary Peacock - Tales Of Another (1977) {ECM 1101} [Re-Up] Torrents and Emule Download or anything related.
Leave a Comment
Your Name:
E-Mail:
Add Comments:

Enter Code: