The Beach Boys - The Beach Boys Golden Hits (1991) [Japan, Toshiba-EMI TOCP-6773]

Download Now

The Beach Boys - The Beach Boys Golden Hits (1991) [Japan, Toshiba-EMI TOCP-6773]

The Beach Boys - The Beach Boys Golden Hits (1991)
EAC Rip | FLAC (Img) + Cue + Log ~ 297 Mb | MP3 CBR320 ~ 119 Mb
Scans (JPG, 600 dpi) ~ 90 Mb | RAR 5% Recovery
Pop, Rock | Capitol Records/Toshiba-EMI Ltd. #TOCP-6773

"20-tracks, Japan only Greatest Hits, released in 1991 by Toshiba-EMI Ltd.. Includes 26-page b/w booklet with pics and lyrics in English and Japanese."

Official Website | Wiki | Discogs | All Music
***************

The Beach Boys - The Beach Boys Golden Hits (1991) [Japan, Toshiba-EMI TOCP-6773]

Track List:

01. Surfin' Safari [02:07]
02. Surfin' U.S.A [02:29]
03. Surfer Girl [02:25]
04. Catch A Wave [02:10]
05. In My Room [02:15]
06. Don't Worry Baby [02:49]
07. I Get Around [02:15]
08. Wendy [02:17]
09. Little Honda [01:54]
10. California Girls [02:40]
11. Dance Dance Dance [02:01]
12. Barbara Ann [02:06]
13. Help Me Rhonda [03:10]
14. I Cant Hear Music [02:37]
15. Fun,Fun,Fun [02:06]
16. Good Vibrations [03:39]
17. Sloop John B. [02:57]
18. Bluebirds Over The Mountain [02:54]
19. Darlin' [02:15]
20. God Only Knows [02:47]

Exact Audio Copy V1.0 beta 3 from 29. August 2011

EAC extraction logfile from 17. February 2014, 12:00

the beach boys / the beach boys golden hits

Used drive : SONY CD-RW CRX210E1 Adapter: 0 ID: 0

Read mode : Secure
Utilize accurate stream : Yes
Defeat audio cache : Yes
Make use of C2 pointers : No

Read offset correction

: 6
Overread into Lead-In and Lead-Out : No
Fill up missing offset samples with silence : Yes
Delete leading and trailing silent blocks : No
Null samples used in CRC calculations : Yes
Used interface
: Installed external ASPI interface

Used output format : Internal WAV Routines
Sample format : 44.100 Hz; 16 Bit; Stereo

TOC of the extracted CD Track | Start | Length | Start sector | End sector
--1 | 0:00.00 | 2:06.25 | 0 | 9474 2 | 2:06.25 | 2:28.17 | 9475 | 20591 3 | 4:34.42 | 2:24.73 | 20592 | 31464 4 | 6:59.40 | 2:09.30 | 31465 | 41169 5 | 9:08.70 | 2:14.57 | 41170 | 51276 6 | 11:23.52 | 2:48.28 | 51277 | 63904 7 | 14:12.05 | 2:14.50 | 63905 | 74004 8 | 16:26.55 | 2:16.50 | 74005 | 84254 9 | 18:43.30 | 1:53.15 | 84255 | 92744
10 | 20:36.45 | 2:39.20 | 92745 | 104689
11 | 23:15.65 | 2:00.07 | 104690 | 113696
12 | 25:15.72 | 2:05.25 | 113697 | 123096
13 | 27:21.22 | 3:09.35 | 123097 | 137306
14 | 30:30.57 | 2:36.73 | 137307 | 149079
15 | 33:07.55 | 2:05.42 | 149080 | 158496
16 | 35:13.22 | 3:38.20 | 158497 | 174866
17 | 38:51.42 | 2:56.03 | 174867 | 188069
18 | 41:47.45 | 2:53.55 | 188070 | 201099
19 | 44:41.25 | 2:14.15 | 201100 | 211164
20 | 46:55.40 | 2:46.47 | 211165 | 223661

Range status and errors

Selected range Filename D:\music\Rip by moote\the beach boys - the beach boys golden hits.wav Peak level 91.9 %
Extraction speed 15.2 X
Range quality 100.0 %
Test CRC AFEE6135
Copy CRC AFEE6135
Copy OK

No errors occurred


AccurateRip summary

Track 1 accurately ripped (confidence 2) [69434D70] (AR v2)
Track 2 accurately ripped (confidence 2) [99595137] (AR v2)
Track 3 accurately ripped (confidence 2) [F1EB2A37] (AR v2)
Track 4 accurately ripped (confidence 2) [5AF71035] (AR v2)
Track 5 accurately ripped (confidence 2) [DBA64038] (AR v2)
Track 6 accurately ripped (confidence 2) [62A220D6] (AR v2)
Track 7 accurately ripped (confidence 2) [5214DF85] (AR v2)
Track 8 accurately ripped (confidence 2) [9E1A0368] (AR v2)
Track 9 accurately ripped (confidence 2) [C774A69F] (AR v2)
Track 10 accurately ripped (confidence 2) [A7494D3C] (AR v2)
Track 11 accurately ripped (confidence 2) [7D0A63FE] (AR v2)
Track 12 accurately ripped (confidence 2) [CC217ACC] (AR v2)
Track 13 accurately ripped (confidence 2) [4CE01C94] (AR v2)
Track 14 accurately ripped (confidence 2) [CEFC0646] (AR v2)
Track 15 accurately ripped (confidence 2) [C20FD90D] (AR v2)
Track 16 accurately ripped (confidence 2) [EF1FA67B] (AR v2)
Track 17 accurately ripped (confidence 2) [4EDC4F79] (AR v2)
Track 18 accurately ripped (confidence 2) 19D0666 (AR v2)
Track 19 accurately ripped (confidence 2) [6BF7638A] (AR v2)
Track 20 accurately ripped (confidence 2) 0D0A08B (AR v2)

All tracks accurately ripped

End of status report

==== Log checksum 8293172DD0CA4C840FCD40588E6BAB4CCB8068CCF4A612DBB814B56BE8A96675 ====

foobar2000 1.2.6 / Dynamic Range Meter 1.1.1
log date: 2015-07-11 18:05:25

Analyzed: the beach boys / the beach boys golden hits

DR Peak RMS Duration Track

DR13 -0.73 dB -15.18 dB 2:06 01-surfin' safari
DR11 -2.39 dB -14.55 dB 2:28 02-surfin' u.s.a
DR14 -1.32 dB -17.41 dB 2:25 03-surfer girl
DR11 -1.45 dB -14.81 dB 2:09 04-catch a wave
DR10 -3.54 dB -16.01 dB 2:15 05-in my room
DR11 -2.38 dB -16.17 dB 2:48 06-don't worry baby
DR10 -2.62 dB -15.70 dB 2:15 07-i get around
DR11 -3.03 dB -16.59 dB 2:17 08-wendy
DR10 -1.36 dB -14.83 dB 1:53 09-little honda
DR12 -1.57 dB -17.10 dB 2:39 10-california girls
DR11 -1.25 dB -15.40 dB 2:00 11-dance dance dance
DR13 -0.78 dB -16.11 dB 2:05 12-barbara ann
DR13 -0.80 dB -16.37 dB 3:09 13-help me rhonda
DR12 -1.03 dB -14.05 dB 2:37 14-i cant hear music
DR10 -3.90 dB -16.10 dB 2:06 15-fun,fun,fun
DR12 -2.32 dB -17.22 dB 3:38 16-good vibrations
DR11 -0.93 dB -16.59 dB 2:56 17-sloop john b.
DR12 -0.91 dB -15.15 dB 2:54 18-bluebirds over the mountain
DR10 -2.21 dB -14.74 dB 2:14 19-darlin'
DR11 -3.11 dB -16.83 dB 2:47 20-god only knows

Number of tracks: 20
Official DR value: DR12

Samplerate: 44100 Hz
Channels: 2
Bits per sample: 16
Bitrate: 789 kbps
Codec: FLAC

[CUETools log; Date: 11.07.2015 18:05:08; Version: 2.1.5]
[CTDB TOCID: MmhZ1hyCuTSIIigV1Ueol8Fhoh8-] found.
Track | CTDB Status
1 | (2/2) Accurately ripped
2 | (2/2) Accurately ripped
3 | (2/2) Accurately ripped
4 | (2/2) Accurately ripped
5 | (2/2) Accurately ripped
6 | (2/2) Accurately ripped
7 | (2/2) Accurately ripped
8 | (2/2) Accurately ripped
9 | (2/2) Accurately ripped
10 | (2/2) Accurately ripped
11 | (2/2) Accurately ripped
12 | (2/2) Accurately ripped
13 | (2/2) Accurately ripped
14 | (2/2) Accurately ripped
15 | (2/2) Accurately ripped
16 | (2/2) Accurately ripped
17 | (2/2) Accurately ripped
18 | (2/2) Accurately ripped
19 | (2/2) Accurately ripped
20 | (2/2) Accurately ripped
[AccurateRip ID: 00226529-01fcf4e9-240ba614] found.
Track [ CRC | V2 ] Status
01 [37070c21|69434d70] (0+3/3) Accurately ripped
02 [d7091f44|99595137] (0+3/3) Accurately ripped
03 [1d0839f0|f1eb2a37] (0+3/3) Accurately ripped
04 [039c94e8|5af71035] (0+3/3) Accurately ripped
05 [71956579|dba64038] (0+3/3) Accurately ripped
06 [3ed0616d|62a220d6] (0+3/3) Accurately ripped
07 [5029a55f|5214df85] (0+3/3) Accurately ripped
08 [cce7e859|9e1a0368] (0+3/3) Accurately ripped
09 [47fbe2fc|c774a69f] (0+3/3) Accurately ripped
10 [391b0f1b|a7494d3c] (0+3/3) Accurately ripped
11 [25bb6854|7d0a63fe] (0+3/3) Accurately ripped
12 [48928daf|cc217acc] (0+3/3) Accurately ripped
13 [65ae41be|4ce01c94] (0+3/3) Accurately ripped
14 [4f22f79b|cefc0646] (0+3/3) Accurately ripped
15 [2be9bce0|c20fd90d] (0+3/3) Accurately ripped
16 [46ecc35f|ef1fa67b] (0+3/3) Accurately ripped
17 [9aaad526|4edc4f79] (0+3/3) Accurately ripped
18 [dcff8ab5|b19d0666] (0+3/3) Accurately ripped
19 [a4ec6c5b|6bf7638a] (0+3/3) Accurately ripped
20 [22299ca0|b0d0a08b] (0+3/3) Accurately ripped

Track Peak [ CRC32 ] [W/O NULL] [ LOG ]
-- 91,9 [AFEE6135] [E535206D] CRC32
01 91,9 [A3AA6BC2] [5DC9F4E7]
02 75,9 [11D2F37A] [07CF1B8D]
03 85,9 [725E6F0E] [1CE2540B]
04 84,6 [5490DD37] [586E926E]
05 66,5 [062013F2] [F9BE70D9]
06 76,0 [30CD9241] [2C073ADA]
07 73,9 [07A18EB8] [01B3BB6A]
08 70,5 [D0DB8371] [86FC4843]
09 85,5 [F94AB110] [3EE47D57]
10 83,4 [AE2196FA] [5C4A1CD9]
11 86,5 [20049C2E] [22260A38]
12 91,3 [F3EBEBA6] [8388FFAF]
13 91,1 [7980780C] [89017474]
14 88,8 [D879A2AC] 19FA0A7
15 63,7 [568ABAD3] [6270C0D2]
16 76,5 [606D337E] [01C2E9A6]
17 89,8 [52095F66] [54C62842]
18 90,1 [793E2C12] [E2D06958]
19 77,5 [D9B9D0C9] [ED3DF3B6]
20 69,8 [F14B9DE4] [4888D4DD]

The Beach Boys - The Beach Boys Golden Hits (1991) [Japan, Toshiba-EMI TOCP-6773]

All thanks go to moote


DOWNLOAD LINKS
Buy Premium From My Links To Get Resumable Support & Max Speed & To Support Me


Links are Interchangeable - No Password - Single Extraction
Direct Download

Tags: Golden, Toshiba

The Beach Boys - The Beach Boys Golden Hits (1991) [Japan, Toshiba-EMI TOCP-6773] Download via Hotfile Rapidshare Fileserve Megaupload & FileSonic, The Beach Boys - The Beach Boys Golden Hits (1991) [Japan, Toshiba-EMI TOCP-6773] free torrent downloads included crack, serial, keygen.The Beach Boys - The Beach Boys Golden Hits (1991) [Japan, Toshiba-EMI TOCP-6773] Fast Download via Rapidshare Hotfile Fileserve Filesonic Megaupload, The Beach Boys - The Beach Boys Golden Hits (1991) [Japan, Toshiba-EMI TOCP-6773] Torrents and Emule Download or anything related.
Leave a Comment
Your Name:
E-Mail:
Add Comments:

Enter Code: