Isotope & Gary Boyle - Live At The BBC (2004)

Download Now

Isotope & Gary Boyle - Live At The BBC (2004)

Isotope & Gary Boyle - Live At The BBC (2004)
EAC Rip | WavPack (image+.cue+log) - 316 MB | MP3 CBR 320 kbps (LAME 3.93) - 113 MB | Covers - 61 MB
Genre: Progressive/Jazz Rock | RAR 3% Rec. | Label: Hux Records (HUX048)

"Gary Boyle formed the jazz-rock band, Isotope, in 1973, recruiting three other stalwarts from the jazz field; Nigel Morris, Brian Miller & Jeff Clyne (ex Nucleus). Gary and Nigel had previously been part of Stomu Yamash'ta's band, East Wind. Prior to that, Gary had worked with Dusty Springfield, Brian Auger & Julie Driscoll. Isotope released three albums during the mid 70s, which gained wide acclaim and favourable comparisons with John McLaughlin's Mahavishnu Orchestra. This compilation is comprised of an Isotope BBC concert and an Old Grey Whistle Test show, plus a Gary Boyle session recorded for John Peel. None of these recordings have ever been released before..."

Tracklist:
01. Upward Curve
02. Do The Business
03. Retracing My Steps
04. Honky Donkey
05. Bite On This
06. Upward Curve
07. The Dancer
08. Cowshed Shuffle
09. Almond Burfi

Total time: 48:04

Exact Audio Copy V1.0 beta 3 from 29. August 2011

EAC extraction logfile from 5. October 2013, 6:41

Isotope & Gary Boyle / Live At The BBC

Used drive : HL-DT-STBDDVDRW GBC-H20N Adapter: 1 ID: 0

Read mode : Secure
Utilize accurate stream : Yes
Defeat audio cache : Yes
Make use of C2 pointers : No

Read offset correction

: 667
Overread into Lead-In and Lead-Out : No
Fill up missing offset samples with silence : Yes
Delete leading and trailing silent blocks : No
Null samples used in CRC calculations : Yes
Used interface
: Native Win32 interface for Win NT & 2000

Used output format : User Defined Encoder
Selected bitrate : 1024 kBit/s
Quality : High
Add ID3 tag : No
Command line compressor : C:\Program Files\Exact Audio Copy\wavpack.exe
Additional command line options : -hm %source% %dest%

TOC of the extracted CD Track | Start | Length | Start sector | End sector
--1 | 0:00.00 | 5:04.43 | 0 | 22842 2 | 5:04.43 | 5:57.60 | 22843 | 49677 3 | 11:02.28 | 5:23.08 | 49678 | 73910 4 | 16:25.36 | 7:23.22 | 73911 | 107157 5 | 23:48.58 | 2:12.54 | 107158 | 117111 6 | 26:01.37 | 4:52.68 | 117112 | 139079 7 | 30:54.30 | 6:36.15 | 139080 | 168794 8 | 37:30.45 | 6:19.30 | 168795 | 197249 9 | 43:50.00 | 4:14.09 | 197250 | 216308

Range status and errors

Selected range Filename C:\Users\ProgDog\Music\ZALIVKI\Canterbury Scene\Isotope\4 - 2004 - Live at the BBC (1973-1974)\Isotope & Gary Boyle - Live At The BBC.wav Peak level 81.9 %
Extraction speed 5.8 X
Range quality 99.9 %
Test CRC 4872E301
Copy CRC 4872E301
Copy OK

No errors occurred


AccurateRip summary

Track 1 accurately ripped (confidence 2) 75F3A9B (AR v1)
Track 2 accurately ripped (confidence 2) [63E3AA09] (AR v1)
Track 3 accurately ripped (confidence 2) [80E2A4EE] (AR v1)
Track 4 accurately ripped (confidence 2) 274BC66 (AR v1)
Track 5 accurately ripped (confidence 2) [44BD761E] (AR v1)
Track 6 accurately ripped (confidence 2) [4D1EBFE6] (AR v1)
Track 7 accurately ripped (confidence 2) [7B226CF0] (AR v1)
Track 8 accurately ripped (confidence 2) [5AD00194] (AR v1)
Track 9 accurately ripped (confidence 2) [3DF35EF0] (AR v1)

All tracks accurately ripped

End of status report

- CUETools DB Plugin V2.1.3

[CTDB TOCID: sUlrNV4MjSQVMjLSEghW1jv1X9M-] found, Submit result: sUlrNV4MjSQVMjLSEghW1jv1X9M- has been confirmed
[2e3517fb] (6/6) Accurately ripped

==== Log checksum AC0E96B9FEF4E817957E39EC7D5B815D16FB22A61F472CF83403B7BA2DCEF672 ====

[CUETools log; Date: 10.07.2015 13:49:55; Version: 2.1.4]
[CTDB TOCID: sUlrNV4MjSQVMjLSEghW1jv1X9M-] found.
Track | CTDB Status
1 | (5/5) Accurately ripped
2 | (5/5) Accurately ripped
3 | (5/5) Accurately ripped
4 | (5/5) Accurately ripped
5 | (5/5) Accurately ripped
6 | (5/5) Accurately ripped
7 | (5/5) Accurately ripped
8 | (5/5) Accurately ripped
9 | (5/5) Accurately ripped
[AccurateRip ID: 0010aa28-0079ef2f-760b4409] found.
Track [ CRC | V2 ] Status
01 75f3a9b|5bdaa540 (2+0/8) Accurately ripped
02 [63e3aa09|0875cc26] (2+0/8) Accurately ripped
03 [80e2a4ee|0fb6c877] (2+0/8) Accurately ripped
04 274bc66|5dd954a0 (2+0/8) Accurately ripped
05 [44bd761e|1306af7f] (2+0/8) Accurately ripped
06 [4d1ebfe6|b183d79a] (2+0/8) Accurately ripped
07 [7b226cf0|489d12d1] (2+0/8) Accurately ripped
08 [5ad00194|77c1f359] (2+0/8) Accurately ripped
09 [3df35ef0|173033f0] (2+0/8) Accurately ripped
Offsetted by 664:
01 [3073567c] (3/8) Accurately ripped
02 [abe6c977] (3/8) Accurately ripped
03 [f80bcbdd] (3/8) Accurately ripped
04 [497e4b45] (3/8) Accurately ripped
05 [3bc81cdc] (3/8) Accurately ripped
06 [aea4f1bf] (3/8) Accurately ripped
07 [54b2223e] (3/8) Accurately ripped
08 [9fa4da65] (3/8) Accurately ripped
09 [754784dd] (3/8) Accurately ripped

Track Peak [ CRC32 ] [W/O NULL] [ LOG ]
-- 81,9 [4872E301] [0BB1347A] CRC32
01 77,0 [50CECEC8] [7305AA5F]
02 77,8 [8875B80B] [E63D6832]
03 77,1 [23223BD2] [E03B6C10]
04 77,1 [3E0F3D82] [EE6F057C]
05 79,4 [1BA7BCB6] [7C45DDF8]
06 76,3 [28C19DED] [4E07CD4E]
07 81,5 [ACF3E825] [38D95740]
08 81,6 [DB5279A8] [9834F9D8]
09 81,9 [1F3A976E] [369FBAEA]

Thanks to arizonadream
DOWNLOAD LINKS
Buy Premium From My Links To Get Resumable Support & Max Speed & To Support Me


Links are Interchangeable - No Password - Single Extraction
Direct Download

Tags: Isotope

Isotope & Gary Boyle - Live At The BBC (2004) Download via Hotfile Rapidshare Fileserve Megaupload & FileSonic, Isotope & Gary Boyle - Live At The BBC (2004) free torrent downloads included crack, serial, keygen.Isotope & Gary Boyle - Live At The BBC (2004) Fast Download via Rapidshare Hotfile Fileserve Filesonic Megaupload, Isotope & Gary Boyle - Live At The BBC (2004) Torrents and Emule Download or anything related.
Leave a Comment
Your Name:
E-Mail:
Add Comments:

Enter Code: