Sweet - Ballroom Hitz: The Very Best Of Sweet (1996)

Download Now

Sweet - Ballroom Hitz: The Very Best Of Sweet (1996)

Sweet - Ballroom Hitz: The Very Best Of Sweet (1996)
EAC Rip | FLAC (Img) + Cue + Log ~ 519 Mb | MP3 CBR320 ~ 189 Mb
Scans Included (JPG, 300 dpi) | RAR 5% Recovery
Rock, Glam Rock | PolyGram TV #535 001-2

"This is the best of Sweet hits collections which includes all Sweet's hits from the early "Funny Funny" through "Blockbuster" and their huge hits to "Love Is Like Oxygen" which was their last really sizeable hit both in the UK and US. Most of the other collections miss off "Love Is Like Oxygen", and as that's one of their best tracks it is worth tracking down this collection. This CD also includes some of their famous B sides, such as the heavy rock "Burning", B-side to "Hellraiser", and their minor later hits which proved less popular with the public ... and you can see why when listening to this album. Its not so much that the later songs were poor, but they sound ordinary compared to the euphoric sounds of "Hellraiser" and "Ballroom Blitz", and even the high-camp of "Wig Wam Bam" and "Little Willy" are much more fun. Undoubtedly a trail-blazing band and great to listen to over 30 years later."

Official Website | Wiki | Discogs | All Music
***************

Sweet - Ballroom Hitz: The Very Best Of Sweet (1996)

Track List:

01. The Ballroom Blitz [04:04]
02. Blockbuster! [03:13]
03. Teenage Rampage [03:35]
04. Wig-Wam Bam [03:03]
05. Funny Funny [02:47]
06. Action [03:08]
07. Fox On The Run [03:36]
08. Hell Raiser [03:19]
09. The Six Teens [04:05]
10. Alexander Graham Bell [02:55]
11. Call Me [02:54]
12. Stairway To The Stars [03:05]
13. Love Is Like Oxygen [03:48]
14. The Lies In Your Eyes [03:47]
15. Lost Angels [04:04]
16. Turn It Down [03:32]
17. Burning [04:06]
18. Fever Of Love [04:03]
19. Sixties Man [03:53]
20. Poppa Joe [03:08]
21. Co-Co [03:11]
22. Little Willy [03:16]

Exact Audio Copy V1.0 beta 4 from 7. December 2014

Отчёт EAC об извлечении, выполненном 7. июля 2015, 19:15

Sweet / Ballroom Hitz - The Very Best Of Sweet

Дисковод: ASUS DRW-24F1ST a Adapter: 1 ID: 0

Режим чтения : Достоверность
Использование точного потока : Да
Отключение кэша аудио : Да
Использование указателей C2 : Нет

Коррекция смещения при чтении : 6
Способность читать области Lead-in и Lead-out : Нет
Заполнение пропущенных сэмплов тишиной : Да
Удаление блоков с тишиной в начале и конце : Нет
При вычислениях CRC использовались нулевые сэмплы : Да
Интерфейс : Встроенный Win32-интерфейс для Win NT/2000

Выходной формат : Пользовательский кодировщик
Выбранный битрейт : 128 kBit/s
Качество : Высокий
Добавление ID3-тега : Нет
Утилита сжатия : C:\Program Files\Exact Audio Copy\Flac\flac.exe
Дополнительные параметры : -V -8 -T "Date=%year%" -T "Genre=%genre%" %source%

TOC извлечённого CD Трек | Старт | Длительность | Начальный сектор | Конечный сектор

1 | 0:00.00 | 4:03.45 | 0 | 18269
2 | 4:03.45 | 3:12.27 | 18270 | 32696
3 | 7:15.72 | 3:35.00 | 32697 | 48821
4 | 10:50.72 | 3:02.45 | 48822 | 62516
5 | 13:53.42 | 2:46.55 | 62517 | 75021
6 | 16:40.22 | 3:07.25 | 75022 | 89071
7 | 19:47.47 | 3:35.18 | 89072 | 105214
8 | 23:22.65 | 3:18.15 | 105215 | 120079
9 | 26:41.05 | 4:04.02 | 120080 | 138381
10 | 30:45.07 | 2:54.63 | 138382 | 151494
11 | 33:39.70 | 2:53.67 | 151495 | 164536
12 | 36:33.62 | 3:04.28 | 164537 | 178364
13 | 39:38.15 | 3:47.50 | 178365 | 195439
14 | 43:25.65 | 3:46.57 | 195440 | 212446
15 | 47:12.47 | 4:04.00 | 212447 | 230746
16 | 51:16.47 | 3:31.18 | 230747 | 246589
17 | 54:47.65 | 4:05.47 | 246590 | 265011
18 | 58:53.37 | 4:02.33 | 265012 | 283194
19 | 62:55.70 | 3:52.60 | 283195 | 300654
20 | 66:48.55 | 3:07.27 | 300655 | 314706
21 | 69:56.07 | 3:11.00 | 314707 | 329031
22 | 73:07.07 | 3:15.30 | 329032 | 343686

Характеристики диапазона извлечения и сообщения об ошибках

Выбранный диапазон Имя файла C:\Users\Erik\Desktop\Ballroom Hitz - The Very Best Of Sweet.wav Пиковый уровень 100.0 %
Скорость извлечения 8.1 X
Качество диапазона 100.0 %
CRC теста EEDDECC2
CRC копии EEDDECC2
Копирование... OK

Ошибок не произошло


AccurateRip: сводка

Трек 1 : извлечено точно (доверие 7) [175E98A5] (AR v2)
Трек 2 : извлечено точно (доверие 7) [10BD5B55] (AR v2)
Трек 3 : извлечено точно (доверие 7) 1C10596 (AR v2)
Трек 4 : извлечено точно (доверие 7) [DFF957E8] (AR v2)
Трек 5 : извлечено точно (доверие 7) [5D58645D] (AR v2)
Трек 6 : извлечено точно (доверие 7) [2C7CD88E] (AR v2)
Трек 7 : извлечено точно (доверие 7) [5247E9DA] (AR v2)
Трек 8 : извлечено точно (доверие 7) [64D846BA] (AR v2)
Трек 9 : извлечено точно (доверие 7) [CB50D857] (AR v2)
Трек 10 : извлечено точно (доверие 7) [3170CCE9] (AR v2)
Трек 11 : извлечено точно (доверие 7) [F82C1A93] (AR v2)
Трек 12 : извлечено точно (доверие 7) E8BE16F (AR v2)
Трек 13 : извлечено точно (доверие 7) [0C3872CC] (AR v2)
Трек 14 : извлечено точно (доверие 7) [1E9DB370] (AR v2)
Трек 15 : извлечено точно (доверие 7) [296A25F2] (AR v2)
Трек 16 : извлечено точно (доверие 7) [53F2C51F] (AR v2)
Трек 17 : извлечено точно (доверие 7) A1ED916 (AR v2)
Трек 18 : извлечено точно (доверие 7) [DA2EEA6A] (AR v2)
Трек 19 : извлечено точно (доверие 7) [4B489AE3] (AR v2)
Трек 20 : извлечено точно (доверие 7) [6BDF7C21] (AR v2)
Трек 21 : извлечено точно (доверие 7) [FE0B13DE] (AR v2)
Трек 22 : извлечено точно (доверие 7) [9FF03773] (AR v2)

Все треки извлечены точно

Конец отчёта

- CUETools DB Plugin V2.1.4

[CTDB TOCID: Gq6gJsH7sRYBrHOTAXM7aS_P3k8-] found
Submit result: Gq6gJsH7sRYBrHOTAXM7aS_P3k8- has been confirmed
Track | CTDB Status
1 | (2/2) Accurately ripped
2 | (2/2) Accurately ripped
3 | (2/2) Accurately ripped
4 | (2/2) Accurately ripped
5 | (2/2) Accurately ripped
6 | (2/2) Accurately ripped
7 | (2/2) Accurately ripped
8 | (2/2) Accurately ripped
9 | (2/2) Accurately ripped
10 | (2/2) Accurately ripped
11 | (2/2) Accurately ripped
12 | (2/2) Accurately ripped
13 | (2/2) Accurately ripped
14 | (2/2) Accurately ripped
15 | (2/2) Accurately ripped
16 | (2/2) Accurately ripped
17 | (2/2) Accurately ripped
18 | (2/2) Accurately ripped
19 | (2/2) Accurately ripped
20 | (2/2) Accurately ripped
21 | (2/2) Accurately ripped
22 | (2/2) Accurately ripped

==== Контрольная сумма отчёта 2E789B185FD01384A85A94E58BCE41BF024073A78F0E1C139B8C07188C6F2976 ====

foobar2000 1.2.6 / Dynamic Range Meter 1.1.1
log date: 2015-07-13 10:17:22

Analyzed: Sweet / Ballroom Hitz - The Very Best Of Sweet

DR Peak RMS Duration Track

DR11 0.00 dB -12.49 dB 4:04 01-The Ballroom Blitz
DR10 -0.08 dB -12.58 dB 3:12 02-Blockbuster!
DR11 0.00 dB -12.22 dB 3:35 03-Teenage Rampage
DR13 0.00 dB -14.07 dB 3:03 04-Wig-Wam Bam
DR14 0.00 dB -14.83 dB 2:47 05-Funny Funny
DR12 -0.36 dB -14.20 dB 3:07 06-Action
DR12 0.00 dB -14.15 dB 3:35 07-Fox On The Run
DR9 0.00 dB -10.19 dB 3:18 08-Hell Raiser
DR11 0.00 dB -12.93 dB 4:04 09-The Six Teens
DR13 0.00 dB -14.55 dB 2:55 10-Alexander Graham Bell
DR12 -0.01 dB -14.25 dB 2:54 11-Call Me
DR12 0.00 dB -14.21 dB 3:04 12-Stairway To The Stars
DR12 0.00 dB -15.36 dB 3:48 13-Love Is Like Oxygen
DR12 -0.05 dB -15.56 dB 3:47 14-The Lies In Your Eyes
DR13 -0.04 dB -15.37 dB 4:04 15-Lost Angels
DR12 -1.01 dB -13.44 dB 3:31 16-Turn It Down
DR13 0.00 dB -15.34 dB 4:06 17-Burning
DR12 -0.40 dB -14.68 dB 4:02 18-Fever Of Love
DR11 0.00 dB -13.19 dB 3:53 19-Sixties Man
DR13 -0.02 dB -15.75 dB 3:07 20-Poppa Joe
DR14 -0.07 dB -16.33 dB 3:11 21-Co-Co
DR12 0.00 dB -14.21 dB 3:15 22-Little Willy

Number of tracks: 22
Official DR value: DR12

Samplerate: 44100 Hz
Channels: 2
Bits per sample: 16
Bitrate: 896 kbps
Codec: FLAC

[CUETools log; Date: 13.07.2015 10:17:23; Version: 2.1.5]
[CTDB TOCID: Gq6gJsH7sRYBrHOTAXM7aS_P3k8-] found.
Track | CTDB Status
1 | (3/3) Accurately ripped
2 | (3/3) Accurately ripped
3 | (3/3) Accurately ripped
4 | (3/3) Accurately ripped
5 | (3/3) Accurately ripped
6 | (3/3) Accurately ripped
7 | (3/3) Accurately ripped
8 | (3/3) Accurately ripped
9 | (3/3) Accurately ripped
10 | (3/3) Accurately ripped
11 | (3/3) Accurately ripped
12 | (3/3) Accurately ripped
13 | (3/3) Accurately ripped
14 | (3/3) Accurately ripped
15 | (3/3) Accurately ripped
16 | (3/3) Accurately ripped
17 | (3/3) Accurately ripped
18 | (3/3) Accurately ripped
19 | (3/3) Accurately ripped
20 | (3/3) Accurately ripped
21 | (3/3) Accurately ripped
22 | (3/3) Accurately ripped
[AccurateRip ID: 003b99c2-03bcce67-3c11e616] found.
Track [ CRC | V2 ] Status
01 [f81127d1|175e98a5] (11+07/18) Accurately ripped
02 [a95f8d8e|10bd5b55] (11+07/18) Accurately ripped
03 [7ababbf0|b1c10596] (11+07/18) Accurately ripped
04 [a9374d02|dff957e8] (11+07/18) Accurately ripped
05 [d4bcee38|5d58645d] (10+07/17) Accurately ripped
06 [8767b31b|2c7cd88e] (11+07/18) Accurately ripped
07 [e724a565|5247e9da] (11+07/18) Accurately ripped
08 [278b23b8|64d846ba] (11+07/18) Accurately ripped
09 [418dfda7|cb50d857] (11+07/18) Accurately ripped
10 [a4a5751a|3170cce9] (11+07/18) Accurately ripped
11 [f6c8c3ac|f82c1a93] (10+07/17) Accurately ripped
12 [062ed07a|be8be16f] (10+07/17) Accurately ripped
13 [3ab519ec|0c3872cc] (11+07/18) Accurately ripped
14 [9b18e184|1e9db370] (11+07/18) Accurately ripped
15 [22d5e78c|296a25f2] (10+07/17) Accurately ripped
16 [0cd9d520|53f2c51f] (11+07/18) Accurately ripped
17 [0a570f01|ba1ed916] (10+07/17) Accurately ripped
18 [927de9ca|da2eea6a] (10+07/17) Accurately ripped
19 8a30f20|4b489ae3 (10+07/17) Accurately ripped
20 [a9727f34|6bdf7c21] (11+07/18) Accurately ripped
21 [62c2441e|fe0b13de] (11+07/18) Accurately ripped
22 [981567c1|9ff03773] (11+07/18) Accurately ripped

Track Peak [ CRC32 ] [W/O NULL] [ LOG ]
-- 100,0 [EEDDECC2] [DA626550] CRC32
01 100,0 [99635FED] [2AFAEAC2]
02 99,0 [A23D9974] [DBB5DA5C]
03 100,0 [9D28EB99] [81B8B914]
04 99,9 [A9358990] FFF7BE1
05 100,0 [FF354618] [C8177BC0]
06 95,9 [7288C4F3] [E3CB102F]
07 100,0 [60FE4646] [66805435]
08 99,9 [DF3BE14F] FE7D313
09 100,0 [85222806] [47304087]
10 100,0 [5155C180] [813D179E]
11 99,8 [330F8A5C] [D23A48BC]
12 100,0 [3D083C9A] [A212484D]
13 100,0 60F1850 [EF3C18FF]
14 99,4 [4A3AB526] 97D9AB9
15 99,5 [233F4F7C] [D0EC9187]
16 89,0 [A9FBAD7D] [31C81D5C]
17 100,0 [F58EFE90] [785CBFD5]
18 95,4 [F26FE2C1] [E0363ADA]
19 100,0 [CF7C443E] [4C33C364]
20 99,8 [C89089D2] [69D51122]
21 99,1 [A4EE6D72] [94EB2B01]
22 100,0 [710C4DC4] [4B0A77EC]

Sweet - Ballroom Hitz: The Very Best Of Sweet (1996)

All thanks go to Erik


DOWNLOAD:
Buy Premium To Support Me & Get Resumable Support & Max Speed


Links are Interchangeable - No Password
Direct Download

Tags: Ballroom

Sweet - Ballroom Hitz: The Very Best Of Sweet (1996) Download via Hotfile Rapidshare Fileserve Megaupload & FileSonic, Sweet - Ballroom Hitz: The Very Best Of Sweet (1996) free torrent downloads included crack, serial, keygen.Sweet - Ballroom Hitz: The Very Best Of Sweet (1996) Fast Download via Rapidshare Hotfile Fileserve Filesonic Megaupload, Sweet - Ballroom Hitz: The Very Best Of Sweet (1996) Torrents and Emule Download or anything related.
Leave a Comment
Your Name:
E-Mail:
Add Comments:

Enter Code: