Bud Powell - The Genius of Bud Powell (1951) {Verve}

Download Now


Bud Powell - The Genius of Bud Powell (1951) {Verve}
Bud Powell - The Genius of Bud Powell (1951) {Verve}
EAC rip (secure mode) | FLAC (tracks)+CUE+LOG -> 168 Mb | MP3 @320 -> 91 Mb
Full Artwork @ 600 dpi (jpg) -> 97 Mb | 5% repair rar
© 1988 Verve / PolyGram | 827 901-2
Jazz / Bop / Piano

"In 1951, Bud Powell was still at the height of his considerable powers. Included here are two sessions from that year: a trio with Ray Brown and Buddy Rich (three takes of "Tea for Two" and a super-fast "Hallelujah") and eight solo piano tunes from a different date. On "Tea for Two," Rich's drumming brings out the charming show-off in Powell, and on "Hallelujah," Powell plays with a hysterical clarity. "Oblivion" and "Hallucinations" are the most masterful of the eight solo cuts. Here Powell swings effortlessly and seems to be speaking his own, true language. The elegance of another era pervades the Gershwin-esque "Parisian Thoroughfare" and "Dusk in Sandi." And one can imagine a young Bill Evans listening to "A Nightingale Sang in Berkeley Square" and taking note of the rich, logical voicings coupled with a wonderful singing tone."

Personnel:
July 1, 1950, New York, tracks 1-4.

Bud Powell - piano
Ray Brown - bass
Buddy Rich - drums

February 1951, New York, tracks 5-12.
Bud Powell - piano (solo)

tracklist:
01 - Tea for Two (take 5)
02 - Tea for Two (take 6)
03 - Tea for Two (take 10)
04 - Hallelujah
05 - Parisian Thoroughfare
06 - Oblivion
07 - Dusk in Sandi
08 - Hallucinations
09 - The Fruit
10 - A Nightingale Sang in Berkeley Square
11 - Just One of Those Things
12 - The Last Time I Saw Paris

EAC extraction logfile from 21. January 2006, 20:05 for CD
Bud Powell / The Genius Of Bud Powell

Used drive : PLEXTOR DVDR PX-712A Adapter: 1 ID: 0
Read mode : Secure with NO C2, accurate stream, disable cache
Read offset correction : 30
Overread into Lead-In and Lead-Out : No

Used output format : C:\Program\FLAC\flac.exe (User Defined Encoder) 192 kBit/s Additional command line options : -5 -V -T "ARTIST=%a" -T "TITLE=%t" -T "ALBUM=%g" -T "DATE=%y" -T "TRACKNUMBER=%n" -T "GENRE=%m" -T "COMMENT=EAC Flac 1.1.2 -5" %s

Other options :
Fill up missing offset samples with silence : Yes
Delete leading and trailing silent blocks : No
Native Win32 interface for Win NT & 2000

Track 1
Filename G:\FLAC\01 - Tea For Two (Take 5).wav Pre-gap length 0:00:02.42 Peak level 100.0 %
Track quality 100.0 %
Test CRC 4A8AC8F6
Copy CRC 4A8AC8F6
Copy OK

Track 2
Filename G:\FLAC\02 - Tea For Two (Take 6).wav Pre-gap length 0:00:03.82 Peak level 95.9 %
Track quality 100.0 %
Test CRC 86BD3974
Copy CRC 86BD3974
Copy OK

Track 3
Filename G:\FLAC\03 - Tea For Two (Take 10).wav Pre-gap length 0:00:03.64 Peak level 100.0 %
Track quality 100.0 %
Test CRC C9CF3640
Copy CRC C9CF3640
Copy OK

Track 4
Filename G:\FLAC\04 - Hallelujah.wav Pre-gap length 0:00:03.82 Peak level 99.9 %
Track quality 100.0 %
Test CRC 2C7F9CAC
Copy CRC 2C7F9CAC
Copy OK

Track 5
Filename G:\FLAC\05 - Parisian Thoroughfare.wav Pre-gap length 0:00:03.82 Peak level 94.5 %
Track quality 100.0 %
Test CRC FAD53F55
Copy CRC FAD53F55
Copy OK

Track 6
Filename G:\FLAC\06 - Oblivion.wav Pre-gap length 0:00:03.62 Peak level 99.6 %
Track quality 100.0 %
Test CRC 9E3DBD41
Copy CRC 9E3DBD41
Copy OK

Track 7
Filename G:\FLAC\07 - Dusk In Sandi.wav Pre-gap length 0:00:03.66 Peak level 96.2 %
Track quality 99.9 %
Test CRC F5C013D9
Copy CRC F5C013D9
Copy OK

Track 8
Filename G:\FLAC\08 - Hallucinations.wav Pre-gap length 0:00:03.60 Peak level 92.9 %
Track quality 100.0 %
Test CRC 8F9FEC05
Copy CRC 8F9FEC05
Copy OK

Track 9
Filename G:\FLAC\09 - The Fruit.wav Pre-gap length 0:00:03.84 Peak level 98.6 %
Track quality 100.0 %
Test CRC 0076411B
Copy CRC 0076411B
Copy OK

Track 10
Filename G:\FLAC\10 - A Nightingale Sang In Berkeley Square.wav Pre-gap length 0:00:03.84 Peak level 99.9 %
Track quality 100.0 %
Test CRC 88D7D644
Copy CRC 88D7D644
Copy OK

Track 11
Filename G:\FLAC\11 - Just One Of Those Things.wav Pre-gap length 0:00:03.64 Peak level 100.0 %
Track quality 100.0 %
Test CRC 0F350996
Copy CRC 0F350996
Copy OK

Track 12
Filename G:\FLAC\12 - The Last Time I Saw Paris.wav Pre-gap length 0:00:03.64 Peak level 94.0 %
Track quality 100.0 %
Test CRC A04DEF14
Copy CRC A04DEF14
Copy OK

No errors occured

End of status report

Bud Powell - The Genius of Bud Powell (1951) {Verve}

Bud Powell - The Genius of Bud Powell (1951) {Verve}


DOWNLOAD LINKS
Buy Premium From My Links To Get Resumable Support & Max Speed & To Support Me


Links are Interchangeable - No Password - Single Extraction
Direct Download

Tags: Powell, Genius, Powell

Bud Powell - The Genius of Bud Powell (1951) {Verve} Download via Hotfile Rapidshare Fileserve Megaupload & FileSonic, Bud Powell - The Genius of Bud Powell (1951) {Verve} free torrent downloads included crack, serial, keygen.Bud Powell - The Genius of Bud Powell (1951) {Verve} Fast Download via Rapidshare Hotfile Fileserve Filesonic Megaupload, Bud Powell - The Genius of Bud Powell (1951) {Verve} Torrents and Emule Download or anything related.
Leave a Comment
Your Name:
E-Mail:
Add Comments:

Enter Code: