John Williams - Angela's Ashes: Music From The Motion Picture (1999)

Download Now

John Williams - Angela's Ashes: Music From The Motion Picture (1999)

John Williams - Angela's Ashes: Music From The Motion Picture (1999)
EAC | FLAC | Tracks (Cue&Log) ~ 240 Mb (incl 5%) | Mp3 (CBR320) ~ 138 Mb (incl 5%) | Scans ~ 204 Mb
Genre: Soundtrack, Score | Label: Decca | # 466 962-2 DH | Time: 00:57:30

"Given that John Williams has his pick of much of the $80-million, thrill-packed boilerplate that comes clanging out of Hollywood every summer and fall, it's especially noteworthy (and often gratifying) when he doesn't exercise his option. In scoring Alan Parker's adaptation of Frank McCourt's Pulitzer-winning memoirs of his dire Irish upbringing in the 1930s and '40s, Williams has produced a graceful, autumnal work of compelling, though decidedly delicate, emotional power. Using spare piano and solo woodwind melodies filled with longing eloquence, Williams effectively punctuates a sweeping, largely string and wind ensemble. As he did to great effect in The Phantom Menace, the veteran leans heavily on his classical moonlighting duties for inspiration. Interspersed throughout (and also effectively underscored by his music) are concise, telling excerpts of the film's narration read by Alan Bennett."

"The phenomenal success of Angela's Ashes, Frank McCourt's best-selling memoir of growing up in Ireland in the '30s, was indicative of a growing enthusiasm in America for all things Irish. McCourt's book was preceded by the hit musicals Riverdance and Lord of the Dance and an explosion of interest in traditional Irish music. In scoring Alan Parker's film adaptation of Angela's Ashes, John Williams could easily have taken advantage of the trend by populating the music with fiddles and uilleann pipes. Certainly, Williams had more reason to do so than James Horner did when he used Celtic music to make his score for Titanic, a movie with no major Irish characters, the best-selling instrumental soundtrack of all time. But Williams made the surprising decision to eschew any semblance of Irish influence, perhaps reasoning that the Irish fascination with American culture was every bit as prevalent during McCourt's boyhood as was the American fascination with Irish culture in the late '90s. Consequently, the only vocal tracks on the soundtrack album are not Irish folk songs but American pop tunes ("The Dipsy Doodle" and "Pennies From Heaven"). Williams' score is a rich and sonorous piano and string composition that lends a sense of scope and sweep to a film that is otherwise drab and constricted, lacking the charm of McCourt's prose. In fact, the soundtrack contains the two best parts of the movie: the score and narrator Andrew Bennett's readings from the book. That Angela's Ashes earned Williams his 38th Oscar nomination is hardly noteworthy, since he is so venerated by the Academy that they would undoubtedly have nominated him for playing "Mary Had a Little Lamb" on a touchtone phone. But this time the recognition was deserved. Angela's Ashes ranks among the best work from this universally acknowledged dean of film composition.

Review by Evan Cater, Allmusic.com
"


John Williams at Allmusic
John Williams at Wiki

Film at IMDB
Film at Wiki

Tracklist:

01. Theme From Angela's Ashes (06:17)
02. My Story (02:18)
03. Angela's Prayer (04:47)
04. My Dad's Stories (01:50)
05. Lord, Why Do You Want The Wee Children (04:02)
06. Plenty Of Fish And Chips In Heaven (03:24)
07. The Dippsy Doodle (01:08) Performed by Nat Gonella & His Georgians
08. The Land Of Limerick (03:24)
09. Looking For Work (03:31)
10. Pennies In Heaven (02:08) Performed by Billie Holiday
11. My Mother Begging (03:45)
12. If I Were In America (02:34)
13. Delivering Telegrams (01:51)
14. I Think Of Teresa (01:57)
15. Angels Never Cough (02:31)
16. Watching The Eclipse (02:59)
17. Back To America (02:38)
18. Angela's Ashes Reprise (06:17)


Exact Audio Copy V1.0 beta 3 from 29. August 2011

EAC extraction logfile from 1. June 2012, 17:14

John Williams / Angela's Ashes

Used drive : PLEXTOR DVDR PX-L890SA Adapter: 1 ID: 1

Read mode : Secure
Utilize accurate stream : Yes
Defeat audio cache : Yes
Make use of C2 pointers : No

Read offset correction

: 6
Overread into Lead-In and Lead-Out : No
Fill up missing offset samples with silence : Yes
Delete leading and trailing silent blocks : No
Null samples used in CRC calculations : Yes
Used interface
: Installed external ASPI interface
Gap handling
: Appended to previous track

Used output format : User Defined Encoder
Selected bitrate : 1024 kBit/s
Quality : High
Add ID3 tag : No
Command line compressor : C:\Program Files\Exact Audio Copy\Flac\flac.exe
Additional command line options : -V -8 -T "Genre=%genre%" -T "Artist=%artist%" -T "Title=%title%" -T "Album=%albumtitle%" -T "Date=%year%" -T "Tracknumber=%tracknr%" -T "Comment=%comment%" %source%

TOC of the extracted CD Track | Start | Length | Start sector | End sector
--1 | 0:00.32 | 6:17.63 | 32 | 28369 2 | 6:18.20 | 2:18.72 | 28370 | 38791 3 | 8:37.17 | 4:47.15 | 38792 | 60331 4 | 13:24.32 | 1:50.38 | 60332 | 68619 5 | 15:14.70 | 4:02.42 | 68620 | 86811 6 | 19:17.37 | 3:24.63 | 86812 | 102174 7 | 22:42.25 | 1:08.07 | 102175 | 107281 8 | 23:50.32 | 3:24.40 | 107282 | 122621 9 | 27:14.72 | 3:31.05 | 122622 | 138451
10 | 30:46.02 | 2:08.68 | 138452 | 148119
11 | 32:54.70 | 3:45.65 | 148120 | 165059
12 | 36:40.60 | 2:34.22 | 165060 | 176631
13 | 39:15.07 | 1:51.28 | 176632 | 184984
14 | 41:06.35 | 1:57.05 | 184985 | 193764
15 | 43:03.40 | 2:31.20 | 193765 | 205109
16 | 45:34.60 | 2:59.72 | 205110 | 218606
17 | 48:34.57 | 2:38.33 | 218607 | 230489
18 | 51:13.15 | 6:17.17 | 230490 | 258781

Track 1 Filename F:\torrent\Angelas Ashes_John Williams\score\01 Theme From Angela's Ashes.wav Pre-gap length 0:00:02.32 Peak level 97.2 %
Extraction speed 5.1 X
Track quality 99.9 %
Test CRC 7719DFB9
Copy CRC 7719DFB9
Accurately ripped (confidence 10) [24FA8F40] (AR v1)
Copy OK

Track 2 Filename F:\torrent\Angelas Ashes_John Williams\score\02 My Story.wav Peak level 55.8 %
Extraction speed 5.2 X
Track quality 100.0 %
Test CRC 9C266653
Copy CRC 9C266653
Accurately ripped (confidence 10) [A06A622B] (AR v1)
Copy OK

Track 3 Filename F:\torrent\Angelas Ashes_John Williams\score\03 Angela's Prayer.wav Peak level 99.8 %
Extraction speed 6.2 X
Track quality 100.0 %
Test CRC 9C12824C
Copy CRC 9C12824C
Accurately ripped (confidence 10) [DB428AB4] (AR v1)
Copy OK

Track 4 Filename F:\torrent\Angelas Ashes_John Williams\score\04 My Dad's Stories.wav Peak level 83.7 %
Extraction speed 5.6 X
Track quality 100.0 %
Test CRC 52E420BE
Copy CRC 52E420BE
Accurately ripped (confidence 10) [1942298F] (AR v1)
Copy OK

Track 5 Filename F:\torrent\Angelas Ashes_John Williams\score\05 Lord, Why Do You Want The Wee Children.wav Peak level 75.8 %
Extraction speed 6.8 X
Track quality 100.0 %
Test CRC 486DC28C
Copy CRC 486DC28C
Accurately ripped (confidence 10) [A636332C] (AR v1)
Copy OK

Track 6 Filename F:\torrent\Angelas Ashes_John Williams\score\06 Plenty Of Fish And Chips In Heaven.wav Peak level 95.1 %
Extraction speed 6.1 X
Track quality 99.9 %
Test CRC 6A65A1BA
Copy CRC 6A65A1BA
Accurately ripped (confidence 10) [A2DCBB0E] (AR v1)
Copy OK

Track 7 Filename F:\torrent\Angelas Ashes_John Williams\score\07 The Dippsy Doodle.wav Peak level 40.8 %
Extraction speed 5.4 X
Track quality 100.0 %
Test CRC 98EAA090
Copy CRC 98EAA090
Accurately ripped (confidence 10) [01316FE4] (AR v1)
Copy OK

Track 8 Filename F:\torrent\Angelas Ashes_John Williams\score\08 The Land Of Limerick.wav Peak level 59.8 %
Extraction speed 6.4 X
Track quality 99.9 %
Test CRC 85C2A7A7
Copy CRC 85C2A7A7
Accurately ripped (confidence 10) [49CEA7C5] (AR v1)
Copy OK

Track 9 Filename F:\torrent\Angelas Ashes_John Williams\score\09 Looking For Work.wav Peak level 99.8 %
Extraction speed 7.7 X
Track quality 100.0 %
Test CRC 68B3B930
Copy CRC 68B3B930
Accurately ripped (confidence 10) [01A17B54] (AR v1)
Copy OK

Track 10 Filename F:\torrent\Angelas Ashes_John Williams\score\10 Pennies In Heaven.wav Peak level 25.9 %
Extraction speed 7.2 X
Track quality 100.0 %
Test CRC D0D5868E
Copy CRC D0D5868E
Accurately ripped (confidence 10) [3D411D66] (AR v1)
Copy OK

Track 11 Filename F:\torrent\Angelas Ashes_John Williams\score\11 My Mother Begging.wav Peak level 66.4 %
Extraction speed 8.2 X
Track quality 100.0 %
Test CRC 680B3122
Copy CRC 680B3122
Accurately ripped (confidence 10) [34484718] (AR v1)
Copy OK

Track 12 Filename F:\torrent\Angelas Ashes_John Williams\score\12 If I Were In America.wav Peak level 38.3 %
Extraction speed 7.9 X
Track quality 100.0 %
Test CRC 19C7DDFC
Copy CRC 19C7DDFC
Accurately ripped (confidence 10) [1955A062] (AR v1)
Copy OK

Track 13 Filename F:\torrent\Angelas Ashes_John Williams\score\13 Delivering Telegrams.wav Peak level 83.7 %
Extraction speed 7.5 X
Track quality 100.0 %
Test CRC DC636834
Copy CRC DC636834
Accurately ripped (confidence 10) [09F2AC62] (AR v1)
Copy OK

Track 14 Filename F:\torrent\Angelas Ashes_John Williams\score\14 I Think Of Teresa.wav Peak level 76.6 %
Extraction speed 7.7 X
Track quality 100.0 %
Test CRC 422E451E
Copy CRC 422E451E
Accurately ripped (confidence 10) 9D0BE05 (AR v1)
Copy OK

Track 15 Filename F:\torrent\Angelas Ashes_John Williams\score\15 Angels Never Cough.wav Peak level 65.4 %
Extraction speed 8.4 X
Track quality 100.0 %
Test CRC 2C7FA917
Copy CRC 2C7FA917
Accurately ripped (confidence 10) [6B29C722] (AR v1)
Copy OK

Track 16 Filename F:\torrent\Angelas Ashes_John Williams\score\16 Watching The Eclipse.wav Peak level 21.1 %
Extraction speed 8.5 X
Track quality 100.0 %
Test CRC A286CB8B
Copy CRC A286CB8B
Accurately ripped (confidence 10) [4483F701] (AR v1)
Copy OK

Track 17 Filename F:\torrent\Angelas Ashes_John Williams\score\17 Back To America.wav Peak level 99.8 %
Extraction speed 8.8 X
Track quality 100.0 %
Test CRC EB887D04
Copy CRC EB887D04
Accurately ripped (confidence 10) [6A4E49F6] (AR v1)
Copy OK

Track 18 Filename F:\torrent\Angelas Ashes_John Williams\score\18 Angela's Ashes Reprise.wav Peak level 97.2 %
Extraction speed 10.1 X
Track quality 100.0 %
Test CRC A146AD4E
Copy CRC A146AD4E
Accurately ripped (confidence 10) [88B5438E] (AR v1)
Copy OK

All tracks accurately ripped

No errors occurred

End of status report

==== Log checksum CB857AF522D0B48FEF88BE316B76702DD97A4F2FA0BE467AB8C06F192AFAC5C5 ====

foobar2000 1.2 / Dynamic Range Meter 1.1.1
log date: 2015-07-13 16:34:57

Analyzed: Billie Holiday / Angela's Ashes (1) John Williams / Angela's Ashes (2-17) Nat Gonella & His Georgians / Angela's Ashes (18)

DR Peak RMS Duration Track

DR12 -11.73 dB -26.78 dB 2:09 10-Pennies In Heaven
DR12 -0.24 dB -17.60 dB 6:18 01-Theme From Angela's Ashes
DR12 -5.06 dB -23.99 dB 2:19 02-My Story
DR11 -0.01 dB -16.60 dB 4:47 03-Angela's Prayer
DR13 -1.54 dB -22.08 dB 1:51 04-My Dad's Stories
DR11 -2.40 dB -21.01 dB 4:03 05-Lord, Why Do You Want The Wee Children
DR11 -0.43 dB -16.64 dB 3:25 06-Plenty Of Fish And Chips In Heaven
DR14 -4.46 dB -24.27 dB 3:25 08-The Land Of Limerick
DR12 -0.01 dB -19.74 dB 3:31 09-Looking For Work
DR13 -3.55 dB -23.51 dB 3:46 11-My Mother Begging
DR12 -8.32 dB -26.25 dB 2:34 12-If I Were In America
DR15 -1.54 dB -22.20 dB 1:51 13-Delivering Telegrams
DR12 -2.31 dB -21.30 dB 1:57 14-I Think Of Teresa
DR12 -3.68 dB -23.84 dB 2:31 15-Angels Never Cough
DR13 -13.51 dB -32.14 dB 3:00 16-Watching The Eclipse
DR11 -0.01 dB -15.65 dB 2:38 17-Back To America
DR12 -0.24 dB -17.60 dB 6:17 18-Angela's Ashes Reprise
DR13 -7.77 dB -25.48 dB 1:08 07-The Dippsy Doodle

Number of tracks: 18
Official DR value: DR12

Samplerate: 44100 Hz
Channels: 2
Bits per sample: 16
Bitrate: 297 kbps
Codec: FLAC

John Williams - Angela's Ashes: Music From The Motion Picture (1999)

John Williams - Angela's Ashes: Music From The Motion Picture (1999)

All thanks to original releaser - Sarant
Password: designol

DOWNLOAD:
Buy Premium To Support Me & Get Resumable Support & Max Speed


Links are Interchangeable - No Password
Direct Download

Tags: Williams, Angela, Motion, Picture

John Williams - Angela's Ashes: Music From The Motion Picture (1999) Download via Hotfile Rapidshare Fileserve Megaupload & FileSonic, John Williams - Angela's Ashes: Music From The Motion Picture (1999) free torrent downloads included crack, serial, keygen.John Williams - Angela's Ashes: Music From The Motion Picture (1999) Fast Download via Rapidshare Hotfile Fileserve Filesonic Megaupload, John Williams - Angela's Ashes: Music From The Motion Picture (1999) Torrents and Emule Download or anything related.
Leave a Comment
Your Name:
E-Mail:
Add Comments:

Enter Code: