Foreigner - The Very Best ... And Beyond (1992)

Download Now

Foreigner - The Very Best ... And Beyond (1992)

Foreigner - The Very Best ... And Beyond (1992)
EAC | FLAC | Image (Cue&Log) ~ 554 Mb (incl 5%) | Mp3 (CBR320) ~ 209 Mb (incl 5%) | Scans included
Genre: Rock, Hard Rock | Label: Atlantic | # 7567-89999-2 | Time: 01:13:10

"The Very Best ... and Beyond is a greatest hits album by the band Foreigner released through Atlantic Records. The collection spans the band's history from 1977 through 1987, and includes three new tracks recorded in 1992. The compilation skips over the period in the late 1980s and early 1990s when vocalist Lou Gramm had left the band, omitting any songs from the 1991 album Unusual Heat."

"The Very Best...and Beyond falls somewhere between Records and Rhino's anthology as an entertaining trip through the bulk of Foreigner's biggest hits. With a sufficient 17 tracks, this collection leaves out only three of the band's Top 40 hits and extends up to 1987's Inside Information album. But best of all, the album combines the strongest of Foreigner's early material ("Juke Box Hero," "Urgent," "Hot Blooded") with the most appealing cuts from the band's post-4 releases, such as "I Want to Know What Love Is," the only number one hit from the platinum-selling Agent Provocateur album, and "Say You Will" from Inside Information. Extending past Records' ten tracks, songs like "That Was Yesterday" and "I Don't Want to Live Without You" prove that the band could still churn out some amicable pop/rock material while focusing on an older audience base, with Lou Gramm toning down his vocals a couple of notches to appease more mature fans. More than anything else, The Very Best...and Beyond does an excellent job of representing Foreigner's emergence into a softer rock sound by channeling the band's talents rather than truly depleting them altogether. For anyone wanting to dive even deeper into Foreigner's career, then the double-disc Jukebox Heroes is definitely the next step.

Review by Mike DeGagne, Allmusic.com
"




Tracklist:

01. Soul Doctor (04:52)
02. Prisoner Of Love (05:15)
03. With Heaven On Our Side (05:16)
04. Juke Box Hero (04:20)
05. Hot Blooded (04:24)
06. Cold As Ice (03:20)
07. Head Games (03:37)
08. Waiting For A Girl Like You (04:49)
09. Urgent (04:29)
10. Double Vision (03:44)
11. I Want To Know What Love Is (05:03)
12. Say You Will (04:12)
13. That Was Yesterday (03:46)
14. I Don't Want To Live Without You (04:52)
15. Rev On The Red Line (03:33)
16. Dirty White Boy (03:38)
17. Feels Like The First Time (03:51)


Exact Audio Copy V1.0 beta 3 from 29. August 2011

EAC extraction logfile from 29. March 2014, 1:51

Foreigner / 1992 - The Very Best ... And Beyond

Used drive : SONY BD RW BDX-S600U Adapter: 2 ID: 1

Read mode : Secure
Utilize accurate stream : Yes
Defeat audio cache : Yes
Make use of C2 pointers : No

Read offset correction

: 48
Overread into Lead-In and Lead-Out : No
Fill up missing offset samples with silence : Yes
Delete leading and trailing silent blocks : No
Null samples used in CRC calculations : Yes
Used interface
: Native Win32 interface for Win NT & 2000

Used output format : User Defined Encoder
Selected bitrate : 128 kBit/s
Quality : High
Add ID3 tag : No
Command line compressor : C:\Program Files (x86)\Exact Audio Copy\Flac\flac.exe
Additional command line options : -V -8 -T "Date=%year%" -T "Genre=%genre%" %source%

TOC of the extracted CD Track | Start | Length | Start sector | End sector
--1 | 0:00.00 | 4:52.07 | 0 | 21906 2 | 4:52.07 | 5:15.58 | 21907 | 45589 3 | 10:07.65 | 5:16.12 | 45590 | 69301 4 | 15:24.02 | 4:20.48 | 69302 | 88849 5 | 19:44.50 | 4:24.30 | 88850 | 108679 6 | 24:09.05 | 3:20.47 | 108680 | 123726 7 | 27:29.52 | 3:37.28 | 123727 | 140029 8 | 31:07.05 | 4:49.37 | 140030 | 161741 9 | 35:56.42 | 4:29.53 | 161742 | 181969
10 | 40:26.20 | 3:44.50 | 181970 | 198819
11 | 44:10.70 | 5:03.60 | 198820 | 221604
12 | 49:14.55 | 4:12.20 | 221605 | 240524
13 | 53:27.00 | 3:46.22 | 240525 | 257496
14 | 57:13.22 | 4:52.65 | 257497 | 279461
15 | 62:06.12 | 3:33.70 | 279462 | 295506
16 | 65:40.07 | 3:38.10 | 295507 | 311866
17 | 69:18.17 | 3:51.70 | 311867 | 329261

Range status and errors

Selected range Filename D:\Foreigner Discography\Compilations\1992. Foreigner - The Very Best ... And Beyond (Atlantic, 7567-89999-2,Germany)\Foreigner - 1992 - The Very Best ... And Beyond.wav Peak level 99.7 %
Extraction speed 7.0 X
Range quality 100.0 %
Test CRC 2E7984F4
Copy CRC 2E7984F4
Copy OK

No errors occurred


AccurateRip summary

Track 1 accurately ripped (confidence 87) A8C1A00 (AR v2)
Track 2 accurately ripped (confidence 86) [136C6D66] (AR v2)
Track 3 accurately ripped (confidence 86) [00FD50B9] (AR v2)
Track 4 accurately ripped (confidence 87) [8E1447DF] (AR v2)
Track 5 accurately ripped (confidence 86) [2283752D] (AR v2)
Track 6 accurately ripped (confidence 88) [F571EAE8] (AR v2)
Track 7 accurately ripped (confidence 87) [8EDEBFAF] (AR v2)
Track 8 accurately ripped (confidence 90) [64903E0F] (AR v2)
Track 9 accurately ripped (confidence 88) [075D6599] (AR v2)
Track 10 accurately ripped (confidence 87) [3AE2E640] (AR v2)
Track 11 accurately ripped (confidence 88) [2E2797DB] (AR v2)
Track 12 accurately ripped (confidence 87) [71840BB7] (AR v2)
Track 13 accurately ripped (confidence 88) [31CF56BD] (AR v2)
Track 14 accurately ripped (confidence 89) [9F2D5894] (AR v2)
Track 15 accurately ripped (confidence 87) [875D6F97] (AR v2)
Track 16 accurately ripped (confidence 88) 29FDCDA (AR v2)
Track 17 accurately ripped (confidence 86) 194E19F (AR v2)

All tracks accurately ripped

End of status report

- CUETools DB Plugin V2.1.4

[CTDB TOCID: e99rQzkEvkV7HWxOEgfKumXTcpY-] found
Submit result: e99rQzkEvkV7HWxOEgfKumXTcpY- has been confirmed
Track | CTDB Status
1 | (97/98) Accurately ripped
2 | (95/98) Accurately ripped
3 | (95/98) Accurately ripped
4 | (94/98) Accurately ripped
5 | (97/98) Accurately ripped
6 | (96/98) Accurately ripped
7 | (95/98) Accurately ripped, or (1/98) differs in 13 samples @03:15:18
8 | (93/98) Accurately ripped, or (1/98) differs in 14 samples @01:42:48,04:16:31
9 | (95/98) Accurately ripped
10 | (92/98) Accurately ripped
11 | (94/98) Accurately ripped
12 | (94/98) Accurately ripped
13 | (95/98) Accurately ripped
14 | (95/98) Accurately ripped
15 | (95/98) Accurately ripped
16 | (93/98) Accurately ripped
17 | (91/98) Accurately ripped

==== Log checksum 2820157878A39CEEF57CA75D22258ED7F65D5414B4F8390F777F0DEAD5E09D33 ====

foobar2000 1.2 / Dynamic Range Meter 1.1.1
log date: 2015-07-16 15:24:11

Analyzed: Foreigner / 1992 - The Very Best ... And Beyond

DR Peak RMS Duration Track

DR9 -0.03 dB -9.94 dB 4:52 01-Soul Doctor
DR9 -0.03 dB -11.19 dB 5:16 02-Prisoner Of Love
DR9 -0.03 dB -10.92 dB 5:16 03-With Heaven On Our Side
DR9 -0.03 dB -11.09 dB 4:21 04-Juke Box Hero
DR11 -0.03 dB -12.29 dB 4:24 05-Hot Blooded
DR10 -0.03 dB -12.91 dB 3:21 06-Cold As Ice
DR11 -0.03 dB -12.98 dB 3:37 07-Head Games
DR11 -0.03 dB -13.46 dB 4:49 08-Waiting For A Girl Like You
DR10 -0.03 dB -12.03 dB 4:30 09-Urgent
DR11 -0.03 dB -13.17 dB 3:45 10-Double Vision
DR9 -0.03 dB -12.80 dB 5:04 11-I Want To Know What Love Is
DR10 -0.03 dB -11.82 dB 4:12 12-Say You Will
DR10 -0.03 dB -12.01 dB 3:46 13-That Was Yesterday
DR10 -0.03 dB -12.50 dB 4:53 14-I Don't Want To Live Without You
DR8 -0.31 dB -11.04 dB 3:34 15-Rev On The Red Line
DR10 -0.03 dB -11.95 dB 3:38 16-Dirty White Boy
DR10 -0.03 dB -12.23 dB 3:52 17-Feels Like The First Time

Number of tracks: 17
Official DR value: DR10

Samplerate: 44100 Hz
Channels: 2
Bits per sample: 16
Bitrate: 946 kbps
Codec: FLAC

Foreigner - The Very Best ... And Beyond (1992)

Foreigner - The Very Best ... And Beyond (1992)

All thanks to original releaser - alonzo
Password: designol

DOWNLOAD LINKS
Buy Premium From My Links To Get Resumable Support & Max Speed & To Support Me


Links are Interchangeable - No Password - Single Extraction
Direct Download

Tags: Foreigner, Beyond

Foreigner - The Very Best ... And Beyond (1992) Download via Hotfile Rapidshare Fileserve Megaupload & FileSonic, Foreigner - The Very Best ... And Beyond (1992) free torrent downloads included crack, serial, keygen.Foreigner - The Very Best ... And Beyond (1992) Fast Download via Rapidshare Hotfile Fileserve Filesonic Megaupload, Foreigner - The Very Best ... And Beyond (1992) Torrents and Emule Download or anything related.
Leave a Comment
Your Name:
E-Mail:
Add Comments:

Enter Code: