Grupo Cinco Siglos - Musicas de la Espana Mudejar (1997, Fonoruz # CDF-357)

Download Now


Grupo Cinco Siglos - Musicas de la Espana Mudejar (1997, Fonoruz # CDF-357)
Grupo Cinco Siglos - Músicas de la España Mudéjar
EAC+LOG+CUE | FLAC: 265 MB | Artwork | 5% Recovery Info
Label/Cat#: Fonoruz # CDF-357 | Country/Year: Spain 1997
Genre: Classical, Folk | Style: Medieval, Secular




Grupo Cinco Siglos - Musicas de la Espana Mudejar (1997, Fonoruz # CDF-357)



Exact Audio Copy V0.99 prebeta 4 from 23. January 2008

Отчёт EAC об извлечении, выполненном 16. апреля 2009, 16:53

Grupo Cinco Siglos / Musicas de la Espaсa Mudйjar

Дисковод: PIONEER DVD-RW DVR-112D Adapter: 0 ID: 1

Режим чтения : Достоверность
Использование точного потока : Да
Отключение кэша аудио : Да
Использование указателей C2 : Нет

Коррекция смещения при чтении : 48
Способность читать области Lead-in и Lead-out : Нет
Заполнение пропущенных сэмплов тишиной : Да
Удаление блоков с тишиной в начале и конце : Нет
При вычислениях CRC использовались нулевые сэмплы : Нет
Интерфейс : Встроенный Win32-интерфейс для Win NT/2000

Выходной формат : Внутренние WAV-операции
Формат сэмплов : 44.100 Гц; 16 бит; стерео

TOC извлечённого CD

Трек | Старт | Длительность | Начальный сектор | Конечный сектор

1 | 0:00.00 | 4:14.67 | 0 | 19116
2 | 4:14.67 | 4:55.35 | 19117 | 41276
3 | 9:10.27 | 1:38.48 | 41277 | 48674
4 | 10:49.00 | 4:18.02 | 48675 | 68026
5 | 15:07.02 | 1:48.08 | 68027 | 76134
6 | 16:55.10 | 2:24.67 | 76135 | 87001
7 | 19:20.02 | 2:54.08 | 87002 | 100059
8 | 22:14.10 | 2:26.17 | 100060 | 111026
9 | 24:40.27 | 3:32.08 | 111027 | 126934
10 | 28:12.35 | 2:09.67 | 126935 | 136676
11 | 30:22.27 | 2:38.18 | 136677 | 148544
12 | 33:00.45 | 1:48.65 | 148545 | 156709
13 | 34:49.35 | 3:08.07 | 156710 | 170816
14 | 37:57.42 | 1:44.70 | 170817 | 178686
15 | 39:42.37 | 4:53.63 | 178687 | 200724
16 | 44:36.25 | 6:47.55 | 200725 | 231304

Характеристики диапазона извлечения и сообщения об ошибках

Выбранный диапазон

Имя файла C:\Documents and Settings\Индра\Мои документы\Моя музыка\Grupo Cinco Siglos - Musicas de la Espaсa Mudйjar.wav

Пиковый уровень 100.0 %
Качество диапазона 99.9 %
CRC копии E69579C0
Копирование... OK

Ошибок не произошло

Конец отчёта

foobar2000 1.1.14a / Dynamic Range Meter 1.1.1
log date: 2015-05-17 19:58:41

Analyzed: Grupo Cinco Siglos / Músicas de la España Mudéjar

DR Peak RMS Duration Track

DR12 0.00 dB -14.48 dB 4:15 01-Calbi Arabi
DR11 0.00 dB -16.68 dB 4:55 02-Cantiga No. 5
DR12 -4.66 dB -21.01 dB 1:39 03-Ben Volgra
DR10 0.00 dB -13.89 dB 4:18 04-Cantiga No. 134
DR12 -7.30 dB -23.57 dB 1:48 05-Seigneurs, Sachiez
DR12 0.00 dB -16.45 dB 2:25 06-Cantiga No. 286
DR11 -0.77 dB -16.33 dB 2:54 07-Cantiga No. 20
DR16 -3.00 dB -22.27 dB 2:26 08-S'anc Fui Belha Ni Prezada
DR10 0.00 dB -14.25 dB 3:32 09-Danza Morisca En El Modo Istihlal
DR13 -6.52 dB -25.51 dB 2:10 10-L'autre Nuit
DR13 -8.66 dB -24.51 dB 2:38 11-Danza Morisca En El Modo Hiyaz
DR8 -4.51 dB -17.65 dB 1:49 12-Si Bem Sui Loing
DR9 0.00 dB -11.87 dB 3:08 13-Danza Morisca En El Modo Istihlal
DR13 -2.05 dB -16.86 dB 1:45 14-Cantiga No. 243
DR11 0.00 dB -14.89 dB 4:54 15-Cantigas Prólogo y No. 266
DR13 0.00 dB -18.15 dB 6:48 16-Cantiga No. 29

Number of tracks: 16
Official DR value: DR12

Samplerate: 44100 Hz
Channels: 2
Bits per sample: 16
Bitrate: 723 kbps
Codec: FLAC

CD Info:

Grupo Cinco Siglos - Músicas de la España Mudéjar

Label: Fonoruz
Catalog#: CDF-357
Format: CD, Album
Country: Spain
Released: 1997
Genre: Folk
Style: Medieval

Tracklist:

1 Calbi Arabi 4:15
2 Cantiga No. 5 4:55
3 Ben Volgra 1:39
4 Cantiga No. 134 4:18
5 Seigneurs, Sachiez 1:48
6 Cantiga No. 286 2:25
7 Cantiga No. 20 2:54
8 S'anc Fui Belha Ni Prezada 2:26
9 Danza Morisca En El Modo Istihlal 3:32
10 L'autre Nuit 2:10
11 Danza Morisca En El Modo Hiyaz 2:38
12 Si Bem Sui Loing 1:49
13 Danza Morisca En El Modo Istihlal 3:08
14 Cantiga No. 243 1:45
15 Cantigas Prólogo y No. 266 4:54
16 Cantiga No. 29 6:48

Playing time: 53' 00"

Performers:
Otmán M'rini (percussions), Miguel Hidalgo (lute, citole, moorish guitar), Abdelaziz Samsaoui (kanun), Antonio Torralba (flutes), Antonio Sáez (percussions), Gabriel Arellano (viola, rabel)

Recording site and date:
Refectorio de la Cartuja de Cazalla de la Sierra [07/1997]

Thanks to kratuman!


Grupo Cinco Siglos - Musicas de la Espana Mudejar (1997, Fonoruz # CDF-357)


DOWNLOAD LINKS
Buy Premium From My Links To Get Resumable Support & Max Speed & To Support Me


Links are Interchangeable - No Password - Single Extraction
Direct Download

Tags: Siglos, Musicas, Espana, Mudejar, Fonoruz

Grupo Cinco Siglos - Musicas de la Espana Mudejar (1997, Fonoruz # CDF-357) Download via Hotfile Rapidshare Fileserve Megaupload & FileSonic, Grupo Cinco Siglos - Musicas de la Espana Mudejar (1997, Fonoruz # CDF-357) free torrent downloads included crack, serial, keygen.Grupo Cinco Siglos - Musicas de la Espana Mudejar (1997, Fonoruz # CDF-357) Fast Download via Rapidshare Hotfile Fileserve Filesonic Megaupload, Grupo Cinco Siglos - Musicas de la Espana Mudejar (1997, Fonoruz # CDF-357) Torrents and Emule Download or anything related.
Leave a Comment
Your Name:
E-Mail:
Add Comments:

Enter Code: