V.A. - Nekton Falls (2006)

Download Now

V.A. - Nekton Falls (2006)

V.A. - Nekton Falls (2006)
EAC Rip | FLAC (image+.cue+log) - 1 GB | MP3 CBR 320 kbps (LAME 3.93) - 502 MB | Covers - 86 MB
Genre: Ambient | RAR 3% Rec. | Label: Celestial Dragon Records (CDREC-06)

"This 3 x CD concept album contains exclusively produced soundscapes from 26 artists/projects from 10 countries, all inspired by the relationships and interactions between mankind, environment and sound over the seas and continents. "Nekton Falls" is the scientific term used to describe the process of dead sea organisms dropping to the bottom of the ocean, rotting and eventually turning into food for a new generation. Well-known ambient artists like Mick Harris aka Lull, Mathias Grassow, members of Kapotte Muziek, and young talents transformed into music their experiences of how eating habits influence an artist. Special interludes were conceived for each track, combining them all into an uninterrupted stream of music."

CD 1 Tracklist:
01. Seetyca - Intro v.01
02. Clemens, Presser & Fietsche Einselbock - Flaschenpost
03. Seetyca - Interlude v.01
04. Yannic Dauby - Cetaean Lethargy
05. Seetyca - Interlude v.02
06. Gianfranco Grilli - Organic Transformation
07. Seetyca - Interlude v.03
08. Das Synthetische Mischgewebe - That Which Swallows Transfixed Pivotements While Pursuing the Descendent Past...
09. Seetyca - Interlude v.04
10. Blaerp - Plankton State
11. Seetyca - Interlude v.05
12. Hypersleep - Dandelion Dreams
13. Seetyca - Outro v.01

Total time: 01:04:56

CD 2 Tracklist:
01. Seetyca - Intro v.02
02. Seetyca - Benthos A
03. Seetyca - Interlude v.06
04. Error - KFFX
05. Seetyca - Interlude v.07
06. Nerthus - The Inharmonic Heater
07. Seetyca - Interlude v.08
08. Niki Neecke - Funnyfoodfactory
09. Seetyca - Interlude v.09
10. Herpes o Deluxe - Tran
11. Seetyca - Interlude v.10
12. Etheocles Stevens - Feed-back Recycling
13. Seetyca - Interlude v.11
14. I:Wound - Waiting for the New Flesh
15. Seetyca - Interlude v.012
16. Scott Gibbons and Societas Raffaello Sanzio - C01.AE.alt2.010702
17. Seetyca - Outro v.02

Total time: 01:16:42

CD 3 Tracklist:
01. Seetyca - Intro v.03
02. The Oval Language - Untitled
03. Seetyca - Interlude v.13
04. Frans de Waard - Klankschap #10
05. Seetyca - Interlude v.14
06. Mnortham - Quelques Metres du Glacier D'orny
07. Seetyca - Interlude v.15
08. Roel Meelkop - Thanatos Springs
09. Seetyca - Interlude v.16
10. Franziska Baumann - Birsay
11. Seetyca - Interlude v.17
12. Mick Harris aka Lull - Just Below Wixford
13. Seetyca - Interlude v.18
14. NID - Tower of Babel
15. Seetyca - Interlude v.19
16. Mathias Grassow with Carsten Agthe & Siegmar Fricke - The Earth Rocks
17. Seetyca - Interlude v.20
18. Serge Devadder - Nivose
19. Seetyca - Outro v.03

Total time: 01:09:23

Exact Audio Copy V0.99 prebeta 5 from 4. May 2009

EAC extraction logfile from 13. January 2011, 8:50

Various / Nekton Falls

Used drive : Optiarc DVD RW AD-7200S Adapter: 1 ID: 0

Read mode : Secure
Utilize accurate stream : Yes
Defeat audio cache : Yes
Make use of C2 pointers : No

Read offset correction

: 48
Overread into Lead-In and Lead-Out : No
Fill up missing offset samples with silence : Yes
Delete leading and trailing silent blocks : No
Null samples used in CRC calculations : Yes
Used interface
: Native Win32 interface for Win NT & 2000

Used output format : User Defined Encoder
Selected bitrate : 1024 kBit/s
Quality : High
Add ID3 tag : No
Command line compressor : C:\Program Files\Exact Audio Copy\FLAC\FLAC.EXE
Additional command line options : -T "DATE=%y" -T "GENRE=%m" -8 -V %s

TOC of the extracted CD Track | Start | Length | Start sector | End sector
--1 | 0:00.00 | 2:22.43 | 0 | 10692 2 | 2:22.43 | 13:26.60 | 10693 | 71202 3 | 15:49.28 | 1:43.57 | 71203 | 78984 4 | 17:33.10 | 6:04.42 | 78985 | 106326 5 | 23:37.52 | 1:17.36 | 106327 | 112137 6 | 24:55.13 | 10:44.29 | 112138 | 160466 7 | 35:39.42 | 0:38.14 | 160467 | 163330 8 | 36:17.56 | 9:57.01 | 163331 | 208106 9 | 46:14.57 | 0:26.56 | 208107 | 210112
10 | 46:41.38 | 6:49.12 | 210113 | 240799
11 | 53:30.50 | 0:42.43 | 240800 | 243992
12 | 54:13.18 | 6:44.61 | 243993 | 274353
13 | 60:58.04 | 3:57.37 | 274354 | 292165

Range status and errors

Selected range Filename D:\Various - Nekton Falls.wav Peak level 100.0 %
Range quality 100.0 %
Test CRC B811019F
Copy CRC B811019F
Copy OK

No errors occurred


AccurateRip summary

Track 1 accurately ripped (confidence 6) [3DE9A948]
Track 2 accurately ripped (confidence 6) [F0948D43]
Track 3 accurately ripped (confidence 6) [C92C075C]
Track 4 accurately ripped (confidence 6) [96698B18]
Track 5 accurately ripped (confidence 6) [7FB9CDF0]
Track 6 accurately ripped (confidence 6) [20F2BD0B]
Track 7 accurately ripped (confidence 6) 278726D
Track 8 accurately ripped (confidence 6) [7ED0F2DD]
Track 9 accurately ripped (confidence 6) [E4519741]
Track 10 accurately ripped (confidence 5) [3F95711B]
Track 11 accurately ripped (confidence 6) [26DB3FBE]
Track 12 accurately ripped (confidence 6) [445EAB39]
Track 13 accurately ripped (confidence 6) [F0D3DF0F]

All tracks accurately ripped

End of status report

[CUETools log; Date: 18.07.2015 10:10:15; Version: 2.1.4]
[CTDB TOCID: H8c.sWZnjQ9G2XGATW0u3YEhO9o-] found.
Track | CTDB Status
1 | (3/3) Accurately ripped
2 | (3/3) Accurately ripped
3 | (3/3) Accurately ripped
4 | (3/3) Accurately ripped
5 | (3/3) Accurately ripped
6 | (3/3) Accurately ripped
7 | (3/3) Accurately ripped
8 | (3/3) Accurately ripped
9 | (3/3) Accurately ripped
10 | (3/3) Accurately ripped
11 | (3/3) Accurately ripped
12 | (3/3) Accurately ripped
13 | (3/3) Accurately ripped
[AccurateRip ID: 00212705-01466e9b-ad0f370d] found.
Track [ CRC | V2 ] Status
01 [3de9a948|ea3fcac3] (6+2/8) Accurately ripped
02 [f0948d43|3a11d2bc] (6+2/8) Accurately ripped
03 [c92c075c|fbdfee43] (6+2/8) Accurately ripped
04 [96698b18|5a44380a] (6+2/8) Accurately ripped
05 [7fb9cdf0|28a36bd6] (6+2/8) Accurately ripped
06 [20f2bd0b|a3939d95] (6+2/8) Accurately ripped
07 278726d|fd810daa (6+2/8) Accurately ripped
08 [7ed0f2dd|6c0e786c] (6+2/8) Accurately ripped
09 [e4519741|339e2200] (6+2/8) Accurately ripped
10 [3f95711b|b6291642] (5+2/7) Accurately ripped
11 [26db3fbe|3f9f3816] (6+2/8) Accurately ripped
12 [445eab39|21f3b886] (6+2/8) Accurately ripped
13 [f0d3df0f|24edbf0e] (6+2/8) Accurately ripped

Track Peak [ CRC32 ] [W/O NULL] [ LOG ]
-- 100,0 811019F [7BCB38E1] CRC32
01 98,8 [361E8E58] [A6E03B4F]
02 99,5 377F736 [6E3C7C8D]
03 98,8 [E9611BB2] [49316108]
04 100,0 [ABFD29A7] [23486373]
05 93,1 [01CB85C7] [01B4A523]
06 98,2 [C6F32F45] [EF5A7CA5]
07 100,0 [E0E3798B] [91067F2F]
08 99,9 [7EDFA429] 29D7D2C
09 87,9 [5B6CA5ED] [A388C9CF]
10 99,9 [5F2CECF7] [62AFFC0D]
11 66,2 [D8D8AEB7] [8090A44C]
12 92,8 [1BFD5C2E] 509CA46
13 95,7 [D577686E] [9B4095D7]


Exact Audio Copy V0.99 prebeta 5 from 4. May 2009

EAC extraction logfile from 13. January 2011, 20:19

Various / Nekton Falls - CD2

Used drive : Optiarc DVD RW AD-7200S Adapter: 1 ID: 0

Read mode : Secure
Utilize accurate stream : Yes
Defeat audio cache : Yes
Make use of C2 pointers : No

Read offset correction

: 48
Overread into Lead-In and Lead-Out : No
Fill up missing offset samples with silence : Yes
Delete leading and trailing silent blocks : No
Null samples used in CRC calculations : Yes
Used interface
: Native Win32 interface for Win NT & 2000

Used output format : User Defined Encoder
Selected bitrate : 1024 kBit/s
Quality : High
Add ID3 tag : No
Command line compressor : C:\Program Files\Exact Audio Copy\FLAC\FLAC.EXE
Additional command line options : -T "DATE=%y" -T "GENRE=%m" -8 -V %s

TOC of the extracted CD Track | Start | Length | Start sector | End sector
--1 | 0:00.00 | 3:17.40 | 0 | 14814 2 | 3:17.40 | 10:38.17 | 14815 | 62681 3 | 13:55.57 | 0:39.28 | 62682 | 65634 4 | 14:35.10 | 4:01.35 | 65635 | 83744 5 | 18:36.45 | 0:31.38 | 83745 | 86107 6 | 19:08.08 | 13:29.28 | 86108 | 146810 7 | 32:37.36 | 0:21.43 | 146811 | 148428 8 | 32:59.04 | 9:20.12 | 148429 | 190440 9 | 42:19.16 | 0:20.34 | 190441 | 191974
10 | 42:39.50 | 7:18.56 | 191975 | 224880
11 | 49:58.31 | 0:40.00 | 224881 | 227880
12 | 50:38.31 | 4:58.51 | 227881 | 250281
13 | 55:37.07 | 1:46.69 | 250282 | 258300
14 | 57:24.01 | 7:17.16 | 258301 | 291091
15 | 64:41.17 | 0:17.35 | 291092 | 292401
16 | 64:58.52 | 10:17.73 | 292402 | 338749
17 | 75:16.50 | 1:25.60 | 338750 | 345184

Range status and errors

Selected range Filename D:\Various - Nekton Falls - CD2.wav Peak level 100.0 %
Range quality 100.0 %
Test CRC BF56A7FA
Copy CRC BF56A7FA
Copy OK

No errors occurred


AccurateRip summary

Track 1 accurately ripped (confidence 6) [C57FCF7E]
Track 2 accurately ripped (confidence 6) [67D1A1DD]
Track 3 accurately ripped (confidence 6) [9D83D43E]
Track 4 accurately ripped (confidence 6) [4530C76B]
Track 5 accurately ripped (confidence 6) 1BA9B3C
Track 6 accurately ripped (confidence 6) [8E710DC2]
Track 7 accurately ripped (confidence 6) [AAEF02D6]
Track 8 accurately ripped (confidence 6) [FFD456F7]
Track 9 accurately ripped (confidence 6) [0750D8C5]
Track 10 accurately ripped (confidence 6) [A58E4BA0]
Track 11 accurately ripped (confidence 6) [78D68DE4]
Track 12 accurately ripped (confidence 6) [924CDE86]
Track 13 accurately ripped (confidence 6) FE104A4
Track 14 accurately ripped (confidence 6) [20EFC981]
Track 15 accurately ripped (confidence 6) [497D69A6]
Track 16 accurately ripped (confidence 6) [3383C883]
Track 17 accurately ripped (confidence 6) FC37198

All tracks accurately ripped

End of status report

[CUETools log; Date: 18.07.2015 10:09:21; Version: 2.1.4]
[CTDB TOCID: 8PpGz96fh66gSdK8mUqM0bp1ZI8-] found.
Track | CTDB Status
1 | (4/4) Accurately ripped
2 | (4/4) Accurately ripped
3 | (4/4) Accurately ripped
4 | (4/4) Accurately ripped
5 | (4/4) Accurately ripped
6 | (4/4) Accurately ripped
7 | (4/4) Accurately ripped
8 | (4/4) Accurately ripped
9 | (4/4) Accurately ripped
10 | (4/4) Accurately ripped
11 | (4/4) Accurately ripped
12 | (4/4) Accurately ripped
13 | (4/4) Accurately ripped
14 | (4/4) Accurately ripped
15 | (4/4) Accurately ripped
16 | (4/4) Accurately ripped
17 | (4/4) Accurately ripped
[AccurateRip ID: 00311fd7-0267d61d-f511fa11] found.
Track [ CRC | V2 ] Status
01 [c57fcf7e|bdea4dd3] (6+2/8) Accurately ripped
02 [67d1a1dd|5dc1cf56] (6+2/8) Accurately ripped
03 [9d83d43e|c37d484b] (6+2/8) Accurately ripped
04 [4530c76b|d3820411] (6+2/8) Accurately ripped
05 1ba9b3c|d0f29236 (6+2/8) Accurately ripped
06 [8e710dc2|2b174fe5] (6+2/8) Accurately ripped
07 [aaef02d6|46e29ab7] (6+2/8) Accurately ripped
08 [ffd456f7|fc5b177d] (6+2/8) Accurately ripped
09 [0750d8c5|6767d032] (6+2/8) Accurately ripped
10 [a58e4ba0|2f4e46db] (6+2/8) Accurately ripped
11 [78d68de4|fdf305ce] (6+2/8) Accurately ripped
12 [924cde86|6338ce91] (6+2/8) Accurately ripped
13 fe104a4|ccaeb192 (6+2/8) Accurately ripped
14 [20efc981|f3020c91] (6+2/8) Accurately ripped
15 [497d69a6|62ad299a] (6+2/8) Accurately ripped
16 [3383c883|c6a174c1] (6+2/8) Accurately ripped
17 fc37198|7ce9f1e7 (6+2/8) Accurately ripped

Track Peak [ CRC32 ] [W/O NULL] [ LOG ]
-- 100,0 F56A7FA [75DACE36] CRC32
01 99,8 [6C5A7F14] [1B43C6B4]
02 100,0 [6E56712E] [5D183773]
03 95,9 [DA825F79] [71DBCFBC]
04 100,0 [5DABBBBA] [F15141A2]
05 97,1 [46922B6C] [E8887471]
06 100,0 [05EBB71E] [2C63C8FD]
07 94,1 [51774BF4] [4D6EB7D1]
08 97,7 [A9C00BB9] [E6CFE0EB]
09 77,9 [1967C214] [5E001964]
10 77,2 9A15829 [646E2D8F]
11 85,5 [2796A7F4] [114D72CD]
12 98,7 [955F45ED] [7F70A26E]
13 82,0 [EFBD07D5] [D673050F]
14 99,8 [015A2C81] [583B479C]
15 99,3 [28EAF299] [E0208DFB]
16 98,5 [9FE9ADB3] [71FB7177]
17 99,9 [478C7B31] [DC94DA39]


Exact Audio Copy V0.99 prebeta 5 from 4. May 2009

EAC extraction logfile from 13. January 2011, 21:14

Various / Nekton Falls - CD3

Used drive : Optiarc DVD RW AD-7200S Adapter: 1 ID: 0

Read mode : Secure
Utilize accurate stream : Yes
Defeat audio cache : Yes
Make use of C2 pointers : No

Read offset correction

: 48
Overread into Lead-In and Lead-Out : No
Fill up missing offset samples with silence : Yes
Delete leading and trailing silent blocks : No
Null samples used in CRC calculations : Yes
Used interface
: Native Win32 interface for Win NT & 2000

Used output format : User Defined Encoder
Selected bitrate : 1024 kBit/s
Quality : High
Add ID3 tag : No
Command line compressor : C:\Program Files\Exact Audio Copy\FLAC\FLAC.EXE
Additional command line options : -T "DATE=%y" -T "GENRE=%m" -8 -V %s

TOC of the extracted CD Track | Start | Length | Start sector | End sector
--1 | 0:00.00 | 0:37.19 | 0 | 2793 2 | 0:37.19 | 1:29.50 | 2794 | 9518 3 | 2:06.69 | 0:30.52 | 9519 | 11820 4 | 2:37.46 | 4:02.51 | 11821 | 30021 5 | 6:40.22 | 0:09.57 | 30022 | 30753 6 | 6:50.04 | 6:46.68 | 30754 | 61271 7 | 13:36.72 | 0:20.24 | 61272 | 62795 8 | 13:57.21 | 6:40.04 | 62796 | 92799 9 | 20:37.25 | 0:24.46 | 92800 | 94645
10 | 21:01.71 | 5:14.65 | 94646 | 118260
11 | 26:16.61 | 0:24.67 | 118261 | 120127
12 | 26:41.53 | 12:33.15 | 120128 | 176617
13 | 39:14.68 | 0:27.12 | 176618 | 178654
14 | 39:42.05 | 8:46.71 | 178655 | 218175
15 | 48:29.01 | 0:19.05 | 218176 | 219605
16 | 48:48.06 | 10:07.15 | 219606 | 265145
17 | 58:55.21 | 0:27.13 | 265146 | 267183
18 | 59:22.34 | 6:23.30 | 267184 | 295938
19 | 65:45.64 | 3:37.01 | 295939 | 312214

Range status and errors

Selected range Filename D:\Various - Nekton Falls - CD3.wav Peak level 100.0 %
Range quality 100.0 %
Test CRC 810407B0
Copy CRC 810407B0
Copy OK

No errors occurred


AccurateRip summary

Track 1 not present in database
Track 2 not present in database
Track 3 not present in database
Track 4 not present in database
Track 5 not present in database
Track 6 not present in database
Track 7 not present in database
Track 8 not present in database
Track 9 not present in database
Track 10 not present in database
Track 11 not present in database
Track 12 not present in database
Track 13 not present in database
Track 14 not present in database
Track 15 not present in database
Track 16 not present in database
Track 17 not present in database
Track 18 not present in database
Track 19 not present in database

None of the tracks are present in the AccurateRip database

End of status report

[CUETools log; Date: 18.07.2015 10:09:39; Version: 2.1.4]
[CTDB TOCID: 4w86v4bwQ4jRSza4IG1NlnPSTJY-] found.
Track | CTDB Status
1 | (3/3) Accurately ripped
2 | (3/3) Accurately ripped
3 | (3/3) Accurately ripped
4 | (3/3) Accurately ripped
5 | (3/3) Accurately ripped
6 | (3/3) Accurately ripped
7 | (3/3) Accurately ripped
8 | (3/3) Accurately ripped
9 | (3/3) Accurately ripped
10 | (3/3) Accurately ripped
11 | (3/3) Accurately ripped
12 | (3/3) Accurately ripped
13 | (3/3) Accurately ripped
14 | (3/3) Accurately ripped
15 | (3/3) Accurately ripped
16 | (3/3) Accurately ripped
17 | (3/3) Accurately ripped
18 | (3/3) Accurately ripped
19 | (3/3) Accurately ripped
[AccurateRip ID: 002730a0-024d951e-0c104213] found.
Track [ CRC | V2 ] Status
01 [e76f4a8d|cea3cbcf] (7+2/9) Accurately ripped
02 [67136c44|dfb2594b] (7+2/9) Accurately ripped
03 [ea8bcf45|90f7d040] (7+2/9) Accurately ripped
04 [fd563eea|b5bbffbc] (7+2/9) Accurately ripped
05 c197303|8d899b77 (7+2/9) Accurately ripped
06 [601086da|3a5ea7f4] (7+2/9) Accurately ripped
07 [f8cdb90c|ec1ccd4f] (7+2/9) Accurately ripped
08 [7571da98|8bf751f1] (7+2/9) Accurately ripped
09 [2f68b253|6c506d3b] (7+2/9) Accurately ripped
10 [625741bd|942de45b] (7+2/9) Accurately ripped
11 [a61b1bd5|b54709fb] (7+2/9) Accurately ripped
12 [748ddb6c|2c1396fa] (7+2/9) Accurately ripped
13 b487509|53901972 (7+2/9) Accurately ripped
14 [20dabe53|a73a1f4e] (7+2/9) Accurately ripped
15 [59b00810|191eea27] (7+2/9) Accurately ripped
16 [cc7338ca|dcef67aa] (7+2/9) Accurately ripped
17 [d7bfcaac|b59bbedf] (7+2/9) Accurately ripped
18 [dd53ff14|4d06df24] (7+2/9) Accurately ripped
19 [9fedfe97|5f27c568] (7+2/9) Accurately ripped

Track Peak [ CRC32 ] [W/O NULL] [ LOG ]
-- 100,0 [810407B0] [09A734B3] CRC32
01 66,0 [1D195B9D] [987EFE6B]
02 91,9 [C432B1DD] [3C8ACEDD]
03 73,4 [670888AE] [7974EE44]
04 98,7 [83228D4B] [F0D669F7]
05 68,9 [6AC89D01] [694AAFF9]
06 99,9 [7A922133] [09AE3E5F]
07 85,2 [17ED7E59] [2A8A78AF]
08 99,6 [8040A4CA] [FB8DD9A4]
09 74,7 [83F13F85] [72765D57]
10 97,4 [108B30F5] [3954F017]
11 80,8 [7B179024] [31CFE8A8]
12 100,0 [3BC23AC1] [0842AFEC]
13 100,0 [0AEF892A] [F9FE9DFC]
14 95,7 [D72FDB14] [D7F52311]
15 25,1 [2A87DBD6] 7F3A12A
16 97,8 [9AE5A241] [E92B1FA4]
17 58,9 [5C980FDE] [DBA5BD62]
18 100,0 [9B7F8AFA] [26614FBD]
19 88,3 3C7EB29 [9BF28A51]

Thanks to vostrik
DOWNLOAD LINKS:


No Password
Direct Download

Tags: Nekton

V.A. - Nekton Falls (2006) Download via Hotfile Rapidshare Fileserve Megaupload & FileSonic, V.A. - Nekton Falls (2006) free torrent downloads included crack, serial, keygen.V.A. - Nekton Falls (2006) Fast Download via Rapidshare Hotfile Fileserve Filesonic Megaupload, V.A. - Nekton Falls (2006) Torrents and Emule Download or anything related.
Leave a Comment
Your Name:
E-Mail:
Add Comments:

Enter Code: