Baz Luhrmann ‎- Everybody's Free {To Wear Sunscreen} [CDS] (1999)

Download Now

Baz Luhrmann ‎- Everybody's Free {To Wear Sunscreen} [CDS] (1999)

Baz Luhrmann ‎- Everybody's Free {To Wear Sunscreen} (1999)
EAC Rip | FLAC (Tracks) +CUE, LOG | 125 MB | Covers Included
Electronic | Label: EMI Records | Catalog Number: 7243 8871762 5

"Advice, like youth, probably just wasted on the young", commonly known by the title "Wear Sunscreen", is an essay written as a hypothetical commencement speech by columnnist Mary Schmich, originally published in June 1997 in the Chicago Tribune. The essay, giving various pieces of advice on how to live a happier life and avoid common frustrations, spread massively via viral email, often erroneously described as a commencement speech given by author Kurt Vonnegut at MIT.
The essay became the basis for a successful spoken word song released in 1999 by Baz Luhrmann, "Everybody's Free (To Wear Sunscreen)", also known as "The Sunscreen Song". The song inspired numerous parodies."

Exact Audio Copy V1.0 beta 3 from 29. August 2011

EAC extraction logfile from 13. July 2015, 17:39

Baz Luhrmann / Everybody's Free (To Wear Sunscreen) (Single-CD)

Used drive : GENERIC CDRCB05 Adapter: 4 ID: 0

Read mode : Secure
Utilize accurate stream : Yes
Defeat audio cache : Yes
Make use of C2 pointers : No

Read offset correction

: 102
Overread into Lead-In and Lead-Out : No
Fill up missing offset samples with silence : Yes
Delete leading and trailing silent blocks : No
Null samples used in CRC calculations : Yes
Used interface
: Native Win32 interface for Win NT & 2000
Gap handling
: Appended to previous track

Used output format : User Defined Encoder
Selected bitrate : 1024 kBit/s
Quality : High
Add ID3 tag : No
Command line compressor : C:\Program Files\FLAC\flac.exe
Additional command line options : -8 -V -T "ARTIST=%artist%" -T "TITLE=%title%" -T "ALBUM=%albumtitle%" -T "DATE=%year%" -T "TRACKNUMBER=%tracknr%" -T "GENRE=%genre%" -T "PERFORMER=%albuminterpret%" -T "COMPOSER=%composer%" %haslyrics%--tag-from-file=LYRICS="%lyricsfile%"%haslyrics% -T "ALBUMARTIST=%albumartist%" -T "DISCNUMBER=%cdnumber%" -T "TOTALDISCS=%totalcds%" -T "TOTALTRACKS=%numtracks%" -T "COMMENT=%comment%" %source% -o %dest%

TOC of the extracted CD Track | Start | Length | Start sector | End sector
--1 | 0:00.00 | 5:09.10 | 0 | 23184 2 | 5:09.10 | 4:44.30 | 23185 | 44514 3 | 9:53.40 | 4:30.35 | 44515 | 64799

Track 1 Filename G:\MUSIC\0\POSTS\Baz Luhrmann ‎- Everybody's Free {To Wear Sunscreen} (1999)\01 - Everybody's Free (To Wear Sunscreen) (Edit).wav Pre-gap length 0:00:02.00 Peak level 93.3 %
Extraction speed 2.3 X
Track quality 100.0 %
Test CRC B8402855
Copy CRC B8402855
Accurately ripped (confidence 24) [46CB3B9C] (AR v2)
Copy OK

Track 2 Filename G:\MUSIC\0\POSTS\Baz Luhrmann ‎- Everybody's Free {To Wear Sunscreen} (1999)\02 - Everybody's Free (To Wear Sunscreen) (Geographic's Factor 15+ Mix).wav Pre-gap length 0:00:03.20 Peak level 58.7 %
Extraction speed 2.8 X
Track quality 100.0 %
Test CRC B820906F
Copy CRC B820906F
Accurately ripped (confidence 22) [618EE53A] (AR v2)
Copy OK

Track 3 Filename G:\MUSIC\0\POSTS\Baz Luhrmann ‎- Everybody's Free {To Wear Sunscreen} (1999)\03 - Love Is In The Air (Fran Mix).wav Pre-gap length 0:00:01.30 Peak level 83.7 %
Extraction speed 3.0 X
Track quality 100.0 %
Test CRC 27674426
Copy CRC 27674426
Accurately ripped (confidence 21) [2E47346B] (AR v2)
Copy OK

All tracks accurately ripped

No errors occurred

End of status report

==== Log checksum 13F177F3F96E4E26C99CF20BF8FE4DE3F22EACC1A9E9874E85156ADE53889AB3 ====

Tracklist:
01. Everybody's Free (To Wear Sunscreen) (Edit) - 5:05
02. Everybody's Free (To Wear Sunscreen) (Geographic's Factor 15+ Mix) - 4:42
03. Love Is in the Air (Fran Mix) performed by John Paul Young - 4:30
DOWNLOAD LINKS
Buy Premium From My Links To Get Resumable Support & Max Speed & To Support Me


Links are Interchangeable - No Password - Single Extraction
Direct Download

Tags: Luhrmann, Everybody, Sunscreen

Baz Luhrmann ‎- Everybody's Free {To Wear Sunscreen} [CDS] (1999) Download via Hotfile Rapidshare Fileserve Megaupload & FileSonic, Baz Luhrmann ‎- Everybody's Free {To Wear Sunscreen} [CDS] (1999) free torrent downloads included crack, serial, keygen.Baz Luhrmann ‎- Everybody's Free {To Wear Sunscreen} [CDS] (1999) Fast Download via Rapidshare Hotfile Fileserve Filesonic Megaupload, Baz Luhrmann ‎- Everybody's Free {To Wear Sunscreen} [CDS] (1999) Torrents and Emule Download or anything related.
Leave a Comment
Your Name:
E-Mail:
Add Comments:

Enter Code: