Tony Joe White - The Train I'm On (1972)

Download Now

Tony Joe White - The Train I'm On (1972)

Tony Joe White - The Train I'm On (1972)
EAC | FLAC | Image (Cue&Log) ~ 265 Mb (incl 5%) | Mp3 (CBR320) ~ 134 Mb (incl 5%) | Scans included
Genre: Singer/Songwriter, Country, Soul, Swamp Rock, Blues Rock | Label: Warner Bros. | # 7599-26931-2 | Time: 00:42:03

"Tony Joe White's second Warner Bros. album is an awesome, exquisite musical jewel and a departure from most of the attributes for which he is best known, from songs like "Polk Salad Annie." Acoustic textured for much of its length and built on a close, intimate sound overall, The Train I'm On is permeated with the dark side of White's usual swamp rock sound, filled with songs about unsettled loves and lives, and men caught amid insoluble situations. Betraying surprising vulnerability for much of its length, even on songs like "If I Ever Saw a Good Thing" and "300 Pounds of Hongry" (among the few full band numbers here, with a gorgeous sax solo by Charles Chalmers on the former), he shows off an emotional complexity that wasn't always obvious on his earlier work, only really cutting loose boldly on "Even Trolls Love Rock and Roll" and a tiny handful of other cuts. The rest is dark, pensive, soulful bluesy rock, highlighted by some bristling acoustic guitar work (check out "As the Crow Flies") and superb singing throughout ("The Migrant" is worth the price of admission by itself)."



Tracklist:

01. I've Got A Thing About You Baby (02:43)
02. The Family (03:30)
03. If I Ever Saw A Good Thing (03:21)
04. Beouf River Road (03:20)
05. The Train I'm On (03:10)
06. Even Trolls Love Rock & Roll (04:55)
07. As The Crow Flies (03:50)
08. Take Time To Love (03:02)
09. 300 Pounds Of Hongry (02:44)
10. The Migrant (04:00)
11. Sidewalk Hobo (03:54)
12. The Gospel Singer (03:28)


Exact Audio Copy V1.0 beta 3 from 29. August 2011

EAC extraction logfile from 2. June 2014, 14:56

Tony Joe White / The Train I'm On

Used drive : PLEXTOR DVDR PX-891SA Adapter: 0 ID: 2

Read mode : Secure
Utilize accurate stream : Yes
Defeat audio cache : Yes
Make use of C2 pointers : No

Read offset correction

: 6
Overread into Lead-In and Lead-Out : No
Fill up missing offset samples with silence : Yes
Delete leading and trailing silent blocks : No
Null samples used in CRC calculations : Yes
Used interface
: Installed external ASPI interface

Used output format : User Defined Encoder
Selected bitrate : 320 kBit/s
Quality : High
Add ID3 tag : No
Command line compressor : C:\Program Files\Exact Audio Copy 1.0\Flac\flac.exe
Additional command line options : -V -8 -T "Date=%year%" -T "Genre=%genre%" %source%

TOC of the extracted CD Track | Start | Length | Start sector | End sector
--1 | 0:00.00 | 2:43.33 | 0 | 12257 2 | 2:43.33 | 3:30.32 | 12258 | 28039 3 | 6:13.65 | 3:21.35 | 28040 | 43149 4 | 9:35.25 | 3:20.65 | 43150 | 58214 5 | 12:56.15 | 3:10.13 | 58215 | 72477 6 | 16:06.28 | 4:55.47 | 72478 | 94649 7 | 21:02.00 | 3:50.68 | 94650 | 111967 8 | 24:52.68 | 3:02.10 | 111968 | 125627 9 | 27:55.03 | 2:44.62 | 125628 | 137989
10 | 30:39.65 | 4:00.28 | 137990 | 156017
11 | 34:40.18 | 3:54.22 | 156018 | 173589
12 | 38:34.40 | 3:28.73 | 173590 | 189262

Range status and errors

Selected range Filename K:\Lossless Temp\Tony Joe White\Tony Joe White - The Train I'm On - 1972 (2002 Warner Bros. 7599-26931-2, Germany)\Tony Joe White - The Train I'm On.wav Peak level 98.6 %
Extraction speed 6.0 X
Range quality 100.0 %
Test CRC C057B536
Copy CRC C057B536
Copy OK

No errors occurred


AccurateRip summary

Track 1 accurately ripped (confidence 2) [4832F75C] (AR v2)
Track 2 accurately ripped (confidence 2) [CC026A7E] (AR v2)
Track 3 accurately ripped (confidence 2) [5F56ADCD] (AR v2)
Track 4 accurately ripped (confidence 2) [0E9A5DEF] (AR v2)
Track 5 accurately ripped (confidence 2) [D6505BD3] (AR v2)
Track 6 accurately ripped (confidence 2) [E8AFF314] (AR v2)
Track 7 accurately ripped (confidence 2) [742A85DC] (AR v2)
Track 8 accurately ripped (confidence 2) [76887F80] (AR v2)
Track 9 accurately ripped (confidence 2) [839AF7D9] (AR v2)
Track 10 accurately ripped (confidence 2) [89D49029] (AR v2)
Track 11 accurately ripped (confidence 2) [2A876D75] (AR v2)
Track 12 accurately ripped (confidence 2) [F63FC60E] (AR v2)

All tracks accurately ripped

End of status report

==== Log checksum EB0A6BE1229DD64A129FA98E9B2BA66FB87725E2741EBAA1035C09C4E0112592 ====

foobar2000 1.2 / Dynamic Range Meter 1.1.1
log date: 2015-07-15 16:43:54

Analyzed: Tony Joe White / The Train I'm On

DR Peak RMS Duration Track

DR15 -0.12 dB -20.00 dB 2:43 01-I've Got A Thing About You Baby
DR14 -0.16 dB -18.61 dB 3:30 02-The Family
DR13 -1.15 dB -17.41 dB 3:21 03-If I Ever Saw A Good Thing
DR14 -1.94 dB -17.77 dB 3:21 04-Beouf River Road
DR15 -2.42 dB -20.63 dB 3:10 05-The Train I'm On
DR13 -0.38 dB -16.74 dB 4:56 06-Even Trolls Love Rock & Roll
DR14 -0.43 dB -18.21 dB 3:51 07-As The Crow Flies
DR14 -3.45 dB -22.05 dB 3:02 08-Take Time To Love
DR14 -0.21 dB -18.09 dB 2:45 09-300 Pounds Of Hongry
DR15 -1.98 dB -20.83 dB 4:00 10-The Migrant
DR13 -5.86 dB -23.82 dB 3:54 11-Sidewalk Hobo
DR13 -1.10 dB -18.70 dB 3:29 12-The Gospel Singer

Number of tracks: 12
Official DR value: DR14

Samplerate: 44100 Hz
Channels: 2
Bits per sample: 16
Bitrate: 733 kbps
Codec: FLAC

Tony Joe White - The Train I'm On (1972)

Tony Joe White - The Train I'm On (1972)

All thanks to original releaser - Swamp Fox
Password: designol

DOWNLOAD LINKS
Buy Premium From My Links To Get Resumable Support & Max Speed & To Support Me


Links are Interchangeable - No Password - Single Extraction
Direct Download

Tony Joe White - The Train I'm On (1972) Download via Hotfile Rapidshare Fileserve Megaupload & FileSonic, Tony Joe White - The Train I'm On (1972) free torrent downloads included crack, serial, keygen.Tony Joe White - The Train I'm On (1972) Fast Download via Rapidshare Hotfile Fileserve Filesonic Megaupload, Tony Joe White - The Train I'm On (1972) Torrents and Emule Download or anything related.
Leave a Comment
Your Name:
E-Mail:
Add Comments:

Enter Code: