Eddie Vedder - Water on the Road (2011) - Blu-ray

Download Now

Eddie Vedder - Water on the Road (2011) - Blu-ray

Eddie Vedder - Water on the Road (2011) - Blu-ray
M2TS/VC-1, ~17 Mbps | 1280x720, 59 fps | English | ~ 80 minutes | 15.9 Gb
DTS-HD Master Audio, 48KHz, 4136 kbps | LPCM, 48 kHz, 2304 kbps
Genre: Rock, Folk Rock

Water on the Road is a film released on DVD and Blu-ray by American singer and Pearl Jam frontman Eddie Vedder. It documents Vedder's 2008 solo tour, during which he performed Pearl Jam songs, numerous covers, and solo works including songs from the Into the Wild Soundtrack. The film features mostly performances from two shows Vedder performed on August 16 and 17, 2008, at Warner Theatre in Washington, D.C. It was released on May 31, 2011

Songs:
"1."The Canyon"
2."Sometimes"
3."Trouble"
4."Around the Bend"
5."Girl of the North Country"
6."Guaranteed"
7."Setting Forth"
8."Far Behind"
9."No Ceiling"
10."Rise"
11."Golden State"
12."Society"
13."Forever Young"
14."Ed Piano" (Instrumental)
15."I'm Open"
16."Man of the Hour"
17."Driftin'"
18."No More"
19."You're True"
20."Ukulele Interlude" (Instrumental)
21."Unthought Known"
22."Arc"
23."Hard Sun"
24."The Canyon (reprise)""


DISC INFO:

Disc Title: Eddie Vedder Live - Water on the Road - Blu-ray
Disc Size: 17,158,570,744 bytes
Protection: AACS
BD-Java: No
BDInfo: 0.5.8

PLAYLIST REPORT:

Name: 00001.MPLS
Length: 1:18:24.015 (h:m:s.ms)
Size: 15,215,394,816 bytes
Total Bitrate: 25.88 Mbps

VIDEO:

Codec Bitrate Description
-- - --
VC-1 Video 17981 kbps 720p / 59.940 fps / 16:9 / Advanced Profile 3

AUDIO:

Codec Language Bitrate Description
-- -- - --
LPCM Audio

English 2304 kbps 2.0 / 48 kHz / 2304 kbps / 24-bit
DTS-HD Master Audio English 4136 kbps 5.1 / 48 kHz / 4136 kbps / 24-bit (DTS Core: 5.1 / 48 kHz / 1509 kbps / 24-bit)

FILES:

Name Time In Length Size Total Bitrate
- - - -
00001.M2TS 0:00:00.000 1:18:13.004 15,210,749,952 25,929
00000.M2TS 1:18:13.004 0:00:10.009 4,608,000 3,683
00002.M2TS 1:18:23.014 0:00:01.000 36,864 295
********************
DISC INFO:

Disc Title: Eddie Vedder Live - Water on the Road - Blu-ray
Disc Size: 17,158,570,744 bytes
Protection: AACS
BD-Java: No
BDInfo: 0.5.8

PLAYLIST REPORT:

Name: 00003.MPLS
Length: 0:06:46.389 (h:m:s.ms)
Size: 1,318,699,008 bytes
Total Bitrate: 25.96 Mbps

VIDEO:

Codec Bitrate Description
-- - --
VC-1 Video 18047 kbps 720p / 59.940 fps / 16:9 / Advanced Profile 3

AUDIO:

Codec Language Bitrate Description
-- -- - --
LPCM Audio

English 2304 kbps 2.0 / 48 kHz / 2304 kbps / 24-bit
DTS-HD Master Audio English 4150 kbps 5.1 / 48 kHz / 4150 kbps / 24-bit (DTS Core: 5.1 / 48 kHz / 1509 kbps / 24-bit)

FILES:

Name Time In Length Size Total Bitrate
- - - -
00004.M2TS 0:00:00.000 0:06:45.388 1,318,662,144 26,023
00002.M2TS 0:06:45.388 0:00:01.000 36,864 295
********************
DISC INFO:

Disc Title: Eddie Vedder Live - Water on the Road - Blu-ray
Disc Size: 17,158,570,744 bytes
Protection: AACS
BD-Java: No
BDInfo: 0.5.8

PLAYLIST REPORT:

Name: 00002.MPLS
Length: 0:03:12.609 (h:m:s.ms)
Size: 619,401,216 bytes
Total Bitrate: 25.73 Mbps

VIDEO:

Codec Bitrate Description
-- - --
VC-1 Video 17757 kbps 720p / 59.940 fps / 16:9 / Advanced Profile 3

AUDIO:

Codec Language Bitrate Description
-- -- - --
LPCM Audio

English 2304 kbps 2.0 / 48 kHz / 2304 kbps / 24-bit
DTS-HD Master Audio English 4223 kbps 5.1 / 48 kHz / 4223 kbps / 24-bit (DTS Core: 5.1 / 48 kHz / 1509 kbps / 24-bit)

FILES:

Name Time In Length Size Total Bitrate
- - - -
00003.M2TS 0:00:00.000 0:03:11.608 619,364,352 25,860
00002.M2TS 0:03:11.608 0:00:01.000 36,864 295

Screenshots:

Eddie Vedder - Water on the Road (2011) - Blu-ray

Eddie Vedder - Water on the Road (2011) - Blu-ray

Eddie Vedder - Water on the Road (2011) - Blu-ray

Eddie Vedder - Water on the Road (2011) - Blu-ray


DOWNLOAD LINKS:
(Premium Recommended)

Rapidgator.net:
8briu.E.V.W.o.t.R.2011.B.part01.rar.html
8briu.E.V.W.o.t.R.2011.B.part02.rar.html
8briu.E.V.W.o.t.R.2011.B.part03.rar.html
8briu.E.V.W.o.t.R.2011.B.part04.rar.html
8briu.E.V.W.o.t.R.2011.B.part05.rar.html
8briu.E.V.W.o.t.R.2011.B.part06.rar.html
8briu.E.V.W.o.t.R.2011.B.part07.rar.html
8briu.E.V.W.o.t.R.2011.B.part08.rar.html
8briu.E.V.W.o.t.R.2011.B.part09.rar.html
8briu.E.V.W.o.t.R.2011.B.part10.rar.html
8briu.E.V.W.o.t.R.2011.B.part11.rar.html
8briu.E.V.W.o.t.R.2011.B.part12.rar.html
8briu.E.V.W.o.t.R.2011.B.part13.rar.html
8briu.E.V.W.o.t.R.2011.B.part14.rar.html
8briu.E.V.W.o.t.R.2011.B.part15.rar.html
8briu.E.V.W.o.t.R.2011.B.part16.rar.html
8briu.E.V.W.o.t.R.2011.B.part17.rar.html
8briu.E.V.W.o.t.R.2011.B.part18.rar.html
8briu.E.V.W.o.t.R.2011.B.part19.rar.html
8briu.E.V.W.o.t.R.2011.B.part20.rar.html
8briu.E.V.W.o.t.R.2011.B.part21.rar.html
8briu.E.V.W.o.t.R.2011.B.part22.rar.html
8briu.E.V.W.o.t.R.2011.B.part23.rar.html
8briu.E.V.W.o.t.R.2011.B.part24.rar.html
8briu.E.V.W.o.t.R.2011.B.part25.rar.html
8briu.E.V.W.o.t.R.2011.B.part26.rar.html
8briu.E.V.W.o.t.R.2011.B.part27.rar.html
8briu.E.V.W.o.t.R.2011.B.part28.rar.html
8briu.E.V.W.o.t.R.2011.B.part29.rar.html
8briu.E.V.W.o.t.R.2011.B.part30.rar.html
8briu.E.V.W.o.t.R.2011.B.part31.rar.html
8briu.E.V.W.o.t.R.2011.B.part32.rar.html
8briu.E.V.W.o.t.R.2011.B.part33.rar.html
8briu.E.V.W.o.t.R.2011.B.part34.rar.html
8briu.E.V.W.o.t.R.2011.B.part35.rar.html
8briu.E.V.W.o.t.R.2011.B.part36.rar.html

Uploaded.net:
8briu.E.V.W.o.t.R.2011.B.part01.rar
8briu.E.V.W.o.t.R.2011.B.part02.rar
8briu.E.V.W.o.t.R.2011.B.part03.rar
8briu.E.V.W.o.t.R.2011.B.part04.rar
8briu.E.V.W.o.t.R.2011.B.part05.rar
8briu.E.V.W.o.t.R.2011.B.part06.rar
8briu.E.V.W.o.t.R.2011.B.part07.rar
8briu.E.V.W.o.t.R.2011.B.part08.rar
8briu.E.V.W.o.t.R.2011.B.part09.rar
8briu.E.V.W.o.t.R.2011.B.part10.rar
8briu.E.V.W.o.t.R.2011.B.part11.rar
8briu.E.V.W.o.t.R.2011.B.part12.rar
8briu.E.V.W.o.t.R.2011.B.part13.rar
8briu.E.V.W.o.t.R.2011.B.part14.rar
8briu.E.V.W.o.t.R.2011.B.part15.rar
8briu.E.V.W.o.t.R.2011.B.part16.rar
8briu.E.V.W.o.t.R.2011.B.part17.rar
8briu.E.V.W.o.t.R.2011.B.part18.rar
8briu.E.V.W.o.t.R.2011.B.part19.rar
8briu.E.V.W.o.t.R.2011.B.part20.rar
8briu.E.V.W.o.t.R.2011.B.part21.rar
8briu.E.V.W.o.t.R.2011.B.part22.rar
8briu.E.V.W.o.t.R.2011.B.part23.rar
8briu.E.V.W.o.t.R.2011.B.part24.rar
8briu.E.V.W.o.t.R.2011.B.part25.rar
8briu.E.V.W.o.t.R.2011.B.part26.rar
8briu.E.V.W.o.t.R.2011.B.part27.rar
8briu.E.V.W.o.t.R.2011.B.part28.rar
8briu.E.V.W.o.t.R.2011.B.part29.rar
8briu.E.V.W.o.t.R.2011.B.part30.rar
8briu.E.V.W.o.t.R.2011.B.part31.rar
8briu.E.V.W.o.t.R.2011.B.part32.rar
8briu.E.V.W.o.t.R.2011.B.part33.rar
8briu.E.V.W.o.t.R.2011.B.part34.rar
8briu.E.V.W.o.t.R.2011.B.part35.rar
8briu.E.V.W.o.t.R.2011.B.part36.rar

Uploadable.ch:
8briu.E.V.W.o.t.R.2011.B.part01.rar
8briu.E.V.W.o.t.R.2011.B.part02.rar
8briu.E.V.W.o.t.R.2011.B.part03.rar
8briu.E.V.W.o.t.R.2011.B.part04.rar
8briu.E.V.W.o.t.R.2011.B.part05.rar
8briu.E.V.W.o.t.R.2011.B.part06.rar
8briu.E.V.W.o.t.R.2011.B.part07.rar
8briu.E.V.W.o.t.R.2011.B.part08.rar
8briu.E.V.W.o.t.R.2011.B.part09.rar
8briu.E.V.W.o.t.R.2011.B.part10.rar
8briu.E.V.W.o.t.R.2011.B.part11.rar
8briu.E.V.W.o.t.R.2011.B.part12.rar
8briu.E.V.W.o.t.R.2011.B.part13.rar
8briu.E.V.W.o.t.R.2011.B.part14.rar
8briu.E.V.W.o.t.R.2011.B.part15.rar
8briu.E.V.W.o.t.R.2011.B.part16.rar
8briu.E.V.W.o.t.R.2011.B.part17.rar
8briu.E.V.W.o.t.R.2011.B.part18.rar
8briu.E.V.W.o.t.R.2011.B.part19.rar
8briu.E.V.W.o.t.R.2011.B.part20.rar
8briu.E.V.W.o.t.R.2011.B.part21.rar
8briu.E.V.W.o.t.R.2011.B.part22.rar
8briu.E.V.W.o.t.R.2011.B.part23.rar
8briu.E.V.W.o.t.R.2011.B.part24.rar
8briu.E.V.W.o.t.R.2011.B.part25.rar
8briu.E.V.W.o.t.R.2011.B.part26.rar
8briu.E.V.W.o.t.R.2011.B.part27.rar
8briu.E.V.W.o.t.R.2011.B.part28.rar
8briu.E.V.W.o.t.R.2011.B.part29.rar
8briu.E.V.W.o.t.R.2011.B.part30.rar
8briu.E.V.W.o.t.R.2011.B.part31.rar
8briu.E.V.W.o.t.R.2011.B.part32.rar
8briu.E.V.W.o.t.R.2011.B.part33.rar
8briu.E.V.W.o.t.R.2011.B.part34.rar
8briu.E.V.W.o.t.R.2011.B.part35.rar
8briu.E.V.W.o.t.R.2011.B.part36.rar

All above links are interchangable. No password
Direct Download

Tags: Vedder

Eddie Vedder - Water on the Road (2011) - Blu-ray Download via Hotfile Rapidshare Fileserve Megaupload & FileSonic, Eddie Vedder - Water on the Road (2011) - Blu-ray free torrent downloads included crack, serial, keygen.Eddie Vedder - Water on the Road (2011) - Blu-ray Fast Download via Rapidshare Hotfile Fileserve Filesonic Megaupload, Eddie Vedder - Water on the Road (2011) - Blu-ray Torrents and Emule Download or anything related.
Leave a Comment
Your Name:
E-Mail:
Add Comments:

Enter Code: