Tchaikovsky - The Nutcracker (Nina Kaptsova, Artem Ovcharenko) (2010) [BluRay-rip]

Download Now

Tchaikovsky - The Nutcracker (Nina Kaptsova, Artem Ovcharenko) (2010) [BluRay-rip]

Tchaikovsky - The Nutcracker (Nina Kaptsova, Artem Ovcharenko) (2010) luRay-rip
Classical | BluRay-rip | AVC | MKV 1920x1080 (16:9) / 6215 kbps / 29,970 fps | 103 min | 5,58GB
Audio: DTS / 6ch / 48.0 KHz / 16 bits

"A masterpiece of classical dance, and a Christmas favourite with audiences everywhere, this Nutcracker is a magical version of the score by Tchaikovsky filmed at the Bolshoi Theatre. Since its première in Saint-Petersburg in 1892, The Nutcracker has been one of the most successful classical ballets and Tchaikovsky's score has become one of his most famous compositions. Yuri Grigorovich deals with Hoffmann s fantastic imagery and takes ideas from Marius Petipa s scenario: battle of the mice, snowflakes flurry, character dances executed by the dolls that came to life... The most talented soloists of the Bolshoi Ballet appear in this production including Nina Kaptsova (Marie) and Artem Ovcharenko (the Nutcracker Prince) and Denis Savin (Drosselmeyer)."

Cast:
Marie - Nina Kaptsova
The Nutcracker / Prince - Artem Ovcharenko
Drosselmeyer - Denis Savin
Stahlbaum - Alexey Loparevich
Mrs. Stahlbaum - Olga Suvorova
Mouse King - Pavel Dmitrichenko
The Bolshoi Ballet
Orchestra of the State Academic Bolshoi Theatre
Conductor - Pavel Klinichev
Choreography - Yuri Grigorovich

Video
ID : 1
Format
: AVC
Format/Info
: Advanced Video Codec
Format profile : [email protected]
Format settings, CABAC : Yes
Format settings, ReFrames : 2 frames
Codec ID
: V_MPEG4/ISO/AVC
Duration
: 1h 43mn
Bit rate
: 6 215 Kbps
Width
: 1 920 pixels
Height
: 1 080 pixels
Display aspect ratio : 16:9
Frame rate mode : Constant
Frame rate
: 29.970 fps
Color space
: YUV
Chroma subsampling

: 4:2:0
Bit depth
: 8 bits
Scan type
: Progressive
Bits/(Pixel*Frame)

: 0.100
Stream size
: 4.39 GiB (79%)
Writing library : x264 core 142
Encoding settings: cabac=1 / ref=1 / deblock=1:-1:-1 / analyse=0x3:0 / me=hex / subme=5 / psy=0 / mixed_ref=0 / me_range=16 / chroma_me=1 / trellis=0 / 8x8dct=1 / cqm=0 / deadzone=21,11 / fast_pskip=1 / chroma_qp_offset=0 / threads=8 / lookahead_threads=2 / sliced_threads=0 / nr=0 / decimate=1 / interlaced=0 / bluray_compat=0 / constrained_intra=0 / bframes=2 / b_pyramid=0 / b_adapt=1 / b_bias=0 / direct=1 / weightb=1 / open_gop=0 / weightp=0 / keyint=24 / keyint_min=13 / scenecut=40 / intra_refresh=0 / rc=abr / mbtree=0 / bitrate=6215 / ratetol=1.0 / qcomp=0.60 / qpmin=0 / qpmax=69 / qpstep=4 / ip_ratio=1.40 / pb_ratio=1.30 / aq=1:1.00
Default
: Yes
Forced
: No
Color primaries : BT.709
Transfer characteristics : BT.709
Matrix coefficients

: BT.709
Color range
: Limited

Audio
ID : 2
Format
: DTS
Format/Info
: Digital Theater Systems
Mode
: 16
Format settings, Endianness : Big
Codec ID
: A_DTS
Duration
: 1h 43mn
Bit rate mode : Constant
Bit rate
: 1 509 Kbps
Channel(s)
: 6 channels
Channel positions: Front: L C R, Side: L R, LFE
Sampling rate : 48.0 KHz
Bit depth
: 16 bits
Compression mode : Lossy
Stream size
: 1.09 GiB (19%)
Language
: Russian
Default
: Yes
Forced
: No

Menu
00:00:00.000 : en:Chapter 01
00:03:48.795 : en:Chapter 02
00:07:45.631 : en:Chapter 03
00:10:24.123 : en:Chapter 04
00:12:00.386 : en:Chapter 05
00:13:12.792 : en:Chapter 06
00:16:25.617 : en:Chapter 07
00:18:38.984 : en:Chapter 08
00:19:53.825 : en:Chapter 09
00:21:23.115 : en:Chapter 10
00:25:44.676 : en:Chapter 11
00:27:51.703 : en:Chapter 12
00:29:55.193 : en:Chapter 13
00:42:40.591 : en:Chapter 14
00:49:50.053 : en:Chapter 15
00:51:16.640 : en:Chapter 16
00:55:51.681 : en:Chapter 17
00:59:31.301 : en:Chapter 18
01:00:53.149 : en:Chapter 19
01:05:33.396 : en:Chapter 20
01:06:51.073 : en:Chapter 21
01:08:14.423 : en:Chapter 22
01:12:51.767 : en:Chapter 23
01:20:31.226 : en:Chapter 24
01:27:01.816 : en:Chapter 25
01:28:10.618 : en:Chapter 26
01:31:36.190 : en:Chapter 27
01:33:15.156 : en:Chapter 28
01:36:57.812 : en:Chapter 29
01:38:38.012 : en:Chapter 30

Tchaikovsky - The Nutcracker (Nina Kaptsova, Artem Ovcharenko) (2010) [BluRay-rip]





DOWNLOAD LINKS
Buy Premium From My Links To Get Resumable Support & Max Speed & To Support Me

Rapidgator.net:
http://rapidgator.net/file/4ee2357b31088bc0243cb7e5da93aad9/pcctf.T.T.N.N.K.A.O.2010.BR.part1.rar.html
http://rapidgator.net/file/7b8ecc80b35782227f15dca4f5d86474/pcctf.T.T.N.N.K.A.O.2010.BR.part2.rar.html
http://rapidgator.net/file/4b4f72c065966eebc2e73fc4d29a4088/pcctf.T.T.N.N.K.A.O.2010.BR.part3.rar.html
http://rapidgator.net/file/b7f60654a381000bafe99a3a47f03392/pcctf.T.T.N.N.K.A.O.2010.BR.part4.rar.html
http://rapidgator.net/file/38621b82aebfd3339beed2aad4521bdf/pcctf.T.T.N.N.K.A.O.2010.BR.part5.rar.html
http://rapidgator.net/file/29febcf0aa85d6a366e4535ae4b1fb1e/pcctf.T.T.N.N.K.A.O.2010.BR.part6.rar.html
http://rapidgator.net/file/67b88f0f1a03ba188bfd4fd9582a40b7/pcctf.T.T.N.N.K.A.O.2010.BR.part7.rar.html

Uploaded.net:
http://uploaded.net/file/qaymm9d8/pcctf.T.T.N.N.K.A.O.2010.BR.part1.rar
http://uploaded.net/file/wck5ruyl/pcctf.T.T.N.N.K.A.O.2010.BR.part2.rar
http://uploaded.net/file/agdk5ug5/pcctf.T.T.N.N.K.A.O.2010.BR.part3.rar
http://uploaded.net/file/y5ofdd3e/pcctf.T.T.N.N.K.A.O.2010.BR.part4.rar
http://uploaded.net/file/t13hoj35/pcctf.T.T.N.N.K.A.O.2010.BR.part5.rar
http://uploaded.net/file/8ntc2vg1/pcctf.T.T.N.N.K.A.O.2010.BR.part6.rar
http://uploaded.net/file/nut029dr/pcctf.T.T.N.N.K.A.O.2010.BR.part7.rar

Uploadable.ch:
http://www.uploadable.ch/file/pb8tH7rwCMdj/pcctf.T.T.N.N.K.A.O.2010.BR.part1.rar
http://www.uploadable.ch/file/UF2E6PnrJe6G/pcctf.T.T.N.N.K.A.O.2010.BR.part2.rar
http://www.uploadable.ch/file/mMQE2KuVZxDS/pcctf.T.T.N.N.K.A.O.2010.BR.part3.rar
http://www.uploadable.ch/file/sac7vYfDv4re/pcctf.T.T.N.N.K.A.O.2010.BR.part4.rar
http://www.uploadable.ch/file/PgkHMesWREde/pcctf.T.T.N.N.K.A.O.2010.BR.part5.rar
http://www.uploadable.ch/file/xrf6qkY48fVj/pcctf.T.T.N.N.K.A.O.2010.BR.part6.rar
http://www.uploadable.ch/file/pcXP8R4Y2VNg/pcctf.T.T.N.N.K.A.O.2010.BR.part7.rar

Links are Interchangeable - No Password - Single Extraction
Direct Download

Tags: Tchaikovsky, Nutcracker, Kaptsova, Ovcharenko, BluRay

Tchaikovsky - The Nutcracker (Nina Kaptsova, Artem Ovcharenko) (2010) [BluRay-rip] Download via Hotfile Rapidshare Fileserve Megaupload & FileSonic, Tchaikovsky - The Nutcracker (Nina Kaptsova, Artem Ovcharenko) (2010) [BluRay-rip] free torrent downloads included crack, serial, keygen.Tchaikovsky - The Nutcracker (Nina Kaptsova, Artem Ovcharenko) (2010) [BluRay-rip] Fast Download via Rapidshare Hotfile Fileserve Filesonic Megaupload, Tchaikovsky - The Nutcracker (Nina Kaptsova, Artem Ovcharenko) (2010) [BluRay-rip] Torrents and Emule Download or anything related.
Leave a Comment
Your Name:
E-Mail:
Add Comments:

Enter Code: