Kamasi Washington - The Epic (2015) 3CD

Download Now

Kamasi Washington - The Epic (2015) 3CD

Kamasi Washington - The Epic (2015) 3CD
EAC | FLAC | Tracks (Cue&Log) ~ 1.12 Gb (incl 5%) | Time: 02:53:37 | Scans included
Genre: Jazz-Funk, Fusion, Contemporary Jazz | Label: Brainfeeder | # BFCD050

"The Epic is saxophonist Kamasi Washington's aptly titled, triple-length, 172-minute debut album for Brainfeeder. He is a veteran of L.A.'s music scene and has played with Gerald Wilson, Harvey Mason, Flying Lotus, and Kendrick Lamar (his horn is prominently featured on To Pimp a Butterfly), to name but a few. Most of his bandmates have played together since high school, and it shows. There are two drummers (including Ronald Bruner), two bassists (including Stephen "Thundercat" Bruner on electric), two keyboardists, trumpet, trombone, and vocals (Patrice Quinn). In various settings, they are supported by a string orchestra and full choir conducted by Miguel Atwood-Ferguson. Washington composed 13 of these 17 tunes; he also meticulously arranged and produced them. At just over six to nearly 15 minutes, the jams leave room for engaged improvisation. The Epic is based on a concept, though it's unnecessary to grasp in order to enjoy. The music reflects many inspirations -- John Coltrane, Horace Tapscott's Pan-African People's Arkestra, Azar Lawrence's Prestige period, Donald Byrd's and Eddie Gale's jazz and choir explorations, Pharoah Sanders' pan global experiments, Afro-Latin jazz, spiritual soul, and DJ culture."


Tracklist:

CD1: Volume 1 - The Plan:

01. Change of the Guard (12:15)
02. Askim (12:34)
03. Isabelle (12:12)
04. Final Thought (06:31)
05. The Next Step (14:48)
06. The Rhythm Changes (07:45)

CD2: Volume 2 - The Glorious Tale:

01. Miss Understanding (08:46)
02. Leroy and Lanisha (09:24)
03. Re Run (08:19)
04. Seven Prayers (07:35)
05. Henrietta Our Hero (07:13)
06. The Magnificent 7 (12:48)

CD3: Volume 3 - The Historic Repetition:

01. Re Run Home (14:06)
02. Cherokee (08:14)
03. Clair de Lune (11:07)
04. Malcolm's Theme (08:40)
05. The Message (11:11)


Exact Audio Copy V1.0 beta 6 from 9. April 2015

EAC extraction logfile from 19. May 2015, 21:16

Kamasi Washington / The Epic

Used drive : TSSTcorpCDDVDW SH-S223L Adapter: 1 ID: 1

Read mode : Secure
Utilize accurate stream : Yes
Defeat audio cache : Yes
Make use of C2 pointers : No

Read offset correction

: 6
Overread into Lead-In and Lead-Out : No
Fill up missing offset samples with silence : Yes
Delete leading and trailing silent blocks : No
Null samples used in CRC calculations : Yes
Used interface
: Native Win32 interface for Win NT & 2000
Gap handling
: Appended to previous track

Used output format : User Defined Encoder
Selected bitrate : 1024 kBit/s
Quality : High
Add ID3 tag : No
Command line compressor : C:\Program Files (x86)\Exact Audio Copy\Flac\flac.exe
Additional command line options : -8 -V -T "ARTIST=%artist%" -T "TITLE=%title%" -T "ALBUM=%albumtitle%" -T "DATE=%year%" -T "TRACKNUMBER=%tracknr%" -T "GENRE=%genre%" -T "PERFORMER=%albuminterpret%" -T "COMPOSER=%composer%" %haslyrics%--tag-from-file=LYRICS="%lyricsfile%"%haslyrics% -T "ALBUMARTIST=%albumartist%" -T "DISCNUMBER=%cdnumber%" -T "TOTALDISCS=%totalcds%" -T "TOTALTRACKS=%numtracks%" -T "COMMENT=%comment%" %source% -o %dest%

TOC of the extracted CD Track | Start | Length | Start sector | End sector
--1 | 0:00.00 | 12:15.72 | 0 | 55196 2 | 12:15.72 | 12:34.52 | 55197 | 111798 3 | 24:50.49 | 12:12.40 | 111799 | 166738 4 | 37:03.14 | 6:31.60 | 166739 | 196123 5 | 43:34.74 | 14:48.65 | 196124 | 262788 6 | 58:23.64 | 7:45.24 | 262789 | 297687

Track 1 Filename C:\Rips\01 - Change of the Guard.wav Pre-gap length 0:00:02.00 Peak level 98.8 %
Extraction speed 3.1 X
Track quality 100.0 %
Test CRC 1465E7CA
Copy CRC 1465E7CA
Track not present in AccurateRip database
Copy OK

Track 2 Filename C:\Rips\02 - Askim.wav Peak level 97.4 %
Extraction speed 3.8 X
Track quality 100.0 %
Test CRC 841742F4
Copy CRC 841742F4
Track not present in AccurateRip database
Copy OK

Track 3 Filename C:\Rips\03 - Isabelle.wav Peak level 96.8 %
Extraction speed 4.5 X
Track quality 100.0 %
Test CRC FF5A0889
Copy CRC FF5A0889
Track not present in AccurateRip database
Copy OK

Track 4 Filename C:\Rips\04 - Final Thought.wav Peak level 97.3 %
Extraction speed 4.7 X
Track quality 100.0 %
Test CRC 92A16755
Copy CRC 92A16755
Track not present in AccurateRip database
Copy OK

Track 5 Filename C:\Rips\05 - The Next Step.wav Peak level 96.7 %
Extraction speed 5.4 X
Track quality 100.0 %
Test CRC 7BE38A3C
Copy CRC 7BE38A3C
Track not present in AccurateRip database
Copy OK

Track 6 Filename C:\Rips\06 - The Rhythm Changes.wav Peak level 97.2 %
Extraction speed 5.6 X
Track quality 100.0 %
Test CRC 45E12E64
Copy CRC 45E12E64
Track not present in AccurateRip database
Copy OK

None of the tracks are present in the AccurateRip database

No errors occurred

End of status report

- CUETools DB Plugin V2.1.6

[CTDB TOCID: aiEfPu.IPI.B95gXIVVe8Rdjask-] found
Submit result: aiEfPu.IPI.B95gXIVVe8Rdjask- has been confirmed
Track | CTDB Status
1 | (2/2) Accurately ripped
2 | (2/2) Accurately ripped
3 | (2/2) Accurately ripped
4 | (2/2) Accurately ripped
5 | (2/2) Accurately ripped
6 | (2/2) Accurately ripped

==== Log checksum 5C01D2CF0769E030147FD36F6A46C200207701239813BD2A85B2520A32E844BF ====

foobar2000 1.2 / Dynamic Range Meter 1.1.1
log date: 2015-07-22 18:54:13

Analyzed: Kamasi Washington / The Epic, Volume 1 - The Plan

DR Peak RMS Duration Track

DR8 -0.10 dB -10.73 dB 12:16 01-Change of the Guard
DR8 -0.22 dB -11.58 dB 12:35 02-Askim
DR9 -0.28 dB -12.38 dB 12:13 03-Isabelle
DR8 -0.23 dB -10.00 dB 6:32 04-Final Thought
DR9 -0.29 dB -13.25 dB 14:49 05-The Next Step
DR9 -0.25 dB -11.44 dB 7:45 06-The Rhythm Changes

Number of tracks: 6
Official DR value: DR9

Samplerate: 44100 Hz
Channels: 2
Bits per sample: 16
Bitrate: 872 kbps
Codec: FLAC

Exact Audio Copy V1.0 beta 6 from 9. April 2015

EAC extraction logfile from 19. May 2015, 21:44

Kamasi Washington / The Epic

Used drive : TSSTcorpCDDVDW SH-S223L Adapter: 1 ID: 1

Read mode : Secure
Utilize accurate stream : Yes
Defeat audio cache : Yes
Make use of C2 pointers : No

Read offset correction

: 6
Overread into Lead-In and Lead-Out : No
Fill up missing offset samples with silence : Yes
Delete leading and trailing silent blocks : No
Null samples used in CRC calculations : Yes
Used interface
: Native Win32 interface for Win NT & 2000
Gap handling
: Appended to previous track

Used output format : User Defined Encoder
Selected bitrate : 1024 kBit/s
Quality : High
Add ID3 tag : No
Command line compressor : C:\Program Files (x86)\Exact Audio Copy\Flac\flac.exe
Additional command line options : -8 -V -T "ARTIST=%artist%" -T "TITLE=%title%" -T "ALBUM=%albumtitle%" -T "DATE=%year%" -T "TRACKNUMBER=%tracknr%" -T "GENRE=%genre%" -T "PERFORMER=%albuminterpret%" -T "COMPOSER=%composer%" %haslyrics%--tag-from-file=LYRICS="%lyricsfile%"%haslyrics% -T "ALBUMARTIST=%albumartist%" -T "DISCNUMBER=%cdnumber%" -T "TOTALDISCS=%totalcds%" -T "TOTALTRACKS=%numtracks%" -T "COMMENT=%comment%" %source% -o %dest%

TOC of the extracted CD Track | Start | Length | Start sector | End sector
--1 | 0:00.00 | 8:46.20 | 0 | 39469 2 | 8:46.20 | 9:24.20 | 39470 | 81789 3 | 18:10.40 | 8:19.48 | 81790 | 119262 4 | 26:30.13 | 7:35.70 | 119263 | 153457 5 | 34:06.08 | 7:13.57 | 153458 | 185989 6 | 41:19.65 | 12:48.06 | 185990 | 243595

Track 1 Filename C:\Rips\01 - Miss Understanding.wav Pre-gap length 0:00:02.00 Peak level 98.8 %
Extraction speed 4.9 X
Track quality 100.0 %
Test CRC F22A9C2A
Copy CRC F22A9C2A
Track not present in AccurateRip database
Copy OK

Track 2 Filename C:\Rips\02 - Leroy and Lanisha.wav Peak level 98.8 %
Extraction speed 5.9 X
Track quality 100.0 %
Test CRC B7384101
Copy CRC B7384101
Track not present in AccurateRip database
Copy OK

Track 3 Filename C:\Rips\03 - Re Run.wav Peak level 96.8 %
Extraction speed 5.9 X
Track quality 99.9 %
Test CRC C6B34ED9
Copy CRC C6B34ED9
Track not present in AccurateRip database
Copy OK

Track 4 Filename C:\Rips\04 - Seven Prayers.wav Peak level 98.8 %
Extraction speed 7.3 X
Track quality 100.0 %
Test CRC AE65BA7B
Copy CRC AE65BA7B
Track not present in AccurateRip database
Copy OK

Track 5 Filename C:\Rips\05 - Henrietta Our Hero.wav Peak level 97.9 %
Extraction speed 7.7 X
Track quality 100.0 %
Test CRC 28352AFF
Copy CRC 28352AFF
Track not present in AccurateRip database
Copy OK

Track 6 Filename C:\Rips\06 - The Magnificent 7.wav Peak level 98.8 %
Extraction speed 8.6 X
Track quality 100.0 %
Test CRC A3EA6C60
Copy CRC A3EA6C60
Track not present in AccurateRip database
Copy OK

None of the tracks are present in the AccurateRip database

No errors occurred

End of status report

- CUETools DB Plugin V2.1.6

[CTDB TOCID: Ex6PbT1HYRIyrCexhsR.YM6cjmI-] found
Submit result: Ex6PbT1HYRIyrCexhsR.YM6cjmI- has been confirmed
Track | CTDB Status
1 | (2/2) Accurately ripped
2 | (2/2) Accurately ripped
3 | (2/2) Accurately ripped
4 | (2/2) Accurately ripped
5 | (2/2) Accurately ripped
6 | (2/2) Accurately ripped

==== Log checksum B3EF6C5799D8C43E988FB24E6447D18292396349635167309821E8E45CFD3299 ====

foobar2000 1.2 / Dynamic Range Meter 1.1.1
log date: 2015-07-22 18:54:31

Analyzed: Kamasi Washington / The Epic, Volume 2 - The Glorious Tale

DR Peak RMS Duration Track

DR8 -0.10 dB -10.69 dB 8:46 01-Miss Understanding
DR7 -0.10 dB -9.93 dB 9:24 02-Leroy and Lanisha
DR8 -0.27 dB -10.22 dB 8:20 03-Re Run
DR9 -0.10 dB -13.29 dB 7:36 04-Seven Prayers
DR7 -0.18 dB -10.93 dB 7:14 05-Henrietta Our Hero
DR7 -0.10 dB -9.60 dB 12:48 06-The Magnificent 7

Number of tracks: 6
Official DR value: DR8

Samplerate: 44100 Hz
Channels: 2
Bits per sample: 16
Bitrate: 902 kbps
Codec: FLAC

Exact Audio Copy V1.0 beta 6 from 9. April 2015

EAC extraction logfile from 19. May 2015, 22:06

Kamasi Washington / The Epic

Used drive : TSSTcorpCDDVDW SH-S223L Adapter: 1 ID: 1

Read mode : Secure
Utilize accurate stream : Yes
Defeat audio cache : Yes
Make use of C2 pointers : No

Read offset correction

: 6
Overread into Lead-In and Lead-Out : No
Fill up missing offset samples with silence : Yes
Delete leading and trailing silent blocks : No
Null samples used in CRC calculations : Yes
Used interface
: Native Win32 interface for Win NT & 2000
Gap handling
: Appended to previous track

Used output format : User Defined Encoder
Selected bitrate : 1024 kBit/s
Quality : High
Add ID3 tag : No
Command line compressor : C:\Program Files (x86)\Exact Audio Copy\Flac\flac.exe
Additional command line options : -8 -V -T "ARTIST=%artist%" -T "TITLE=%title%" -T "ALBUM=%albumtitle%" -T "DATE=%year%" -T "TRACKNUMBER=%tracknr%" -T "GENRE=%genre%" -T "PERFORMER=%albuminterpret%" -T "COMPOSER=%composer%" %haslyrics%--tag-from-file=LYRICS="%lyricsfile%"%haslyrics% -T "ALBUMARTIST=%albumartist%" -T "DISCNUMBER=%cdnumber%" -T "TOTALDISCS=%totalcds%" -T "TOTALTRACKS=%numtracks%" -T "COMMENT=%comment%" %source% -o %dest%

TOC of the extracted CD Track | Start | Length | Start sector | End sector
--1 | 0:00.00 | 14:06.04 | 0 | 63453 2 | 14:06.04 | 8:14.35 | 63454 | 100538 3 | 22:20.39 | 11:07.55 | 100539 | 150618 4 | 33:28.19 | 8:40.38 | 150619 | 189656 5 | 42:08.57 | 11:11.08 | 189657 | 239989

Track 1 Filename C:\Rips\01 - Re Run Home.wav Pre-gap length 0:00:02.00 Peak level 98.8 %
Extraction speed 5.3 X
Track quality 100.0 %
Test CRC 3182120C
Copy CRC 3182120C
Track not present in AccurateRip database
Copy OK

Track 2 Filename C:\Rips\02 - Cherokee.wav Peak level 98.8 %
Extraction speed 6.3 X
Track quality 100.0 %
Test CRC 9CAB95A6
Copy CRC 9CAB95A6
Track not present in AccurateRip database
Copy OK

Track 3 Filename C:\Rips\03 - Clair de Lune.wav Peak level 96.8 %
Extraction speed 7.2 X
Track quality 100.0 %
Test CRC F70BE78A
Copy CRC F70BE78A
Track not present in AccurateRip database
Copy OK

Track 4 Filename C:\Rips\04 - Malcolm's Theme.wav Peak level 97.8 %
Extraction speed 7.8 X
Track quality 100.0 %
Test CRC 065CDCBE
Copy CRC 065CDCBE
Track not present in AccurateRip database
Copy OK

Track 5 Filename C:\Rips\05 - The Message.wav Peak level 98.7 %
Extraction speed 8.6 X
Track quality 100.0 %
Test CRC 3E306AC7
Copy CRC 3E306AC7
Track not present in AccurateRip database
Copy OK

None of the tracks are present in the AccurateRip database

No errors occurred

End of status report

- CUETools DB Plugin V2.1.6

[CTDB TOCID: qjVZQXvAqPW72QRUCxFpFEH5sAU-] found
Submit result: qjVZQXvAqPW72QRUCxFpFEH5sAU- has been confirmed
Track | CTDB Status
1 | (2/2) Accurately ripped
2 | (2/2) Accurately ripped
3 | (2/2) Accurately ripped
4 | (2/2) Accurately ripped
5 | (2/2) Accurately ripped

==== Log checksum DE375F6E468791F239236D9B0E3EE740D832C2619730B2C43ADAB650C42DB03C ====

foobar2000 1.2 / Dynamic Range Meter 1.1.1
log date: 2015-07-22 18:54:57

Analyzed: Kamasi Washington / The Epic, Volume 3 - The Historic Repetition

DR Peak RMS Duration Track

DR8 -0.10 dB -10.22 dB 14:06 01-Re Run Home
DR7 -0.10 dB -9.84 dB 8:14 02-Cherokee
DR9 -0.28 dB -12.99 dB 11:08 03-Clair de Lune
DR8 -0.19 dB -10.64 dB 8:41 04-Malcolm's Theme
DR8 -0.11 dB -10.71 dB 11:11 05-The Message

Number of tracks: 5
Official DR value: DR8

Samplerate: 44100 Hz
Channels: 2
Bits per sample: 16
Bitrate: 946 kbps
Codec: FLAC

Kamasi Washington - The Epic (2015) 3CD

Kamasi Washington - The Epic (2015) 3CD

All thanks to original releaser - Trekker1 and fiks22 for share
Password: designol

DOWNLOAD LINKS
Buy Premium From My Links To Get Resumable Support & Max Speed & To Support Me


Links are Interchangeable - No Password - Single Extraction
Direct Download

Tags: Kamasi, Washington

Kamasi Washington - The Epic (2015) 3CD Download via Hotfile Rapidshare Fileserve Megaupload & FileSonic, Kamasi Washington - The Epic (2015) 3CD free torrent downloads included crack, serial, keygen.Kamasi Washington - The Epic (2015) 3CD Fast Download via Rapidshare Hotfile Fileserve Filesonic Megaupload, Kamasi Washington - The Epic (2015) 3CD Torrents and Emule Download or anything related.
Leave a Comment
Your Name:
E-Mail:
Add Comments:

Enter Code: