Travers & Appice - Live At The House Of Blues (2005)

Download Now

Travers & Appice - Live At The House Of Blues (2005)

Travers & Appice - Live At The House Of Blues (2005)
EAC Rip | FLAC (Img) + Cue + Log ~ 587 Mb | MP3 CBR320 ~ 207 Mb
Scans Included (JPG, 300 dpi) | RAR 5% Recovery
Blues Rock, Hard Rock | Escapi Music #NMS032

"Back in the '70s, both Pat Travers and Carmine Appice were responsible for laying down the boogie -- Travers as a leader of the Pat Travers Band, and Appice as a member of Cactus and Beck Bogert & Appice. Fast forward three decades later, and the duo has decided to combine their talents (along with session pro bassist T.M. Stevens), as Travers & Appice. Touring in support of a debut album with the title of It Takes a Lot of Balls, it shouldn't have come as a surprise that their shows were rift with testosterone-heavy rock (but with a bluesy feel). Less than a year after the arrival of their debut comes a concert set, 2005's Live at the House of Blues..."


Track List:

01. Taken [06:14]
02. Better From A Distance [04:34]
03. I Don't Care [05:07]
04. Crash And Burn [05:09]
05. Living Alone [05:13]
06. Gotta Have You [09:08]
07. Turn Me On [04:38]
08. Can't Escape The Fire / La La Love [09:42]
09. Evil [09:14]
10. Do Ya Think I'm Sexy [06:50]
11. Boom Boom [05:41]
12. Keep On Rocking [07:05]

Exact Audio Copy V0.99 prebeta 4 from 23. January 2008

Отчёт EAC об извлечении, выполненном 5. января 2012, 19:47

Travers & Appice / Live at the House of Blues

Дисковод: PLEXTOR DVDR PX-880SA Adapter: 1 ID: 1

Режим чтения : Достоверность
Использование точного потока : Да
Отключение кэша аудио : Да
Использование указателей C2 : Нет

Коррекция смещения при чтении : 6
Способность читать области Lead-in и Lead-out : Нет
Заполнение пропущенных сэмплов тишиной : Да
Удаление блоков с тишиной в начале и конце : Нет
При вычислениях CRC использовались нулевые сэмплы : Да
Интерфейс : Встроенный Win32-интерфейс для Win NT/2000

Выходной формат : Пользовательский кодировщик
Выбранный битрейт : 1024 kBit/s
Качество : Высокий
Добавление ID3-тэга : Нет
Утилита сжатия : C:\Program Files\Exact Audio Copy\FLAC\FLAC.EXE
Дополнительные параметры : -6 -V -T "ARTIST=%a" -T "TITLE=%t" -T "ALBUM=%g" -T "DATE=%y" -T "TRACKNUMBER=%n" -T "GENRE=%m" -T "COMMENT=%e" %s -o %d

TOC извлечённого CD Трек | Старт | Длительность | Начальный сектор | Конечный сектор

1 | 0:00.00 | 6:13.70 | 0 | 28044
2 | 6:13.70 | 4:33.64 | 28045 | 48583
3 | 10:47.59 | 5:06.42 | 48584 | 71575
4 | 15:54.26 | 5:08.58 | 71576 | 94733
5 | 21:03.09 | 5:12.30 | 94734 | 118163
6 | 26:15.39 | 9:07.21 | 118164 | 159209
7 | 35:22.60 | 4:37.44 | 159210 | 180028
8 | 40:00.29 | 9:41.24 | 180029 | 223627
9 | 49:41.53 | 9:13.47 | 223628 | 265149
10 | 58:55.25 | 6:49.24 | 265150 | 295848
11 | 65:44.49 | 5:40.57 | 295849 | 321405
12 | 71:25.31 | 7:04.66 | 321406 | 353271

Характеристики диапазона извлечения и сообщения об ошибках

Выбранный диапазон Имя файла J:\BitComet\Travers & Appice - Live at the House of Blues(2005)(flac)\Travers & Appice - Live at the House of Blues.wav Пиковый уровень 94.4 %
Качество диапазона 100.0 %
CRC теста 14773214
CRC копии 14773214
Копирование... OK

Ошибок не произошло


AccurateRip: сводка

Трек 1 нет в базе данных
Трек 2 нет в базе данных
Трек 3 нет в базе данных
Трек 4 нет в базе данных
Трек 5 нет в базе данных
Трек 6 нет в базе данных
Трек 7 нет в базе данных
Трек 8 нет в базе данных
Трек 9 нет в базе данных
Трек 10 нет в базе данных
Трек 11 нет в базе данных
Трек 12 нет в базе данных

Ни одного трека нет в базе AccurateRip

Конец отчёта

foobar2000 1.2.6 / Dynamic Range Meter 1.1.1
log date: 2015-07-23 01:54:13

Analyzed: Travers & Appice / Live at the House of Blues

DR Peak RMS Duration Track

DR6 -0.50 dB -6.66 dB 6:14 01-Taken
DR6 -0.50 dB -6.70 dB 4:34 02-Better From A Distance
DR6 -0.50 dB -6.95 dB 5:07 03-I Don't Care
DR6 -0.50 dB -6.87 dB 5:09 04-Crash And Burn
DR5 -0.50 dB -6.57 dB 5:12 05-Living Alone
DR5 -0.50 dB -7.35 dB 9:07 06-Gotta Have You
DR5 -0.50 dB -6.47 dB 4:38 07-Turn Me On
DR6 -0.50 dB -7.08 dB 9:41 08-Can't Escape The Fire / La La Love
DR6 -0.50 dB -8.11 dB 9:14 09-Evil
DR6 -0.50 dB -6.94 dB 6:49 10-Do Ya Think I'm Sexy
DR6 -0.50 dB -6.67 dB 5:41 11-Boom Boom
DR6 -0.50 dB -7.09 dB 7:05 12-Keep On Rocking

Number of tracks: 12
Official DR value: DR6

Samplerate: 44100 Hz
Channels: 2
Bits per sample: 16
Bitrate: 964 kbps
Codec: FLAC

[CUETools log; Date: 23.07.2015 1:54:15; Version: 2.1.5]
[CTDB TOCID: TB4AZHGqpd7SkZ2NXydhd5j3pfw-] disk not present in database.
[AccurateRip ID: 0020f41f-013a3afa-be12660c] found.
Track [ CRC | V2 ] Status
01 [94097e9b|0463f6d3] (1+0/2) Accurately ripped
02 [cc3c1017|f8ead08a] (1+0/2) Accurately ripped
03 [ea573471|f83f0618] (1+0/2) Accurately ripped
04 [5098c6de|c94d5cec] (1+0/2) Accurately ripped
05 [a287d436|c2d2d952] (1+0/2) Accurately ripped
06 [7aa981b3|2b433e07] (1+0/2) Accurately ripped
07 [87706ba9|6ac9e322] (1+0/2) Accurately ripped
08 [5b3a52a9|f029a68d] (1+0/2) Accurately ripped
09 [863ac27c|127fd367] (1+0/2) Accurately ripped
10 [974871f6|906bc7a2] (1+0/2) Accurately ripped
11 [083d6ed4|a7986ef4] (1+0/2) Accurately ripped
12 [e625784e|723a87a7] (1+0/2) Accurately ripped

Track Peak [ CRC32 ] [W/O NULL] [ LOG ]
-- 94,4 [14773214] [7954E612] CRC32
01 94,4 [EFC2C22A] [861B42F2]
02 94,4 [EABC1C29] [041C239B]
03 94,4 [86652CA7] [47CD6615]
04 94,4 [1BB9BD41] [3D4FDA5C]
05 94,4 [D7BFE8A0] [E513D25C]
06 94,4 [4775517B] [6273FBF6]
07 94,4 [6654B42B] [1E7B082C]
08 94,4 [E8E266EE] [928CA4F6]
09 94,4 [FEB0371E] [15C565C3]
10 94,4 [27D9BBE8] [74982C60]
11 94,4 [F1252718] [31E5279D]
12 94,4 [789082C7] [2CD1E92E]

Travers & Appice - Live At The House Of Blues (2005)

All thanks go to izia1956


DOWNLOAD LINKS:
(Premium Recommended)


All above links are interchangable. No password
Direct Download

Tags: Travers, Appice

Travers & Appice - Live At The House Of Blues (2005) Download via Hotfile Rapidshare Fileserve Megaupload & FileSonic, Travers & Appice - Live At The House Of Blues (2005) free torrent downloads included crack, serial, keygen.Travers & Appice - Live At The House Of Blues (2005) Fast Download via Rapidshare Hotfile Fileserve Filesonic Megaupload, Travers & Appice - Live At The House Of Blues (2005) Torrents and Emule Download or anything related.
Leave a Comment
Your Name:
E-Mail:
Add Comments:

Enter Code: