Sha Na Na - 40th Anniversary Collector's Edition (2009)

Download Now

Sha Na Na - 40th Anniversary Collector's Edition (2009)

Sha Na Na - 40th Anniversary Collector's Edition (2009)
EAC Rip | FLAC (Img) + Cue + Log ~ 377 Mb | MP3 CBR320 ~ 158 Mb
Scans Included (JPG, 300 dpi) | RAR 5% Recovery
Rock'N'Roll, Pop Rock | Pat Boone's Gold Label #786052-8118-2

"Rock and roll will never die, and Sha Na Na has been right there keeping the sound alive for 40 years! Here are 20 digitally remastered hits, including several never previously released songs! Sha Na Na brings their rock & roll celebration to town in a dynamic, crowd pleasing show that includes highlights of their four decade journey from Woodstock, the movie Grease, The Sha Na Na TV Show and their world wide concert touring. In an interactive show where the audience sings along, dances along and participates in a "Greaser Olympics, a good time is had by all ages. Hey all you teen angels and party dolls: twist, stroll and hand jive to the classics as performed by the crowned princes of doo-wop and rock & roll, Sha Na Na..."

Sha Na Na - 40th Anniversary Collector's Edition (2009)

Official Website | Wiki | Discogs | All Music
***************

Sha Na Na - 40th Anniversary Collector's Edition (2009)

Track List:

01. Rock 'n Roll is Here To Stay [02:45]
02. Hound Dog [02:04]
03. The Wanderer [02:50]
04. Gloria [02:11]
05. Guilty [03:29]
06. Motor Man [04:00]
07. Rock'n Roll Hall Of Fame [02:56]
08. Gimme A Little Sign [04:10]
09. Sandy [02:33]
10. The Cat In The PT Cruiser [03:42]
11. At The Hop [01:54]
12. Let's Dance [02:25]
13. Peppermint Twist [02:22]
14. Willie And The Hand Jive [02:35]
15. The Hokey Pokey [03:21]
16. Don't You Remember [03:13]
17. One More Saturday Night [02:35]
18. Hold On (Wait A Minute) [03:22]
19. Run Run Rudolph [02:59]
20. Na Na Hey Kiss Him Goodbye [03:22]

Exact Audio Copy V1.0 beta 4 from 7. December 2014

Отчёт EAC об извлечении, выполненном 1. июля 2015, 21:17

Sha Na Na / 40th Anniversary Collector's Edition

Дисковод: ASUS DRW-24F1ST a Adapter: 1 ID: 0

Режим чтения : Достоверность
Использование точного потока : Да
Отключение кэша аудио : Да
Использование указателей C2 : Нет

Коррекция смещения при чтении : 6
Способность читать области Lead-in и Lead-out : Нет
Заполнение пропущенных сэмплов тишиной : Да
Удаление блоков с тишиной в начале и конце : Нет
При вычислениях CRC использовались нулевые сэмплы : Да
Интерфейс : Встроенный Win32-интерфейс для Win NT/2000

Выходной формат : Пользовательский кодировщик
Выбранный битрейт : 128 kBit/s
Качество : Высокий
Добавление ID3-тега : Нет
Утилита сжатия : C:\Program Files\Exact Audio Copy\Flac\flac.exe
Дополнительные параметры : -V -8 -T "Date=%year%" -T "Genre=%genre%" %source%

TOC извлечённого CD Трек | Старт | Длительность | Начальный сектор | Конечный сектор

1 | 0:00.00 | 2:44.48 | 0 | 12347
2 | 2:44.48 | 2:03.48 | 12348 | 21620
3 | 4:48.21 | 2:49.48 | 21621 | 34343
4 | 7:37.69 | 2:10.48 | 34344 | 44141
5 | 9:48.42 | 3:28.48 | 44142 | 59789
6 | 13:17.15 | 3:59.48 | 59790 | 77762
7 | 17:16.63 | 2:55.48 | 77763 | 90935
8 | 20:12.36 | 4:09.48 | 90936 | 109658
9 | 24:22.09 | 2:32.48 | 109659 | 121106
10 | 26:54.57 | 3:41.48 | 121107 | 137729
11 | 30:36.30 | 1:53.48 | 137730 | 146252
12 | 32:30.03 | 2:24.48 | 146253 | 157100
13 | 34:54.51 | 2:21.48 | 157101 | 167723
14 | 37:16.24 | 2:34.48 | 167724 | 179321
15 | 39:50.72 | 3:20.48 | 179322 | 194369
16 | 43:11.45 | 3:12.48 | 194370 | 208817
17 | 46:24.18 | 2:34.48 | 208818 | 220415
18 | 48:58.66 | 3:21.48 | 220416 | 235538
19 | 52:20.39 | 2:58.48 | 235539 | 248936
20 | 55:19.12 | 3:21.48 | 248937 | 264059

Характеристики диапазона извлечения и сообщения об ошибках

Выбранный диапазон Имя файла C:\Users\Erik\Desktop\Sha Na Na - 40th Anniversary Collector's Edition..wav Пиковый уровень 100.0 %
Скорость извлечения 7.0 X
Качество диапазона 100.0 %
CRC теста 246B826A
CRC копии 246B826A
Копирование... OK

Ошибок не произошло


AccurateRip: сводка

Трек 1 : извлечено точно (доверие 1) [9705F36B] (AR v2)
Трек 2 : извлечено точно (доверие 1) [758AF484] (AR v2)
Трек 3 : извлечено точно (доверие 1) [EE04C8BB] (AR v2)
Трек 4 : извлечено точно (доверие 1) 6D432F2 (AR v2)
Трек 5 : извлечено точно (доверие 1) [A80CDAA6] (AR v2)
Трек 6 : извлечено точно (доверие 1) [F343FA82] (AR v2)
Трек 7 : извлечено точно (доверие 1) [51E859D5] (AR v2)
Трек 8 : извлечено точно (доверие 1) [77F86461] (AR v2)
Трек 9 : извлечено точно (доверие 1) [1C2143DC] (AR v2)
Трек 10 : извлечено точно (доверие 1) [2027826D] (AR v2)
Трек 11 : извлечено точно (доверие 1) [E338BE73] (AR v2)
Трек 12 : извлечено точно (доверие 1) [5237F51B] (AR v2)
Трек 13 : извлечено точно (доверие 1) [A77C1DB0] (AR v2)
Трек 14 : извлечено точно (доверие 1) [5BDE9688] (AR v2)
Трек 15 : извлечено точно (доверие 1) [C3B09BB0] (AR v2)
Трек 16 : извлечено точно (доверие 1) [E2CE5C1F] (AR v2)
Трек 17 : извлечено точно (доверие 1) [467C186D] (AR v2)
Трек 18 : извлечено точно (доверие 1) 12D21D8 (AR v2)
Трек 19 : извлечено точно (доверие 1) [E2F77061] (AR v2)
Трек 20 : извлечено точно (доверие 1) [1724104C] (AR v2)

Все треки извлечены точно

Конец отчёта

- CUETools DB Plugin V2.1.4

[CTDB TOCID: CQBKOT4zvVE0_.sCDJ2Fs.e0E.M-] disk not present in database
Submit result: CQBKOT4zvVE0_.sCDJ2Fs.e0E.M- has been uploaded

foobar2000 1.2.6 / Dynamic Range Meter 1.1.1
log date: 2015-07-22 20:53:09

Analyzed: Sha Na Na / 40th Anniversary Collector's Edition

DR Peak RMS Duration Track

DR11 -0.24 dB -12.82 dB 2:45 01-Rock 'n Roll is Here To Stay
DR10 0.00 dB -11.02 dB 2:04 02-Hound Dog
DR10 -0.03 dB -11.45 dB 2:50 03-The Wanderer
DR9 -0.10 dB -11.49 dB 2:11 04-Gloria
DR13 0.00 dB -13.88 dB 3:29 05-Guilty
DR10 0.00 dB -11.94 dB 4:00 06-Motor Man
DR12 -0.30 dB -13.92 dB 2:56 07-Rock'n Roll Hall Of Fame
DR12 0.00 dB -14.00 dB 4:10 08-Gimme A Little Sign
DR9 -0.08 dB -11.40 dB 2:33 09-Sandy
DR10 0.00 dB -11.42 dB 3:42 10-The Cat In The PT Cruiser
DR10 0.00 dB -11.94 dB 1:54 11-At The Hop
DR12 -0.01 dB -13.56 dB 2:25 12-Let's Dance
DR11 -0.35 dB -14.02 dB 2:22 13-Peppermint Twist
DR12 -0.05 dB -13.42 dB 2:35 14-Willie And The Hand Jive
DR11 0.00 dB -12.70 dB 3:21 15-The Hokey Pokey
DR8 -0.30 dB -10.14 dB 3:13 16-Don't You Remember
DR10 -0.65 dB -11.99 dB 2:35 17-One More Saturday Night
DR9 -0.30 dB -10.57 dB 3:22 18-Hold On (Wait A Minute)
DR9 0.00 dB -10.45 dB 2:59 19-Run Run Rudolph
DR11 -0.37 dB -12.20 dB 3:22 20-Na Na Hey Kiss Him Goodbye

Number of tracks: 20
Official DR value: DR11

Samplerate: 44100 Hz
Channels: 2
Bits per sample: 16
Bitrate: 818 kbps
Codec: FLAC

[CUETools log; Date: 22.07.2015 20:53:04; Version: 2.1.5]
[CTDB TOCID: CQBKOT4zvVE0_.sCDJ2Fs.e0E.M-] found.
Track | CTDB Status
1 | (1/1) Accurately ripped
2 | (1/1) Accurately ripped
3 | (1/1) Accurately ripped
4 | (1/1) Accurately ripped
5 | (1/1) Accurately ripped
6 | (1/1) Accurately ripped
7 | (1/1) Accurately ripped
8 | (1/1) Accurately ripped
9 | (1/1) Accurately ripped
10 | (1/1) Accurately ripped
11 | (1/1) Accurately ripped
12 | (1/1) Accurately ripped
13 | (1/1) Accurately ripped
14 | (1/1) Accurately ripped
15 | (1/1) Accurately ripped
16 | (1/1) Accurately ripped
17 | (1/1) Accurately ripped
18 | (1/1) Accurately ripped
19 | (1/1) Accurately ripped
20 | (1/1) Accurately ripped
[AccurateRip ID: 0029afcc-026636bc-260dc014] found.
Track [ CRC | V2 ] Status
01 [2bf56d1d|9705f36b] (0+1/1) Accurately ripped
02 a74ea81|758af484 (0+1/1) Accurately ripped
03 [60ccd838|ee04c8bb] (0+1/1) Accurately ripped
04 6e08ed9|b6d432f2 (0+1/1) Accurately ripped
05 [7426cd16|a80cdaa6] (0+1/1) Accurately ripped
06 [d214e93c|f343fa82] (0+1/1) Accurately ripped
07 [3e937d06|51e859d5] (0+1/1) Accurately ripped
08 [0f44ac3e|77f86461] (0+1/1) Accurately ripped
09 [ff5fc164|1c2143dc] (0+1/1) Accurately ripped
10 [92ac9653|2027826d] (0+1/1) Accurately ripped
11 [2d59af15|e338be73] (0+1/1) Accurately ripped
12 [cadf700c|5237f51b] (0+1/1) Accurately ripped
13 [54e62f95|a77c1db0] (0+1/1) Accurately ripped
14 [a640ded6|5bde9688] (0+1/1) Accurately ripped
15 [4b60a5c9|c3b09bb0] (0+1/1) Accurately ripped
16 [9874541d|e2ce5c1f] (0+1/1) Accurately ripped
17 [d43acebd|467c186d] (0+1/1) Accurately ripped
18 [14137d6c|b12d21d8] (0+1/1) Accurately ripped
19 [8041000d|e2f77061] (0+1/1) Accurately ripped
20 [2be0a482|1724104c] (0+1/1) Accurately ripped

Track Peak [ CRC32 ] [W/O NULL] [ LOG ]
-- 100,0 [246B826A] 8414423 CRC32
01 97,2 [DE6BCC63] 56B3014
02 99,9 [73335C3B] [511F8AD2]
03 99,6 [9B793FCD] [85BF2660]
04 98,8 [D78D6B6B] [187C433D]
05 100,0 [122F93C8] [671D0F9C]
06 100,0 [FFE431A6] [C3A713EC]
07 96,6 [6BB8B66A] [CAAF545C]
08 100,0 [614BC67E] [DB1FEAE6]
09 99,0 [41648F36] [FF1FA3D5]
10 100,0 [A5664C3C] [3C870168]
11 100,0 [FE8034E3] [9EF55B4E]
12 99,8 [237BE2A9] [EB19681A]
13 96,0 [DD95A390] [C97F20AE]
14 99,4 [C1E00B88] [5D95ED5B]
15 100,0 [F8BF37A2] [9A33849D]
16 96,6 [2CC68747] [126D1C63]
17 92,8 [F14ABF11] [71FB6F01]
18 96,6 [A5340FE5] [1A102F10]
19 100,0 [DB702D01] [AD0B25EF]
20 95,8 [1B313277] [1EDBEFC9]

Sha Na Na - 40th Anniversary Collector's Edition (2009)



DOWNLOAD LINKS
Buy Premium From My Links To Get Resumable Support & Max Speed & To Support Me


Links are Interchangeable - No Password - Single Extraction
Direct Download

Tags: Anniversary, Collector

Sha Na Na - 40th Anniversary Collector's Edition (2009) Download via Hotfile Rapidshare Fileserve Megaupload & FileSonic, Sha Na Na - 40th Anniversary Collector's Edition (2009) free torrent downloads included crack, serial, keygen.Sha Na Na - 40th Anniversary Collector's Edition (2009) Fast Download via Rapidshare Hotfile Fileserve Filesonic Megaupload, Sha Na Na - 40th Anniversary Collector's Edition (2009) Torrents and Emule Download or anything related.
Leave a Comment
Your Name:
E-Mail:
Add Comments:

Enter Code: