Yes - Tormato (1978) [1989, Atlantic 18P2-2889, Japan]

Download Now

Yes - Tormato (1978) [1989, Atlantic 18P2-2889, Japan]

Yes - Tormato (1978)
EAC | Flac(Image) + Cue + Log & MP3 CBR 320Kbps
Atlantic, 18P2-2889 | ~ 264 or 104 Mb | Scans(png) -> 113 Mb
Progressive Rock

"The '70s model of Yes runs out of gas. Recorded in a morale slump and an impending haze of drink, Tormato's decent tunes are sabotaged by Rick Wakeman's increasing penchant for cheesy textures and the band's thin overall sound..."


Tracklist:

1. Future Times / Rejoice (6:45)
a) Future Times (Anderson / Howe / Squire / Wakeman / White)
b) Rejoice (Anderson)
2. Don't Kill The Whale (Anderson / Squire) (3:56)
3. Madrigal (Anderson / Wakeman) (2:23)
4. Release, Release (Anderson / White / Squire) (5:47)
5. Arriving Ufo (Anderson / Howe / Wakeman) (6:03)
6. Circus Of Heaven (Anderson) (4:29)
7. Onward (Squire) (4:02)
8. On The Silent Wings Of Freedom (Anderson / Squire) (7:47)

Musicians:

Jon Anderson: lead vocals (all), Alvarez 10-string guitar (1a, 5, 8)
Steve Howe: guitars (1-5, 7, 8), electric & acoustic mandolin (6), vocals (1, 3-6)
Chris Squire: bass (1, 2, 4-8), bass pedals (1a, 3, 5), piano (2), vocals (all)
Rick Wakeman: Birotron (1, 2, 4-6, 8), Hammond organ (1, 4), Polymoog (1, 2, 4-8), RMI (8), harpsichord (3), piano (5)
Alan White: drums (1, 2, 4-6, 8), glockenspiel (1a), crotales (1a, 3, 6, 7), cymbals (3), bell tree (3), gongs (5), vibraphone (7), percussion (4), drum synthesizer (5), vocals (4)
Damion Anderson: vocals (6)


Exact Audio Copy V0.99 prebeta 4 from 23. January 2008

EAC extraction logfile from 24. October 2009, 0:00

Yes / Yes . 1978 . Tormato (1st press Japan 18P2-2889 1989)

Used drive : PIONEER DVD-RW DVR-105 Adapter: 1 ID: 0

Read mode : Secure
Utilize accurate stream : Yes
Defeat audio cache : Yes
Make use of C2 pointers : No

Read offset correction

: 48
Overread into Lead-In and Lead-Out : No
Fill up missing offset samples with silence : Yes
Delete leading and trailing silent blocks : No
Null samples used in CRC calculations : Yes
Used interface
: Installed external ASPI interface

Used output format : User Defined Encoder
Selected bitrate : 768 kBit/s
Quality : High
Add ID3 tag : No
Command line compressor : C:\Program Files\Exact Audio Copy\Flac\flac.exe
Additional command line options : -8 -V -T "ARTIST=%a" -T "TITLE=%t" -T "ALBUM=%g" -T "DATE=%y" -T "TRACKNUMBER=%n" -T "GENRE=%m" -T "COMMENT=%e" %s -o %d

TOC of the extracted CD Track | Start | Length | Start sector | End sector
--1 | 0:00.00 | 6:45.10 | 0 | 30384 2 | 6:45.10 | 3:56.17 | 30385 | 48101 3 | 10:41.27 | 2:23.30 | 48102 | 58856 4 | 13:04.57 | 5:46.48 | 58857 | 84854 5 | 18:51.30 | 6:03.22 | 84855 | 112101 6 | 24:54.52 | 4:29.25 | 112102 | 132301 7 | 29:24.02 | 4:02.18 | 132302 | 150469 8 | 33:26.20 | 7:47.17 | 150470 | 185511

Range status and errors

Selected range Filename C:\= Yes Discography\Yes . 1978 . Tormato (1st press Japan 18P2-2889 1989)\Yes . 1978 . Tormato (1st press Japan 18P2-2889 1989).wav Peak level 100.0 %
Range quality 100.0 %
Test CRC 42655FB6
Copy CRC 42655FB6
Copy OK

No errors occurred


AccurateRip summary

Track 1 accurately ripped (confidence 13) D658FDE
Track 2 accurately ripped (confidence 13) [4496817A]
Track 3 accurately ripped (confidence 13) [534D4D80]
Track 4 accurately ripped (confidence 12) [4883DD35]
Track 5 accurately ripped (confidence 13) [2CE066D8]
Track 6 accurately ripped (confidence 13) [184CCC92]
Track 7 accurately ripped (confidence 13) [777956CB]
Track 8 accurately ripped (confidence 13) [9BA38148]

All tracks accurately ripped

End of status report

foobar2000 1.2.9 / Dynamic Range Meter 1.1.1
log date: 2015-07-23 23:52:46

Analyzed: Yes / Tormato (1st press Japan 18P2-2889 1989)

DR Peak RMS Duration Track

DR13 0.00 dB -15.80 dB 6:45 01-a. Future Times; b. Rejoice
DR13 0.00 dB -14.86 dB 3:56 02-Don't Kill The Whale
DR12 -2.29 dB -19.21 dB 2:23 03-Madrigal
DR13 -0.02 dB -15.55 dB 5:47 04-Release, Release
DR11 -0.17 dB -15.68 dB 6:03 05-Arriving U.F.O.
DR15 -0.38 dB -19.75 dB 4:29 06-Circus Of Heaven
DR11 -1.75 dB -16.18 dB 4:02 07-Onward
DR13 0.00 dB -15.88 dB 7:47 08-On The Silent Wings Of Freedom

Number of tracks: 8
Official DR value: DR13

Samplerate: 44100 Hz
Channels: 2
Bits per sample: 16
Bitrate: 872 kbps
Codec: FLAC

[CUETools log; Date: 23.07.2015 23:41:09; Version: 2.1.4]
[CTDB TOCID: iea2gBrxpeu73B_0dr3rVO2rP.E-] found.
Track | CTDB Status
1 | (16/16) Accurately ripped
2 | (16/16) Accurately ripped
3 | (16/16) Accurately ripped
4 | (16/16) Accurately ripped
5 | (16/16) Accurately ripped
6 | (16/16) Accurately ripped
7 | (16/16) Accurately ripped
8 | (16/16) Accurately ripped
[AccurateRip ID: 000c3f19-00516f2a-6909a908] found.
Track [ CRC | V2 ] Status
01 d658fde|d6083671 (17+16/33) Accurately ripped
02 [4496817a|172946a4] (17+16/33) Accurately ripped
03 [534d4d80|b59bab9a] (17+16/33) Accurately ripped
04 [4883dd35|91e790be] (16+16/32) Accurately ripped
05 [2ce066d8|f7914d5b] (17+16/33) Accurately ripped
06 [184ccc92|65606c15] (17+16/33) Accurately ripped
07 [777956cb|47119d4b] (17+16/33) Accurately ripped
08 [9ba38148|02d75f53] (17+16/33) Accurately ripped

Track Peak [ CRC32 ] [W/O NULL] [ LOG ]
-- 100,0 [42655FB6] [8D67C45E] CRC32
01 100,0 [0F963073] [90D2CC0D]
02 100,0 [050B95BB] [E1660F5C]
03 76,8 [FA152FBB] [FAE3D164]
04 99,7 [FBBC1503] [F17EE8D7]
05 98,0 [0047F109] [8625DE91]
06 95,7 [64C3E35B] [4A2D468A]
07 81,7 [41910C55] 0FA78B2
08 100,0 [8AFB392A] [F8912F9C]

Yes - Tormato (1978) [1989, Atlantic 18P2-2889, Japan]

DOWNLOAD LINKS
Buy Premium From My Links To Get Resumable Support & Max Speed & To Support Me


Links are Interchangeable - No Password - Single Extraction
Direct Download

Tags: Tormato, Atlantic

Yes - Tormato (1978) [1989, Atlantic 18P2-2889, Japan] Download via Hotfile Rapidshare Fileserve Megaupload & FileSonic, Yes - Tormato (1978) [1989, Atlantic 18P2-2889, Japan] free torrent downloads included crack, serial, keygen.Yes - Tormato (1978) [1989, Atlantic 18P2-2889, Japan] Fast Download via Rapidshare Hotfile Fileserve Filesonic Megaupload, Yes - Tormato (1978) [1989, Atlantic 18P2-2889, Japan] Torrents and Emule Download or anything related.
Leave a Comment
Your Name:
E-Mail:
Add Comments:

Enter Code: