John Wetton - Battle Lines (1995) [1996, Blueprint BP240CD]

Download Now

John Wetton - Battle Lines (1995) [1996, Blueprint BP240CD]

John Wetton - Battle Lines (1995/1996)
EAC Rip | FLAC (Img) + Cue + Log ~ 369 Mb | MP3 CBR320 ~ 133 Mb
Scans Included (JPG, 300 dpi) | RAR 5% Recovery
Progressive Rock | Blueprint Australia #BP240CD

"A reissue of an album originally released in Japan in 1994 under the title Voice Mail, 1995's Battle Lines continues John Wetton's career path over the preceding 15 years -- there's more pop than prog in his prog pop, in other words. Basically indistinguishable from a late-period Asia album, the ten tracks on Battle Lines were mostly co-written by Wetton and keyboardist Bob Marlette. The re-release garnered a new cover and bonus track - acoustic version of the title track."

Official Website | Wiki | Discogs | All Music
***************

John Wetton - Battle Lines (1995) [1996, Blueprint BP240CD]

Track List:

01. Right Where I Wanted To Be [04:58]
02. Battle Lines [05:26]
03. Jane [04:20]
04. Crime Of Passion [04:44]
05. Sand In My Hand [03:51]
06. Sea Of Mercy [04:41]
07. Hold Me Now [05:59]
08. Space & Time [04:08]
09. Walking On Air [03:11]
10. You're Not The Only One [05:01]
11. Battle Lines (Acoustic Version) [05:32]

Exact Audio Copy V1.0 beta 1 from 15. November 2010

EAC extraction logfile from 1. January 2015, 19:38

John Wetton / Battle Lines

Used drive : MATSHITADVD-RAM UJ8A0AS Adapter: 0 ID: 1

Read mode : Secure
Utilize accurate stream : Yes
Defeat audio cache : Yes
Make use of C2 pointers : No

Read offset correction

: 102
Overread into Lead-In and Lead-Out : No
Fill up missing offset samples with silence : Yes
Delete leading and trailing silent blocks : No
Null samples used in CRC calculations : Yes
Used interface
: Native Win32 interface for Win NT & 2000

Used output format : Internal WAV Routines
Sample format : 44.100 Hz; 16 Bit; Stereo

TOC of the extracted CD Track | Start | Length | Start sector | End sector
--1 | 0:00.00 | 4:57.10 | 0 | 22284 2 | 4:57.10 | 5:25.02 | 22285 | 46661 3 | 10:22.12 | 4:19.43 | 46662 | 66129 4 | 14:41.55 | 4:43.17 | 66130 | 87371 5 | 19:24.72 | 3:50.33 | 87372 | 104654 6 | 23:15.30 | 4:40.25 | 104655 | 125679 7 | 27:55.55 | 5:58.70 | 125680 | 152599 8 | 33:54.50 | 4:07.20 | 152600 | 171144 9 | 38:01.70 | 3:10.05 | 171145 | 185399
10 | 41:12.00 | 5:00.55 | 185400 | 207954
11 | 46:12.55 | 5:31.20 | 207955 | 232799

Range status and errors

Selected range Filename C:\Users\Alex\Music\John Wetton - Battle Lines.wav Peak level 100.0 %
Extraction speed 0.1 X
Range quality 100.0 %
Test CRC 88796265
Copy CRC 88796265
Copy OK

No errors occurred


AccurateRip summary

Track 1 accurately ripped (confidence 2) [D4D8FAE0]
Track 2 accurately ripped (confidence 2) [A681BA42]
Track 3 cannot be verified as accurate (confidence 4) [02EA74F0], AccurateRip returned [20D2C6D8]
Track 4 cannot be verified as accurate (confidence 4) [A8A09350], AccurateRip returned [FE866B98]
Track 5 accurately ripped (confidence 2) [CA2FEF53]
Track 6 cannot be verified as accurate (confidence 4) [7757E6E2], AccurateRip returned [54E0604A]
Track 7 cannot be verified as accurate (confidence 4) [A34F5D65], AccurateRip returned [52F7B238]
Track 8 cannot be verified as accurate (confidence 4) [2065D1EE], AccurateRip returned [6D532ECF]
Track 9 cannot be verified as accurate (confidence 4) [A7CDB7F4], AccurateRip returned [3311DDF9]
Track 10 cannot be verified as accurate (confidence 4) [E73BE8D7], AccurateRip returned [D1C1B02A]
Track 11 cannot be verified as accurate (confidence 4) [AD4D0D44], AccurateRip returned [5FC7268C]

3 track(s) accurately ripped
8 track(s) could not be verified as accurate

Some tracks could not be verified as accurate

End of status report

==== Log checksum 0CE0C5C81F4487E2121A2C4AAE90C840AAB169C972709789E9AF96C78CDCE5EF ====

foobar2000 1.2.6 / Dynamic Range Meter 1.1.1
log date: 2015-07-24 07:20:39

Analyzed: John Wetton / Battle Lines

DR Peak RMS Duration Track

DR11 -0.18 dB -12.71 dB 4:57 01-Right Where I Wanted To Be
DR11 -0.19 dB -13.60 dB 5:25 02-Battle Lines
DR11 -0.17 dB -12.13 dB 4:20 03-Jane
DR11 -0.19 dB -13.68 dB 4:43 04-Crime Of Passion
DR11 0.00 dB -12.42 dB 3:50 05-Sand In My Hand
DR11 -0.35 dB -12.61 dB 4:40 06-Sea Of Mercy
DR11 -0.37 dB -13.21 dB 5:59 07-Hold Me Now
DR11 -0.31 dB -12.66 dB 4:07 08-Space & Time
DR11 -2.45 dB -15.29 dB 3:10 09-Walking On Air
DR11 -0.41 dB -13.61 dB 5:01 10-You're Not The Only One
DR13 0.00 dB -16.69 dB 5:31 11-Battle Lines (Acoustic Version)

Number of tracks: 11
Official DR value: DR11

Samplerate: 44100 Hz
Channels: 2
Bits per sample: 16
Bitrate: 927 kbps
Codec: FLAC

[CUETools log; Date: 24.07.2015 7:20:40; Version: 2.1.5]
[CTDB TOCID: E.eWE5iS19o7J2il1jh543fqI5E-] found.
Track | CTDB Status
1 | (2/2) Accurately ripped
2 | (2/2) Accurately ripped
3 | (2/2) Accurately ripped
4 | (2/2) Accurately ripped
5 | (2/2) Accurately ripped
6 | (2/2) Accurately ripped
7 | (2/2) Accurately ripped
8 | (2/2) Accurately ripped
9 | (2/2) Accurately ripped
10 | (2/2) Accurately ripped
11 | (2/2) Accurately ripped
[AccurateRip ID: 0015673c-00b879ed-ab0c200b] found.
Track [ CRC | V2 ] Status
01 [d4d8fae0|654a5305] (2+0/6) Accurately ripped
02 [a681ba42|4fb6c6f0] (2+0/6) Accurately ripped
03 [02ea74f0|767db020] (0+0/4) No match
04 [a8a09350|4f044fb5] (0+0/4) No match
05 [ca2fef53|4fc0287e] (2+0/6) Accurately ripped
06 [7757e6e2|6341a157] (0+0/4) No match
07 [a34f5d65|82573de6] (0+0/4) No match
08 [2065d1ee|1779aff0] (0+0/4) No match
09 [a7cdb7f4|d0889548] (0+0/4) No match
10 [e73be8d7|4d2c1b13] (0+0/4) No match
11 [ad4d0d44|ffddd24e] (0+0/4) No match
Offsetted by 676:
01 [74eb6874] (4/6) Accurately ripped
02 [9e3f218f] (4/6) Accurately ripped
03 [20d2c6d8] (4/4) Accurately ripped
04 [fe866b98] (4/4) Accurately ripped
05 [08ac10be] (4/6) Accurately ripped
06 [54e0604a] (4/4) Accurately ripped
07 [52f7b238] (4/4) Accurately ripped
08 [6d532ecf] (4/4) Accurately ripped
09 [3311ddf9] (4/4) Accurately ripped
10 [d1c1b02a] (4/4) Accurately ripped
11 [5fc7268c] (4/4) Accurately ripped

Track Peak [ CRC32 ] [W/O NULL] [ LOG ]
-- 100,0 [88796265] [6438F2BE] CRC32
01 97,9 [6D4AB56E] [7320B695]
02 97,8 EE51E7A [59AAC93D]
03 98,0 [75452D60] [395754ED]
04 97,8 [430B3B65] [3B784ECE]
05 100,0 9424ED8 [ACAFBB21]
06 96,0 [FF26AEBF] [2B2EA3BC]
07 95,8 45B911B [450DAE05]
08 96,4 [71B1CE20] [6CE5C3FD]
09 75,3 [591A80F7] [0CB71B32]
10 95,3 [56AFA014] [D42E04F0]
11 100,0 [4FF435AD] [32923947]

John Wetton - Battle Lines (1995) [1996, Blueprint BP240CD]



DOWNLOAD LINKS
Buy Premium From My Links To Get Resumable Support & Max Speed & To Support Me


Links are Interchangeable - No Password - Single Extraction
Direct Download

Tags: Wetton, Battle, Blueprint

John Wetton - Battle Lines (1995) [1996, Blueprint BP240CD] Download via Hotfile Rapidshare Fileserve Megaupload & FileSonic, John Wetton - Battle Lines (1995) [1996, Blueprint BP240CD] free torrent downloads included crack, serial, keygen.John Wetton - Battle Lines (1995) [1996, Blueprint BP240CD] Fast Download via Rapidshare Hotfile Fileserve Filesonic Megaupload, John Wetton - Battle Lines (1995) [1996, Blueprint BP240CD] Torrents and Emule Download or anything related.
Leave a Comment
Your Name:
E-Mail:
Add Comments:

Enter Code: