Crash Of Rhinos - Knots (2013) {Topshelf Records}

Download Now


Crash Of Rhinos - Knots (2013) {Topshelf Records}
Crash Of Rhinos - Knots (2013) {Topshelf Records}
EAC rip (secure mode) | FLAC (tracks)+CUE+LOG -> 378 Mb | MP3 @320 -> 125 Mb
Full Artwork @ 300 dpi (png) -> 14 Mb | 5% repair rar
© 2013 Topshelf Records | TSR089
Rock / Emo Rock / Post Hardcore

"Every genre under the sun eventually circles around on itself, ready and willing to eat its own tail, ouroboros-style. So, it should be little surprise that the '90s strain of emo that had its nucleus in the Midwest is being re-injected into the world's main vein in a crystallized form. Which is all just a nice way of saying that the sound of Crash Of Rhinos' second LP will be very familiar to any readers who came of age studying the early editions of the Emo Diaries compilation series."

Crash Of Rhinos - Knots (2013) {Topshelf Records}


INFO

tracklist:
01 - Luck Has a Name
02 - Opener
03 - Everything is
04 - Interiors
05 - Sum of All Parts
06 - The Reason I Took So Long
07 - Impasses
08 - Mannheim
09 - Standards & Practice
10 - Lean Out
11 - Speeds of Ocean Greyhounds

Exact Audio Copy V1.0 beta 3 from 29. August 2011

EAC extraction logfile from 20. March 2015, 18:12

Crash of Rhinos / Knots

Used drive : HL-DT-STDVD+-RW GT80N Adapter: 0 ID: 0

Read mode : Secure
Utilize accurate stream : Yes
Defeat audio cache : Yes
Make use of C2 pointers : No

Read offset correction

: 102
Overread into Lead-In and Lead-Out : No
Fill up missing offset samples with silence : Yes
Delete leading and trailing silent blocks : No
Null samples used in CRC calculations : Yes
Used interface
: Native Win32 interface for Win NT & 2000
Gap handling
: Appended to previous track

Used output format : User Defined Encoder
Selected bitrate : 128 kBit/s
Quality : High
Add ID3 tag : No
Command line compressor : C:\Program Files (x86)\Exact Audio Copy\FLAC\FLAC.EXE
Additional command line options : -8 -V -T "ARTIST=%artist%" -T "TITLE=%title%" -T "ALBUM=%albumtitle%" -T "DATE=%year%" -T "TRACKNUMBER=%tracknr%" -T "TOTALTRACKS=%numtracks%" -T "GENRE=%genre%" -T "ALBUMARTIST=%albumartist%" -T "ALBUM ARTIST=%albumartist%" -T "COMMENT=EAC Secure Mode, Test & Copy, AccurateRip, FLAC -8" %source%

TOC of the extracted CD Track | Start | Length | Start sector | End sector
--1 | 0:00.00 | 6:24.04 | 0 | 28803 2 | 6:24.04 | 4:15.18 | 28804 | 47946 3 | 10:39.22 | 1:02.19 | 47947 | 52615 4 | 11:41.41 | 4:35.54 | 52616 | 73294 5 | 16:17.20 | 5:07.61 | 73295 | 96380 6 | 21:25.06 | 2:35.35 | 96381 | 108040 7 | 24:00.41 | 6:24.62 | 108041 | 136902 8 | 30:25.28 | 5:41.70 | 136903 | 162547 9 | 36:07.23 | 7:03.24 | 162548 | 194296
10 | 43:10.47 | 2:56.26 | 194297 | 207522
11 | 46:06.73 | 6:29.21 | 207523 | 236718

Track 1 Filename C:\Users\porcupine\Desktop\EAC\01 - Luck Has a Name.wav Pre-gap length 0:00:02.00 Peak level 100.0 %
Extraction speed 1.5 X
Track quality 100.0 %
Test CRC 5AD4E518
Copy CRC 5AD4E518
Accurately ripped (confidence 2) [231C2A4F] (AR v2)
Copy OK

Track 2 Filename C:\Users\porcupine\Desktop\EAC\02 - Opener.wav Peak level 100.0 %
Extraction speed 1.6 X
Track quality 100.0 %
Test CRC CBA82C2A
Copy CRC CBA82C2A
Accurately ripped (confidence 2) [E91A0E61] (AR v2)
Copy OK

Track 3 Filename C:\Users\porcupine\Desktop\EAC\03 - Everything is.wav Peak level 44.3 %
Extraction speed 1.2 X
Track quality 100.0 %
Test CRC BA1C427D
Copy CRC BA1C427D
Accurately ripped (confidence 2) [143349DE] (AR v2)
Copy OK

Track 4 Filename C:\Users\porcupine\Desktop\EAC\04 - Interiors.wav Peak level 100.0 %
Extraction speed 1.8 X
Track quality 100.0 %
Test CRC CBCBF7A9
Copy CRC CBCBF7A9
Accurately ripped (confidence 2) [2AFFFD44] (AR v2)
Copy OK

Track 5 Filename C:\Users\porcupine\Desktop\EAC\05 - Sum of All Parts.wav Peak level 100.0 %
Extraction speed 2.0 X
Track quality 100.0 %
Test CRC E541FE71
Copy CRC E541FE71
Accurately ripped (confidence 2) [61DA45D5] (AR v2)
Copy OK

Track 6 Filename C:\Users\porcupine\Desktop\EAC\06 - The Reason I Took So Long.wav Peak level 74.9 %
Extraction speed 1.9 X
Track quality 100.0 %
Test CRC 67545672
Copy CRC 67545672
Accurately ripped (confidence 2) [782D40B3] (AR v2)
Copy OK

Track 7 Filename C:\Users\porcupine\Desktop\EAC\07 - Impasses.wav Peak level 100.0 %
Extraction speed 2.3 X
Track quality 100.0 %
Test CRC 07081782
Copy CRC 07081782
Accurately ripped (confidence 2) [827F5928] (AR v2)
Copy OK

Track 8 Filename C:\Users\porcupine\Desktop\EAC\08 - Mannheim.wav Peak level 100.0 %
Extraction speed 2.2 X
Track quality 99.9 %
Test CRC 3935C6B5
Copy CRC 3935C6B5
Accurately ripped (confidence 2) [F2951466] (AR v2)
Copy OK

Track 9 Filename C:\Users\porcupine\Desktop\EAC\09 - Standards & Practice.wav Peak level 100.0 %
Extraction speed 2.4 X
Track quality 99.9 %
Test CRC 2347E386
Copy CRC 2347E386
Accurately ripped (confidence 2) [D417CD2E] (AR v2)
Copy OK

Track 10 Filename C:\Users\porcupine\Desktop\EAC\10 - Lean Out.wav Peak level 100.0 %
Extraction speed 2.5 X
Track quality 100.0 %
Test CRC D2F1EB1A
Copy CRC D2F1EB1A
Accurately ripped (confidence 2) [2E0C4124] (AR v2)
Copy OK

Track 11 Filename C:\Users\porcupine\Desktop\EAC\11 - Speeds of Ocean Greyhounds.wav Peak level 100.0 %
Extraction speed 2.8 X
Track quality 100.0 %
Test CRC 6482D303
Copy CRC 6482D303
Accurately ripped (confidence 2) [AFFFF309] (AR v2)
Copy OK

All tracks accurately ripped

No errors occurred

End of status report

==== Log checksum A46E5ED38EF72BC11AEAACDC486487BCE46B7BA7DD9F509B7036B858976EADEF ====

Crash Of Rhinos - Knots (2013) {Topshelf Records}


DOWNLOAD LINKS
Buy Premium From My Links To Get Resumable Support & Max Speed & To Support Me


Links are Interchangeable - No Password - Single Extraction
Direct Download

Tags: Rhinos, Topshelf, Records

Crash Of Rhinos - Knots (2013) {Topshelf Records} Download via Hotfile Rapidshare Fileserve Megaupload & FileSonic, Crash Of Rhinos - Knots (2013) {Topshelf Records} free torrent downloads included crack, serial, keygen.Crash Of Rhinos - Knots (2013) {Topshelf Records} Fast Download via Rapidshare Hotfile Fileserve Filesonic Megaupload, Crash Of Rhinos - Knots (2013) {Topshelf Records} Torrents and Emule Download or anything related.
Leave a Comment
Your Name:
E-Mail:
Add Comments:

Enter Code: