The Crimson Projekct - Live In Tokyo (2014)

Download Now

The Crimson Projekct - Live In Tokyo (2014)

The Crimson Projekct - Live In Tokyo (2014)
Rock | 1cd | EAC Rip | Flac + Cue + Log | covers
Inside Out 0506752 | rec: 2013 | 550Mb

The Crimson ProjeKCt, the King Crimson offshoot featuring 3 current members of that historic band, has announced the release of ‘Live in Tokyo' through InsideOutMusic on the 3rd March 2014. Coinciding with a full European tour, the band had this to say about the release: ‘The Crimson ProjeKCt is happy to announce the release of their first official CD "Live in Tokyo" via Inside Out.
Performances of classic KC pieces were recorded at Club Citta' in Tokyo, Japan in March 2013 and represent the sonic power of this unique band. They were meticulously mixed and mastered in pristine sound quality by TCP guitarist Markus Reuter and his award winning 'Unsung Productions' team.'
Featuring the talents of Adrian Belew, Tony Levin, Pat Mastelotto, Markus Reuter, Julie Slick and Tobias Ralph; The Crimson ProjeKCt primarily focus on repertoire from the early 1980s through to the mid-90s. The band has a "double trio" line-up, as made popular by Crimson between 1994 - 1997. ~Inside Out

Track listing
01. B'Boom (8:54)
02. THRAK (6:05)
03. Frame By Frame (3:59)
04. Dinosaur (5:12)
05. Industry (8:36)
06. Elephant Talk (4:49)
07. VROOOM VROOOM (5:12)
08. Sleepless (6:13)
09. Larks' Tongues In Aspic, Part II (6:26)
10. Indiscipline (8:56)
11. Red (6:11)
12. Thela Hun Ginjeet (6:24)
~ (76:58)

Exact Audio Copy V1.0 beta 4 from 7. December 2014

EAC extraction logfile from 5. May 2015, 11:49

The Crimson ProjeKCt / Live In Tokyo

Used drive : LITE-ON DVDRW LH-20A1L Adapter: 6 ID: 0

Read mode : Secure
Utilize accurate stream : Yes
Defeat audio cache : Yes
Make use of C2 pointers : No

Read offset correction

: 6
Overread into Lead-In and Lead-Out : No
Fill up missing offset samples with silence : Yes
Delete leading and trailing silent blocks : No
Null samples used in CRC calculations : Yes
Used interface
: Installed external ASPI interface

Used output format : Internal WAV Routines
Sample format : 44.100 Hz; 16 Bit; Stereo

TOC of the extracted CD Track | Start | Length | Start sector | End sector
--1 | 0:00.00 | 8:54.11 | 0 | 40060 2 | 8:54.11 | 6:05.09 | 40061 | 67444 3 | 14:59.20 | 3:59.35 | 67445 | 85404 4 | 18:58.55 | 5:11.70 | 85405 | 108799 5 | 24:10.50 | 8:35.60 | 108800 | 147484 6 | 32:46.35 | 4:48.56 | 147485 | 169140 7 | 37:35.16 | 5:12.14 | 169141 | 192554 8 | 42:47.30 | 6:12.45 | 192555 | 220499 9 | 49:00.00 | 6:26.10 | 220500 | 249459
10 | 55:26.10 | 8:56.10 | 249460 | 289669
11 | 64:22.20 | 6:10.65 | 289670 | 317484
12 | 70:33.10 | 6:24.28 | 317485 | 346312

Range status and errors

Selected range Filename Z:\data\hexonut\Seeding\The Crimson ProjeKCt\2014-Live In Tokyo\Live In Tokyo.wav Peak level 96.6 %
Extraction speed 10.3 X
Range quality 100.0 %
Test CRC BB3DCC5B
Copy CRC BB3DCC5B
Copy OK

No errors occurred


AccurateRip summary

Track 1 accurately ripped (confidence 13) [92307668] (AR v2)
Track 2 accurately ripped (confidence 13) [FF8898F9] (AR v2)
Track 3 accurately ripped (confidence 13) [7578BC85] (AR v2)
Track 4 accurately ripped (confidence 13) [8C9FD579] (AR v2)
Track 5 accurately ripped (confidence 13) CE37E71 (AR v2)
Track 6 accurately ripped (confidence 13) [D194B739] (AR v2)
Track 7 accurately ripped (confidence 13) [93C51157] (AR v2)
Track 8 accurately ripped (confidence 13) [9839C5FD] (AR v2)
Track 9 accurately ripped (confidence 13) 5B0F665 (AR v2)
Track 10 accurately ripped (confidence 13) [47973488] (AR v2)
Track 11 accurately ripped (confidence 13) [1F79AB8E] (AR v2)
Track 12 accurately ripped (confidence 13) [A5D08AB1] (AR v2)

All tracks accurately ripped

End of status report

==== Log checksum C73067DB4F43A1DAFF56F83F3DDFB6EA53D157B3CC168EA5C81F3BABBF063FC6 ====

[CUETools log; Date: 2015.07.27. 10:50:21; Version: 2.1.5]
[CTDB TOCID: Au1oD0duzuWkNjPGnp.D2OfpEZY-] found.
Track | CTDB Status
1 | (19/19) Accurately ripped
2 | (19/19) Accurately ripped
3 | (19/19) Accurately ripped
4 | (19/19) Accurately ripped
5 | (19/19) Accurately ripped
6 | (19/19) Accurately ripped
7 | (18/19) Accurately ripped
8 | (18/19) Accurately ripped
9 | (19/19) Accurately ripped
10 | (18/19) Accurately ripped
11 | (18/19) Accurately ripped
12 | (16/19) Accurately ripped
[AccurateRip ID: 002217d0-013cb156-ae12090c] found.
Track [ CRC | V2 ] Status
01 [15b9dcc3|92307668] (03+13/22) Accurately ripped
02 [d82b1586|ff8898f9] (03+13/22) Accurately ripped
03 [8d4a5c9d|7578bc85] (03+13/22) Accurately ripped
04 [7289d403|8c9fd579] (03+13/22) Accurately ripped
05 [8873f3b1|bce37e71] (03+13/22) Accurately ripped
06 [ef0edb64|d194b739] (03+13/22) Accurately ripped
07 [c9057518|93c51157] (03+13/22) Accurately ripped
08 [2b6be7ca|9839c5fd] (03+13/22) Accurately ripped
09 [3652ac32|b5b0f665] (03+13/22) Accurately ripped
10 [17ac9b8d|47973488] (03+13/22) Accurately ripped
11 [685f06d6|1f79ab8e] (03+13/22) Accurately ripped
12 6eb6976|a5d08ab1 (03+13/19) Accurately ripped
Offsetted by 12:
01 [c4de80d9] (00/22) No match (V2 was not tested)
02 [d35ff65e] (00/22) No match (V2 was not tested)
03 [80088963] (00/22) No match (V2 was not tested)
04 [5283092d] (00/22) No match (V2 was not tested)
05 [9e14703b] (00/22) No match (V2 was not tested)
06 [4882d561] (00/22) No match (V2 was not tested)
07 [1b32c143] (00/22) No match (V2 was not tested)
08 [11472789] (00/22) No match (V2 was not tested)
09 [324c44e4] (00/22) No match (V2 was not tested)
10 [e710fd77] (00/22) No match (V2 was not tested)
11 [ffad52c2] (00/22) No match (V2 was not tested)
12 [de704b53] (00/19) No match (V2 was not tested)

Track Peak [ CRC32 ] [W/O NULL] [ LOG ]
-- 96,6 B3DCC5B [327B48C3] CRC32
01 96,6 [85968FD2] [5BC8E3C2]
02 96,6 [3826301A] [CA2E7739]
03 96,6 [9E1BA017] [49A547FE]
04 96,6 [D98EA811] [FE01B060]
05 96,6 [845AEF83] [DA864D37]
06 96,6 [D6DB6372] [6C71A94A]
07 96,6 [C3A42D9D] [249B496F]
08 96,6 [092E0F64] [EB9CADF8]
09 96,6 486B4FC [A8DB1EF4]
10 96,6 [8F315F3E] 1B5C72E
11 96,6 [87C06D8F] [E5B0F544]
12 96,6 [67B617D0] [034A4DF5]

Thx to hexonut

password: asd
DOWNLOAD LINKS
Buy Premium From My Links To Get Resumable Support & Max Speed & To Support Me


Links are Interchangeable - No Password - Single Extraction
Direct Download

Tags: Crimson, Projekct

The Crimson Projekct - Live In Tokyo (2014) Download via Hotfile Rapidshare Fileserve Megaupload & FileSonic, The Crimson Projekct - Live In Tokyo (2014) free torrent downloads included crack, serial, keygen.The Crimson Projekct - Live In Tokyo (2014) Fast Download via Rapidshare Hotfile Fileserve Filesonic Megaupload, The Crimson Projekct - Live In Tokyo (2014) Torrents and Emule Download or anything related.
Leave a Comment
Your Name:
E-Mail:
Add Comments:

Enter Code: