Roger Waters - Amused to Death (1992/2015)

Download Now

Roger Waters - Amused to Death (1992/2015)

Roger Waters - Amused to Death (1992/2015)
EAC Rip | Flac (Tracks + cue + log) | 352 MB | MP3 320Kbps CBR | 178 MB | 1 CD | Full Scans
Genre: Art Rock | Label: Legacy | Catalog Number: 8843093782

"Roger Waters' album Amused to Death returns in a remastered release from Columbia Records / Legacy Recordings. Amused to Death sounded the alarm about a society increasingly - and unthinkingly - in thrall to its television screens. Twenty-three years later, Amused to Death speaks to our present moment in ways that could scarcely have been anticipated two decades ago."

"Reviews: War is Roger Waters' great muse, the impetus for so much of his work, including the semi-autobiographical 1979 opus The Wall. The Final Cut, his last album with Pink Floyd, functioned as an explicit sequel to The Wall, but 1992's Amused to Death acts as something of a coda, a work where Waters revisits his obsessions -- both musical and lyrical -- and ties them together with the masterful touch of a mature artist. Certainly, Waters' narrative of a society filtering all manners of ugliness through a television screen isn't as sci-fi silly as that of its immediate predecessor Radio K.A.O.S., but a greater point in its favor is that it's a richer affair than that stiff, synthesized relic of the late '80s. Working with Patrick Leonard -- a veteran collaborator of Madonna's who also dabbled with the latter-day David Gilmour-led Pink Floyd -- Waters gives Amused to Death forward momentum, an aspect conspicuously absent from the still, meditative The Final Cut and Pros and Cons of Hitchhiking, both of which seemed to be comprised of song poems. The tunes on Amused aren't quite hooky or melodic but they do have structure, as does the production by Waters, Leonard, and Nick Griffiths. The tapestry of found sounds, choirs, televisions, washes of organ, lonely acoustic guitars, and blues leads by Jeff Beck does recall Floyd at their '70s peak, but Amused to Death sounds grander and more expansive; it's a creature of the CD age, using up every one of its available 72 minutes. At this length, it's a mere ten minutes shorter than The Wall, and although it can sometimes feel indulgent, it never feels excessive. Unlike the other two Waters solo albums -- or The Final Cut, which is a Waters project masquerading as a Floyd album -- Amused to Death feels cohesive and complete as an anti-war rock opera. If it winds up being Waters' last original rock album, so be it: it is a masterpiece in the sense that it brings together all of his obsessions in one grand, but not unwieldy, package."


Tracklisting:

01 - The Ballad of Bill Hubbard
02 - What God Wants, Pt. I
03 - Perfect Sense, Pt. I
04 - Perfect Sense, Pt. II
05 - The Bravery of Being Out of Range
06 - Late Home Tonight, Pt. I
07 - Late Home Tonight, Pt. II
08 - Too Much Rope
09 - What God Wants, Pt. II
10 - What God Wants, Pt. III
11 - Watching TV
12 - Three Wishes
13 - It's a Miracle
14 - Amused to Death

Exact Audio Copy V1.1 from 23. June 2015

EAC extraction logfile from 24. July 2015, 14:17

Roger Waters / Amused to Death

Used drive : HL-DT-STBDDVDRW CH08LS10 Adapter: 1 ID: 1

Read mode : Secure
Utilize accurate stream : Yes
Defeat audio cache : Yes
Make use of C2 pointers : No

Read offset correction

: 667
Overread into Lead-In and Lead-Out : No
Fill up missing offset samples with silence : Yes
Delete leading and trailing silent blocks : No
Null samples used in CRC calculations : Yes
Used interface
: Native Win32 interface for Win NT & 2000
Gap handling
: Appended to previous track

Used output format : User Defined Encoder
Selected bitrate : 1024 kBit/s
Quality : High
Add ID3 tag : No
Command line compressor : C:\My Downloads\Music and Videos\What.CD Toolbox 6 for ShiChuang\Codecs\flac-1.3.1-win\win64\flac.exe
Additional command line options : -8 -V -T "ARTIST=%artist%" -T "TITLE=%title%" -T "ALBUM=%albumtitle%" -T "DATE=%year%" -T "TRACKNUMBER=%tracknr%" -T "GENRE=%genre%" -T "PERFORMER=%albuminterpret%" -T "COMPOSER=%composer%" %haslyrics%--tag-from-file=LYRICS="%lyricsfile%"%haslyrics% -T "ALBUMARTIST=%albumartist%" -T "DISCNUMBER=%cdnumber%" -T "TOTALDISCS=%totalcds%" -T "TOTALTRACKS=%numtracks%" -T "COMMENT=%comment%" %source% -o %dest%

TOC of the extracted CD Track | Start | Length | Start sector | End sector
--1 | 0:00.00 | 4:21.31 | 0 | 19605 2 | 4:21.31 | 6:00.22 | 19606 | 46627 3 | 10:21.53 | 4:14.49 | 46628 | 65726 4 | 14:36.27 | 2:51.25 | 65727 | 78576 5 | 17:27.52 | 4:44.59 | 78577 | 99935 6 | 22:12.36 | 4:01.10 | 99936 | 118020 7 | 26:13.46 | 2:12.69 | 118021 | 127989 8 | 28:26.40 | 5:47.37 | 127990 | 154051 9 | 34:14.02 | 3:39.51 | 154052 | 170527
10 | 37:53.53 | 4:08.48 | 170528 | 189175
11 | 42:02.26 | 6:06.10 | 189176 | 216635
12 | 48:08.36 | 6:52.13 | 216636 | 247548
13 | 55:00.49 | 8:30.37 | 247549 | 285835
14 | 63:31.11 | 9:08.62 | 285836 | 326997

Track 1 Filename G:\Torrents\Roger Waters - Amused to Death 2015 Remaster [FLAC]\01 - The Ballad of Bill Hubbard.wav Pre-gap length 0:00:02.00 Peak level 50.7 %
Extraction speed 1.2 X
Track quality 100.0 %
Test CRC 1FA71204
Copy CRC 1FA71204
Track not present in AccurateRip database
Copy OK

Track 2 Filename G:\Torrents\Roger Waters - Amused to Death 2015 Remaster [FLAC]\02 - What God Wants, Part I.wav Peak level 100.0 %
Extraction speed 1.4 X
Track quality 100.0 %
Test CRC B06E5359
Copy CRC B06E5359
Track not present in AccurateRip database
Copy OK

Track 3 Filename G:\Torrents\Roger Waters - Amused to Death 2015 Remaster [FLAC]\03 - Perfect Sense, Part I.wav Peak level 69.1 %
Extraction speed 1.4 X
Track quality 99.9 %
Test CRC 2701101B
Copy CRC 2701101B
Track not present in AccurateRip database
Copy OK

Track 4 Filename G:\Torrents\Roger Waters - Amused to Death 2015 Remaster [FLAC]\04 - Perfect Sense, Part II.wav Peak level 96.7 %
Extraction speed 1.3 X
Track quality 99.9 %
Test CRC F34C7BF2
Copy CRC F34C7BF2
Track not present in AccurateRip database
Copy OK

Track 5 Filename G:\Torrents\Roger Waters - Amused to Death 2015 Remaster [FLAC]\05 - The Bravery of Being Out of Range.wav Peak level 85.2 %
Extraction speed 1.7 X
Track quality 100.0 %
Test CRC 8F7D8A20
Copy CRC 8F7D8A20
Track not present in AccurateRip database
Copy OK

Track 6 Filename G:\Torrents\Roger Waters - Amused to Death 2015 Remaster [FLAC]\06 - Late Home Tonight, Part I.wav Peak level 100.0 %
Extraction speed 1.8 X
Track quality 100.0 %
Test CRC 76C14E12
Copy CRC 76C14E12
Track not present in AccurateRip database
Copy OK

Track 7 Filename G:\Torrents\Roger Waters - Amused to Death 2015 Remaster [FLAC]\07 - Late Home Tonight, Part II.wav Peak level 44.4 %
Extraction speed 1.7 X
Track quality 100.0 %
Test CRC 891A5CB7
Copy CRC 891A5CB7
Track not present in AccurateRip database
Copy OK

Track 8 Filename G:\Torrents\Roger Waters - Amused to Death 2015 Remaster [FLAC]\08 - Too Much Rope.wav Peak level 93.9 %
Extraction speed 2.0 X
Track quality 100.0 %
Test CRC BD68FF82
Copy CRC BD68FF82
Track not present in AccurateRip database
Copy OK

Track 9 Filename G:\Torrents\Roger Waters - Amused to Death 2015 Remaster [FLAC]\09 - What God Wants, Part II.wav Peak level 90.1 %
Extraction speed 2.0 X
Track quality 100.0 %
Test CRC 64123C49
Copy CRC 64123C49
Track not present in AccurateRip database
Copy OK

Track 10 Filename G:\Torrents\Roger Waters - Amused to Death 2015 Remaster [FLAC]\10 - What God Wants, Part III.wav Peak level 92.5 %
Extraction speed 1.9 X
Track quality 99.9 %
Test CRC A1208167
Copy CRC A1208167
Track not present in AccurateRip database
Copy OK

Track 11 Filename G:\Torrents\Roger Waters - Amused to Death 2015 Remaster [FLAC]\11 - Watching TV.wav Peak level 56.7 %
Extraction speed 2.3 X
Track quality 100.0 %
Test CRC F3BA0696
Copy CRC F3BA0696
Track not present in AccurateRip database
Copy OK

Track 12 Filename G:\Torrents\Roger Waters - Amused to Death 2015 Remaster [FLAC]\12 - Three Wishes.wav Peak level 100.0 %
Extraction speed 2.5 X
Track quality 100.0 %
Test CRC 738106D9
Copy CRC 738106D9
Track not present in AccurateRip database
Copy OK

Track 13 Filename G:\Torrents\Roger Waters - Amused to Death 2015 Remaster [FLAC]\13 - It's a Miracle.wav Peak level 96.7 %
Extraction speed 2.6 X
Track quality 100.0 %
Test CRC 67BCEF7A
Copy CRC 67BCEF7A
Track not present in AccurateRip database
Copy OK

Track 14 Filename G:\Torrents\Roger Waters - Amused to Death 2015 Remaster [FLAC]\14 - Amused to Death.wav Peak level 100.0 %
Extraction speed 2.6 X
Track quality 99.9 %
Test CRC ECE82D59
Copy CRC ECE82D59
Track not present in AccurateRip database
Copy OK

None of the tracks are present in the AccurateRip database

No errors occurred

End of status report

- CUETools DB Plugin V2.1.6

[CTDB TOCID: Lz3YRTgq7p_xM17mg7zxmZ6Gonw-] found
Submit result: Lz3YRTgq7p_xM17mg7zxmZ6Gonw- has been confirmed
Track | CTDB Status
1 | (7/7) Accurately ripped
2 | (7/7) Accurately ripped
3 | (7/7) Accurately ripped
4 | (7/7) Accurately ripped
5 | (7/7) Accurately ripped
6 | (7/7) Accurately ripped
7 | (7/7) Accurately ripped
8 | (7/7) Accurately ripped
9 | (7/7) Accurately ripped
10 | (7/7) Accurately ripped
11 | (7/7) Accurately ripped
12 | (7/7) Accurately ripped
13 | (7/7) Accurately ripped
14 | (7/7) Accurately ripped

==== Log checksum 3386496C161976AFFDFE0579EA64BA8AAA8AF806A26FBD14422BA2644EAE3820 ====

Thanks to the original releaser
DOWNLOAD LINKS
Buy Premium From My Links To Get Resumable Support & Max Speed & To Support Me


Links are Interchangeable - No Password - Single Extraction
Direct Download

Tags: Waters, Amused

Roger Waters - Amused to Death (1992/2015) Download via Hotfile Rapidshare Fileserve Megaupload & FileSonic, Roger Waters - Amused to Death (1992/2015) free torrent downloads included crack, serial, keygen.Roger Waters - Amused to Death (1992/2015) Fast Download via Rapidshare Hotfile Fileserve Filesonic Megaupload, Roger Waters - Amused to Death (1992/2015) Torrents and Emule Download or anything related.
Leave a Comment
Your Name:
E-Mail:
Add Comments:

Enter Code: