Wishbone Ash - There's The Rub (1974) [2013, Universal Japan, UICY-25387]

Download Now

Wishbone Ash - There's The Rub (1974) [2013, Universal Japan, UICY-25387]

Wishbone Ash - There's The Rub (1974/2013)
EAC Rip | FLAC (Img) + Cue + Log ~ 307 Mb | MP3 CBR320 ~ 126 Mb
Scans Included (JPG, 300 dpi) | RAR 5% Recovery
Hard Rock, Progressive Rock | Universal Music #UICY-25387

"There's the Rub is the fifth studio album by rock band Wishbone Ash. It is the first album to feature guitarist/vocalist Laurie Wisefield, who would be a major part of the band's creative direction for the next 11 years. The album is considered by many to be a highpoint of the band's recording career. The title is taken from Shakespeare's Hamlet; "To sleep-perchance to dream: ay, there's the rub." The track "F.U.B.B." caused controversy because of the acronym's meaning ("Fucked Up Beyond Belief") upon the album's release. Moreover, the haunting ballad "Persephone" would go on to become one of the band's most popular live songs. The lyrics of "Lady Jay" are based on the Dartmoor folk legend about Kitty Jay..."

Official Website | Wiki | Discogs | All Music
***************

Wishbone Ash - There's The Rub (1974) [2013, Universal Japan, UICY-25387]

Track List:

01. Silver Shoes [06:41]
02. Don't Come Back [05:13]
03. Persephone [07:04]
04. Hometown [04:50]
05. Lady Jay [05:59]
06. F.U.B.B. [09:29]

Exact Audio Copy V1.0 beta 1 from 15. November 2010

EAC extraction logfile from 26. December 2014, 11:34

Wishbone Ash / 永遠の不安(SHM-CD) There's the Rub

Used drive : MATSHITADVD-RAM UJ8A0AS Adapter: 0 ID: 1

Read mode : Secure
Utilize accurate stream : Yes
Defeat audio cache : Yes
Make use of C2 pointers : No

Read offset correction

: 102
Overread into Lead-In and Lead-Out : No
Fill up missing offset samples with silence : Yes
Delete leading and trailing silent blocks : No
Null samples used in CRC calculations : Yes
Used interface
: Native Win32 interface for Win NT & 2000

Used output format : Internal WAV Routines
Sample format : 44.100 Hz; 16 Bit; Stereo

TOC of the extracted CD Track | Start | Length | Start sector | End sector
--1 | 0:00.00 | 6:40.50 | 0 | 30049 2 | 6:40.50 | 5:12.07 | 30050 | 53456 3 | 11:52.57 | 7:03.43 | 53457 | 85224 4 | 18:56.25 | 4:49.33 | 85225 | 106932 5 | 23:45.58 | 5:58.51 | 106933 | 133833 6 | 29:44.34 | 9:28.38 | 133834 | 176471

Range status and errors

Selected range Filename C:\Users\Alex\Music\Wishbone Ash - 永遠の不安(SHM-CD) There's the Rub.wav Peak level 99.9 %
Extraction speed 0.2 X
Range quality 100.0 %
Test CRC 71C777A8
Copy CRC 71C777A8
Copy OK

No errors occurred


AccurateRip summary

Track 1 accurately ripped (confidence 1) [66E4DA30]
Track 2 accurately ripped (confidence 1) [8020168C]
Track 3 accurately ripped (confidence 1) [5B5E9429]
Track 4 accurately ripped (confidence 1) 3FC48C5
Track 5 accurately ripped (confidence 1) [9E53BBCE]
Track 6 accurately ripped (confidence 1) [DD197B58]

All tracks accurately ripped

End of status report

==== Log checksum 9D52491CFD4BEBE3A32A8523ADEF30F22A24CD9FFC125F86900F8F631183D953 ====

foobar2000 1.2.6 / Dynamic Range Meter 1.1.1
log date: 2015-07-30 15:54:25

Analyzed: Wishbone Ash / There's the Rub

DR Peak RMS Duration Track

DR6 -0.01 dB -8.59 dB 6:41 01-Silver Shoes
DR7 -0.01 dB -8.29 dB 5:12 02-Don't Come Back
DR7 -0.01 dB -9.36 dB 7:04 03-Persephone
DR6 -0.01 dB -7.43 dB 4:49 04-Hometown
DR6 -0.01 dB -8.44 dB 5:59 05-Lady Jay
DR7 -0.01 dB -8.65 dB 9:29 06-F.U.B.B.

Number of tracks: 6
Official DR value: DR7

Samplerate: 44100 Hz
Channels: 2
Bits per sample: 16
Bitrate: 936 kbps
Codec: FLAC

[CUETools log; Date: 30.07.2015 15:51:52; Version: 2.1.5]
[CTDB TOCID: OqVj4rdNSGCvWFp7nNA_JNzw5Wk-] found.
Track | CTDB Status
1 | (6/6) Accurately ripped
2 | (6/6) Accurately ripped
3 | (6/6) Accurately ripped
4 | (6/6) Accurately ripped
5 | (6/6) Accurately ripped
6 | (6/6) Accurately ripped
[AccurateRip ID: 0008f0f3-002fd389-45093006] found.
Track [ CRC | V2 ] Status
01 [66e4da30|7766510f] (1+0/1) Accurately ripped
02 [8020168c|018cbfee] (1+0/1) Accurately ripped
03 [5b5e9429|2e103eb8] (1+0/1) Accurately ripped
04 3fc48c5|919cf8c6 (1+0/1) Accurately ripped
05 [9e53bbce|1147e974] (1+0/1) Accurately ripped
06 [dd197b58|f0db8f00] (1+0/1) Accurately ripped

Track Peak [ CRC32 ] [W/O NULL] [ LOG ]
-- 99,9 [71C777A8] [A21D4FC0] CRC32
01 99,8 [8440BFC3] [DFA16511]
02 99,8 6C05951 [8D64143F]
03 99,9 [3F0EC9C9] [D92AFA43]
04 99,9 [9C3885E4] [D4A844EC]
05 99,9 [F2E4FAB4] [4D505B15]
06 99,9 [1A3BAE33] [81DBD1DA]

Wishbone Ash - There's The Rub (1974) [2013, Universal Japan, UICY-25387]



DOWNLOAD LINKS
Buy Premium From My Links To Get Resumable Support & Max Speed & To Support Me


Links are Interchangeable - No Password - Single Extraction
Direct Download

Tags: Wishbone, Universal

Wishbone Ash - There's The Rub (1974) [2013, Universal Japan, UICY-25387] Download via Hotfile Rapidshare Fileserve Megaupload & FileSonic, Wishbone Ash - There's The Rub (1974) [2013, Universal Japan, UICY-25387] free torrent downloads included crack, serial, keygen.Wishbone Ash - There's The Rub (1974) [2013, Universal Japan, UICY-25387] Fast Download via Rapidshare Hotfile Fileserve Filesonic Megaupload, Wishbone Ash - There's The Rub (1974) [2013, Universal Japan, UICY-25387] Torrents and Emule Download or anything related.
Leave a Comment
Your Name:
E-Mail:
Add Comments:

Enter Code: