Matt Taylor - Straight As A Die (1973) [Reissue 1997]

Download Now

Matt Taylor - Straight As A Die (1973) [Reissue 1997]

Matt Taylor - Straight As A Die (1973) [Reissue 1997]
EAC Rip | FLAC: Tracks+Cue+Log | 345 Mb | MP3 CBR 320 kbps | 113 Mb | Scans | Time: 45:48
Genre: Blues Rock | Label: Mushroom Records | Cat.№: MUSH32233.2

"When Aussie blues legend Matt Taylor departed from Australia's premier blues rock band Chain in 1971 he went off to live on a farm in Beechworth (Victoria) where he began writing songs about nature and the search for a more spiritual existence. He released his first solo album Straight As A Die in August 1973, which had been recorded in an open paddock at Kingston Park Farm, hit the Top Ten in Melbourne. Note that his single "I Remember When I Was Young" didn't actually appear on the vinyl release in 1973, but was included on the CD release in 1997."



Track Listing

01. Mother Nature (04:48)
02. Brisbane To Beechworth (06:12)
03. Simple Decision (04:45)
04. We'll Never Be The Same Again (04:51)
05. Chickens (05:59)
06. Hall Of Fame (04:14)
07. Krishna Love You Too (07:12)
08. Dance (03:45)

Bonus track

09. I Remember When I Was Young (03:58)

Produced by Matt Taylor

Musicians

* Matt Taylor - Vocals, Harmonica
* Phil Manning - Lead Guitar
* Greg 'Sleepy' Lawrie - Guitar
* Barry Harvey - Drums
* Barry Sullivan - Bass
* Ian Winter - Guitar
* Jibon D. Mandall - Tabla

Matt Taylor - Straight As A Die (1973) [Reissue 1997]



Exact Audio Copy V1.0 beta 2 from 29. April 2011

EAC extraction logfile from 5. November 2011, 8:22

Matt Taylor / Straight as a Die

Used drive : HL-DT-STDVDRAM GSA-4163B Adapter: 1 ID: 0

Read mode : Secure
Utilize accurate stream : Yes
Defeat audio cache : No
Make use of C2 pointers : Yes

Read offset correction

: 667
Overread into Lead-In and Lead-Out : No
Fill up missing offset samples with silence : Yes
Delete leading and trailing silent blocks : No
Null samples used in CRC calculations : No
Normalize to
: 98 %
Used interface
: Native Win32 interface for Win NT & 2000
Gap handling
: Not detected, thus appended to previous track

Used output format : User Defined Encoder
Selected bitrate : 768 kBit/s
Quality : High
Add ID3 tag : No
Command line compressor : C:\Program Files\Exact Audio Copy\FLAC\FLAC.EXE
Additional command line options : -6 -V -T "ARTIST=%artist%" -T "TITLE=%title%" -T "ALBUM=%albumtitle%" -T "DATE=%year%" -T "TRACKNUMBER=%tracknr%" -T "GENRE=%genre%" -T "COMMENT=%comment%" -T "BAND=%albuminterpret%" -T "COMPOSER=%composer%" %haslyrics%--ta

TOC of the extracted CD Track | Start | Length | Start sector | End sector
--1 | 0:00.00 | 4:48.07 | 0 | 21606 2 | 4:48.07 | 6:12.20 | 21607 | 49526 3 | 11:00.27 | 4:45.35 | 49527 | 70936 4 | 15:45.62 | 4:51.18 | 70937 | 92779 5 | 20:37.05 | 5:59.27 | 92780 | 119731 6 | 26:36.32 | 4:14.30 | 119732 | 138811 7 | 30:50.62 | 7:12.65 | 138812 | 171276 8 | 38:03.52 | 3:45.50 | 171277 | 188201 9 | 41:49.27 | 3:58.53 | 188202 | 206104

Track 1 Filename C:\Exact Audio Copy\Matt Taylor\Straight as a Die\01. Mother Nature.wav Peak level 90.7 %
Extraction speed 11.2 X
Track quality 100.0 %
Copy CRC AFFCDFCD
Cannot be verified as accurate (confidence 2) [8E45914C], AccurateRip returned [8C5C2462] (AR v2)
Copy OK

Track 2 Filename C:\Exact Audio Copy\Matt Taylor\Straight as a Die\02. Brisbane to Beechworth.wav Peak level 90.8 %
Extraction speed 11.9 X
Track quality 100.0 %
Copy CRC DAB4B32B
Cannot be verified as accurate (confidence 2) [EC1FBEBA], AccurateRip returned [E856ED20] (AR v2)
Copy OK

Track 3 Filename C:\Exact Audio Copy\Matt Taylor\Straight as a Die\03. Simple Decision.wav Peak level 87.8 %
Extraction speed 14.2 X
Track quality 100.0 %
Copy CRC C1780F85
Cannot be verified as accurate (confidence 2) [96BBB676], AccurateRip returned [63843CCA] (AR v2)
Copy OK

Track 4 Filename C:\Exact Audio Copy\Matt Taylor\Straight as a Die\04. Well Never Be the Same Again.wav Peak level 91.3 %
Extraction speed 15.4 X
Track quality 99.9 %
Copy CRC 7A6A7A8B
Cannot be verified as accurate (confidence 2) [85C2B5FE], AccurateRip returned [62E463B3] (AR v2)
Copy OK

Track 5 Filename C:\Exact Audio Copy\Matt Taylor\Straight as a Die\05. Chickens.wav Peak level 88.1 %
Extraction speed 18.9 X
Track quality 100.0 %
Copy CRC 3B9E10D3
Cannot be verified as accurate (confidence 2) [3D158CAF], AccurateRip returned 9BACC14 (AR v2)
Copy OK

Track 6 Filename C:\Exact Audio Copy\Matt Taylor\Straight as a Die\06. Hall of Fame.wav Peak level 89.9 %
Extraction speed 20.0 X
Track quality 100.0 %
Copy CRC A21F0E84
Cannot be verified as accurate (confidence 2) [D1201091], AccurateRip returned [99E94C67] (AR v2)
Copy OK

Track 7 Filename C:\Exact Audio Copy\Matt Taylor\Straight as a Die\07. Krishna Love You Too.wav Peak level 93.1 %
Extraction speed 21.7 X
Track quality 100.0 %
Copy CRC 3B8B9C4C
Cannot be verified as accurate (confidence 2) [1EA03C9D], AccurateRip returned [7D56E479] (AR v2)
Copy OK

Track 8 Filename C:\Exact Audio Copy\Matt Taylor\Straight as a Die\08. Dance.wav Peak level 88.1 %
Extraction speed 23.2 X
Track quality 100.0 %
Copy CRC 8711D0B7
Cannot be verified as accurate (confidence 2) [577837AE], AccurateRip returned [AC32DEAD] (AR v2)
Copy OK

Track 9 Filename C:\Exact Audio Copy\Matt Taylor\Straight as a Die\09. I Remember When I Was Young.wav Peak level 88.1 %
Extraction speed 21.7 X
Track quality 99.9 %
Copy CRC 2F92D25D
Cannot be verified as accurate (confidence 2) [862CCADC], AccurateRip returned [17EDF580] (AR v2)
Copy OK

No tracks could be verified as accurate
You may have a different pressing from the one(s) in the database

No errors occurred

End of status report

[CUETools log; Date: 29.07.2015 0:30:34; Version: 2.1.5]
[CTDB TOCID: TgXA7JJ60_uQ4S2peC5S26Ze2D4-] found.
Track | CTDB Status
1 | (1/1) Accurately ripped
2 | (1/1) Accurately ripped
3 | (1/1) Accurately ripped
4 | (1/1) Accurately ripped
5 | (1/1) Accurately ripped
6 | (1/1) Accurately ripped
7 | (1/1) Accurately ripped
8 | (1/1) Accurately ripped
9 | (1/1) Accurately ripped
[AccurateRip ID: 001028a3-0076536c-7f0abc09] found.
Track [ CRC | V2 ] Status
01 [4318e6aa|8e45914c] (0+0/2) No match
02 [7056b000|ec1fbeba] (0+0/2) No match
03 [6f62d032|96bbb676] (0+0/2) No match
04 [04cf62f3|85c2b5fe] (0+0/2) No match
05 [f18998d4|3d158caf] (0+0/2) No match
06 [528cd207|d1201091] (0+0/2) No match
07 [edbe4529|1ea03c9d] (0+0/2) No match
08 59f3f6d|577837ae (0+0/2) No match
09 [01675880|862ccadc] (0+0/2) No match
Offsetted by 664:
01 [8c5c2462] (2/2) Accurately ripped
02 [e856ed20] (2/2) Accurately ripped
03 [63843cca] (2/2) Accurately ripped
04 [62e463b3] (2/2) Accurately ripped
05 9bacc14 (2/2) Accurately ripped
06 [99e94c67] (2/2) Accurately ripped
07 [7d56e479] (2/2) Accurately ripped
08 [ac32dead] (2/2) Accurately ripped
09 [17edf580] (2/2) Accurately ripped

Track Peak [ CRC32 ] [W/O NULL] [ LOG ]
-- 93,1 [FF403486] [C85D7F94]
01 90,7 [45DD6615] [AFFCDFCD] W/O NULL
02 90,8 [A59515E7] [DAB4B32B] W/O NULL
03 87,8 [C022F83F] [C1780F85] W/O NULL
04 91,3 153F7A3 [7A6A7A8B] W/O NULL
05 88,1 [09548A5B] [3B9E10D3] W/O NULL
06 89,9 [9FF2168F] [A21F0E84] W/O NULL
07 93,1 [0BF51A57] [3B8B9C4C] W/O NULL
08 88,1 [7168A13B] [8711D0B7] W/O NULL
09 88,1 [00BC6FA0] [2F92D25D] W/O NULL

Many thanks to the original uploader: saintsmon
DOWNLOAD LINKS:


No Password
Direct Download

Tags: Taylor, Straight, Reissue

Matt Taylor - Straight As A Die (1973) [Reissue 1997] Download via Hotfile Rapidshare Fileserve Megaupload & FileSonic, Matt Taylor - Straight As A Die (1973) [Reissue 1997] free torrent downloads included crack, serial, keygen.Matt Taylor - Straight As A Die (1973) [Reissue 1997] Fast Download via Rapidshare Hotfile Fileserve Filesonic Megaupload, Matt Taylor - Straight As A Die (1973) [Reissue 1997] Torrents and Emule Download or anything related.
Leave a Comment
Your Name:
E-Mail:
Add Comments:

Enter Code: