Rod Stewart - Body Wishes (1983) [Warner Music Japan, WPCR-75105]

Download Now

Rod Stewart - Body Wishes (1983) [Warner Music Japan, WPCR-75105]

Rod Stewart - Body Wishes (1983)
EAC | Flac(Image) + Cue + Log & MP3 CBR 320Kbps
2005 | Warner Music Japan, WPCR-75105 | ~ 305 or 103 Mb | Scans(png) -> 55 Mb
Classic Rock / Pop Rock

"Even the man himself has admitted to making some uneven albums. In the end the result is a very divided opinion on Rod Stewart's talents. But much the same as that occurred with the Rolling Stones a few years later on their Dirty Work could easily apply to this. The influx of electronic/synthesizers into music,especially with rock almost guarantee's a lot of negativity from writers,critics and cultural analysts even today. Worse part is,most of them aren't willing to examine the flaws in their own flaws the way Rod himself apparently has..."


Tracklist:

01. Dancin' Alone (4:02)
02. Baby Jane (4:43)
03. Move Me (3:36)
04. Body Wishes (4:41)
05. Sweet Surrender (4:01)
06. What Am I Gonna Do (I'm So In Love With You) (4:20)
07. Ghetto Blaster (4:09)
08. Ready Now (3:37)
09. Strangers Again (4:10)
10. Satisfied (4:10)

Musicians:

* Rod Stewart - lead vocals
* Jim Cregan - guitar, backing vocals
* Robin LeMesurier - guitar
* Jay Davis - bass guitar, backing vocals
* Tony Brock - drums, percussion, backing vocals
* Kevin Savigar - keyboards, synthesizers
* Tommy Vig - percussion
* Jimmy Zavala - saxophone, harmonica


Exact Audio Copy V1.0 beta 3 from 29. August 2011

EAC extraction logfile from 11. August 2012, 12:46

Rod Stewart / Body Wishes

Used drive : TSSTcorpCDDVDW TS-H653B Adapter: 0 ID: 0

Read mode : Secure
Utilize accurate stream : Yes
Defeat audio cache : Yes
Make use of C2 pointers : No

Read offset correction

: 6
Overread into Lead-In and Lead-Out : No
Fill up missing offset samples with silence : Yes
Delete leading and trailing silent blocks : No
Null samples used in CRC calculations : Yes
Used interface
: Native Win32 interface for Win NT & 2000

Used output format : User Defined Encoder
Selected bitrate : 896 kBit/s
Quality : High
Add ID3 tag : No
Command line compressor : C:\Program Files (x86)\Exact Audio Copy\wavpack.exe
Additional command line options : -hm %source% %dest%

TOC of the extracted CD Track | Start | Length | Start sector | End sector
--1 | 0:00.00 | 4:02.13 | 0 | 18162 2 | 4:02.13 | 4:43.32 | 18163 | 39419 3 | 8:45.45 | 3:36.05 | 39420 | 55624 4 | 12:21.50 | 4:41.15 | 55625 | 76714 5 | 17:02.65 | 4:00.55 | 76715 | 94769 6 | 21:03.45 | 4:20.35 | 94770 | 114304 7 | 25:24.05 | 4:08.65 | 114305 | 132969 8 | 29:32.70 | 3:36.68 | 132970 | 149237 9 | 33:09.63 | 4:10.15 | 149238 | 168002
10 | 37:20.03 | 4:09.62 | 168003 | 186739

Range status and errors

Selected range Filename G:\Stewart\Stewart'83\Rod Stewart - Body Wishes.wav Peak level 100.0 %
Extraction speed 7.2 X
Range quality 100.0 %
Test CRC A3676EBA
Copy CRC A3676EBA
Copy OK

No errors occurred

End of status report

- CUETools DB Plugin V2.1.3

[CTDB TOCID: byOfm_IrGt6bmZplmngK1SBDWkE-] found, Submit result: already submitted
[07e0577b] (1/1) Accurately ripped

foobar2000 1.2.9 / Dynamic Range Meter 1.1.1
log date: 2015-07-30 19:43:30

Analyzed: Rod Stewart / Body Wishes

DR Peak RMS Duration Track

DR7 0.00 dB -8.47 dB 4:02 01-Dancin' Alone
DR8 0.00 dB -8.98 dB 4:43 02-Baby Jane
DR7 0.00 dB -8.53 dB 3:36 03-Move Me
DR7 0.00 dB -9.41 dB 4:41 04-Body Wishes
DR10 0.00 dB -11.42 dB 4:01 05-Sweet Surrender
DR7 0.00 dB -8.82 dB 4:20 06-What Am I Gonna Do (I'm So In Love With You)
DR9 0.00 dB -10.14 dB 4:09 07-Ghetto Blaster
DR8 0.00 dB -9.97 dB 3:37 08-Ready Now
DR9 0.00 dB -10.60 dB 4:10 09-Strangers Again
DR11 0.00 dB -12.16 dB 4:10 10-Satisfied

Number of tracks: 10
Official DR value: DR8

Samplerate: 44100 Hz
Channels: 2
Bits per sample: 16
Bitrate: 997 kbps
Codec: FLAC

[CUETools log; Date: 30.07.2015 19:40:11; Version: 2.1.4]
[CTDB TOCID: byOfm_IrGt6bmZplmngK1SBDWkE-] found.
Track | CTDB Status
1 | (1/1) Accurately ripped
2 | (1/1) Accurately ripped
3 | (1/1) Accurately ripped
4 | (1/1) Accurately ripped
5 | (1/1) Accurately ripped
6 | (1/1) Accurately ripped
7 | (1/1) Accurately ripped
8 | (1/1) Accurately ripped
9 | (1/1) Accurately ripped
10 | (1/1) Accurately ripped
[AccurateRip ID: 000fcead-007e3299-7c09b90a] found.
Track [ CRC | V2 ] Status
01 9f74cb0|d8fb9143 (0+0/2) No match
02 [eb9b405b|677758a1] (0+0/2) No match
03 [2ef27661|a68c19d5] (0+0/2) No match
04 [edd21d99|a1cb7a7c] (0+0/2) No match
05 [3fee1f78|38d90a3a] (0+0/2) No match
06 ff80161|a0f512a8 (0+0/2) No match
07 [9d1061c7|9018c8e7] (0+0/2) No match
08 [2c71aeab|c6aa8a66] (0+0/2) No match
09 [2e945bcf|973d9bd1] (0+0/2) No match
10 [08ad1b54|80c513da] (0+0/2) No match
Offsetted by 676:
01 [019dd060] (0/2) No match (V2 was not tested)
02 [0aa4a2e7] (0/2) No match (V2 was not tested)
03 1d0eaff (0/2) No match (V2 was not tested)
04 [03b89bdf] (0/2) No match (V2 was not tested)
05 [1ce0795f] (0/2) No match (V2 was not tested)
06 [24699846] (0/2) No match (V2 was not tested)
07 [38163df7] (0/2) No match (V2 was not tested)
08 453d59b (0/2) No match (V2 was not tested)
09 [2307159c] (0/2) No match (V2 was not tested)
10 [132561b3] (0/2) No match (V2 was not tested)

Track Peak [ CRC32 ] [W/O NULL] [ LOG ]
-- 100,0 [A3676EBA] [7B108298] CRC32
01 100,0 [5A000FA0] [A7AB4ED6]
02 100,0 [84D373E0] [DC66ED9D]
03 100,0 [47CAA4A5] [A1132512]
04 100,0 AC9A2A8 [6E95B9D4]
05 100,0 [C33A9E23] [9CCB7D49]
06 100,0 [49EA8661] [45CA09E3]
07 100,0 [D612108A] [7584CFA6]
08 100,0 [17DDBAC4] [A4B34B1C]
09 100,0 [C6C5A144] [45C592EE]
10 100,0 [D00874D4] [0BE2B6C7]

Rod Stewart - Body Wishes (1983) [Warner Music Japan, WPCR-75105]

DOWNLOAD LINKS
Buy Premium From My Links To Get Resumable Support & Max Speed & To Support Me


Links are Interchangeable - No Password - Single Extraction
Direct Download

Tags: Stewart, Wishes, Warner

Rod Stewart - Body Wishes (1983) [Warner Music Japan, WPCR-75105] Download via Hotfile Rapidshare Fileserve Megaupload & FileSonic, Rod Stewart - Body Wishes (1983) [Warner Music Japan, WPCR-75105] free torrent downloads included crack, serial, keygen.Rod Stewart - Body Wishes (1983) [Warner Music Japan, WPCR-75105] Fast Download via Rapidshare Hotfile Fileserve Filesonic Megaupload, Rod Stewart - Body Wishes (1983) [Warner Music Japan, WPCR-75105] Torrents and Emule Download or anything related.
Leave a Comment
Your Name:
E-Mail:
Add Comments:

Enter Code: