John Wetton - Rock Of Faith (2003)

Download Now

John Wetton - Rock Of Faith (2003)

John Wetton - Rock Of Faith (2003)
EAC Rip | FLAC (Img) + Cue + Log ~ 333 Mb | MP3 CBR320 ~ 124 Mb
Scans Included (JPG, 300 dpi) | RAR 5% Recovery
Progressive Rock | Giant Electric Pea #GEPCD 1033

"John Wetton's early-2003 album Rock of Faith appeared after a two-year string of concert releases. It was written at a crossroads in the singer/bassist's life, in the wake of his 50th birthday -- it was also occasioned by his extended visit to Vienna, which stimulated him artistically, and recorded in the wake of the dire world events of 2001 halfway around the globe. The ex-Family/King Crimson/Asia member rises to the occasion here, with an album evocative of his progressive rock past, yet slightly leaner and more focused than most of those efforts ever were, and supported by Geoffrey Downes (keyboards), Clive Nolan (keyboards), John Mitchell (electric guitars), and Steve Christey (drums)..."

Official Website | Wiki | Discogs | All Music
***************

John Wetton - Rock Of Faith (2003)

Track List:

01. Mondrago [02:13]
02. Rock of Faith [03:58]
03. A New Day [05:17]
04. I've Come to Take You Home [04:40]
05. Who WIll Light a Candle? [03:40]
06. Nothing's Gonna Stand in Our Way [05:37]
07. Altro Mondo [03:43]
08. I Believe in You [05:23]
09. Take Me to the Waterline [06:09]
10. I Lay Down [04:05]
11. When You Were Young [01:35]

Exact Audio Copy V1.0 beta 1 from 15. November 2010

EAC extraction logfile from 1. January 2015, 16:09

John Wetton / Rock of Faith

Used drive : MATSHITADVD-RAM UJ8A0AS Adapter: 0 ID: 1

Read mode : Secure
Utilize accurate stream : Yes
Defeat audio cache : Yes
Make use of C2 pointers : No

Read offset correction

: 102
Overread into Lead-In and Lead-Out : No
Fill up missing offset samples with silence : Yes
Delete leading and trailing silent blocks : No
Null samples used in CRC calculations : Yes
Used interface
: Native Win32 interface for Win NT & 2000

Used output format : Internal WAV Routines
Sample format : 44.100 Hz; 16 Bit; Stereo

TOC of the extracted CD Track | Start | Length | Start sector | End sector
--1 | 0:00.42 | 2:12.65 | 42 | 10006 2 | 2:13.32 | 3:57.24 | 10007 | 27805 3 | 6:10.56 | 5:16.66 | 27806 | 51571 4 | 11:27.47 | 4:39.28 | 51572 | 72524 5 | 16:07.00 | 3:39.10 | 72525 | 88959 6 | 19:46.10 | 5:36.65 | 88960 | 114224 7 | 25:23.00 | 3:42.36 | 114225 | 130910 8 | 29:05.36 | 5:22.61 | 130911 | 155121 9 | 34:28.22 | 6:08.72 | 155122 | 182793
10 | 40:37.19 | 4:04.34 | 182794 | 201127
11 | 44:41.53 | 1:34.61 | 201128 | 208238

Range status and errors

Selected range Filename C:\Users\Alex\Music\John Wetton - Rock of Faith.wav Peak level 100.0 %
Extraction speed 0.0 X
Range quality 100.0 %
Test CRC 2751007F
Copy CRC 2751007F
Copy OK

No errors occurred


AccurateRip summary

Track 1 accurately ripped (confidence 13) [9F22D341]
Track 2 accurately ripped (confidence 13) [C84C46B1]
Track 3 accurately ripped (confidence 13) [2F887D58]
Track 4 accurately ripped (confidence 13) [18EB2AEA]
Track 5 accurately ripped (confidence 14) [986CE1C1]
Track 6 accurately ripped (confidence 13) [D2DC8FFB]
Track 7 accurately ripped (confidence 13) [05F7C72D]
Track 8 accurately ripped (confidence 13) [C8662C13]
Track 9 accurately ripped (confidence 13) [2FA19D97]
Track 10 accurately ripped (confidence 13) [5C983FA7]
Track 11 accurately ripped (confidence 13) [57BBBC47]

All tracks accurately ripped

End of status report

==== Log checksum 571D5B7226C720222F43893441743245E8F2303B13773FE36049BEB0496F983E ====

foobar2000 1.2.6 / Dynamic Range Meter 1.1.1
log date: 2015-07-29 23:01:04

Analyzed: John Wetton / Rock of Faith

DR Peak RMS Duration Track

DR6 0.00 dB -9.27 dB 2:13 01-Mondrago
DR6 -0.16 dB -8.94 dB 3:57 02-Rock of Faith
DR10 -0.21 dB -12.46 dB 5:17 03-A New Day
DR8 -0.24 dB -11.90 dB 4:39 04-I've Come to Take You Home
DR11 -0.35 dB -15.47 dB 3:39 05-Who WIll Light a Candle?
DR9 0.00 dB -11.47 dB 5:37 06-Nothing's Gonna Stand in Our Way
DR9 -0.98 dB -14.05 dB 3:42 07-Altro Mondo
DR9 -0.02 dB -11.91 dB 5:23 08-I Believe in You
DR9 0.00 dB -11.43 dB 6:09 09-Take Me to the Waterline
DR8 0.00 dB -12.68 dB 4:04 10-I Lay Down
DR6 -1.94 dB -10.70 dB 1:35 11-When You Were Young

Number of tracks: 11
Official DR value: DR8

Samplerate: 44100 Hz
Channels: 2
Bits per sample: 16
Bitrate: 921 kbps
Codec: FLAC

[CUETools log; Date: 29.07.2015 23:01:06; Version: 2.1.5]
Pregap length 00:00:42.
[CTDB TOCID: EWkanER8Tvrn85VxBhaLKHfRcIU-] found.
Track | CTDB Status
1 | (1/2) Accurately ripped, or (1/2) differs in 1 samples @01:23:64
2 | (2/2) Accurately ripped
3 | (2/2) Accurately ripped
4 | (2/2) Accurately ripped
5 | (2/2) Accurately ripped
6 | (2/2) Accurately ripped
7 | (2/2) Accurately ripped
8 | (2/2) Accurately ripped
9 | (2/2) Accurately ripped
10 | (2/2) Accurately ripped
11 | (2/2) Accurately ripped
[AccurateRip ID: 0012f8c3-00a7ab24-a60ad80b] found.
Track [ CRC | V2 ] Status
01 [9f22d341|a26f1586] (09+14/25) Accurately ripped
02 [c84c46b1|a73e3a3c] (08+14/24) Accurately ripped
03 [2f887d58|ece064db] (09+14/25) Accurately ripped
04 [18eb2aea|083482ca] (09+14/25) Accurately ripped
05 [986ce1c1|e89909f8] (09+15/26) Accurately ripped
06 [d2dc8ffb|5b4334f2] (09+14/25) Accurately ripped
07 [05f7c72d|feb54089] (09+14/25) Accurately ripped
08 [c8662c13|d02f8cb3] (09+14/25) Accurately ripped
09 [2fa19d97|0898e1a2] (09+14/25) Accurately ripped
10 [5c983fa7|bb7578bd] (09+14/25) Accurately ripped
11 [57bbbc47|dbc58430] (09+14/25) Accurately ripped
Offsetted by -664:
01 [160db375] (02/25) Accurately ripped
02 [468b7a43] (02/24) Accurately ripped
03 [22a876d9] (02/25) Accurately ripped
04 [276e915b] (02/25) Accurately ripped
05 [8dcf4ecd] (02/26) Accurately ripped
06 [6430bf13] (02/25) Accurately ripped
07 [867f5226] (02/25) Accurately ripped
08 [da7cb59a] (02/25) Accurately ripped
09 [d684a7ea] (02/25) Accurately ripped
10 4160066 (02/25) Accurately ripped
11 [cbaee801] (02/25) Accurately ripped

Track Peak [ CRC32 ] [W/O NULL] [ LOG ]
-- 100,0 [2751007F] [DBC93527] CRC32
01 100,0 [8A839C6E] [F5DB83BE]
02 98,1 [53A94448] [1FD2BAD4]
03 97,5 [A0744BF1] [550A73FD]
04 97,3 [9DEEAAF9] [3756865B]
05 96,0 [8054B48C] [4A28D1C5]
06 100,0 [E7AC3C4D] [AF50058C]
07 89,3 [3A48C836] [72BEB0B4]
08 99,7 42512CB [06A7D099]
09 100,0 [3757107B] 25A9B85
10 100,0 [7514EA60] [45676E88]
11 80,0 [FCC15222] [013CFA0F]

John Wetton - Rock Of Faith (2003)



DOWNLOAD LINKS
Buy Premium From My Links To Get Resumable Support & Max Speed & To Support Me


Links are Interchangeable - No Password - Single Extraction
Direct Download

Tags: Wetton

John Wetton - Rock Of Faith (2003) Download via Hotfile Rapidshare Fileserve Megaupload & FileSonic, John Wetton - Rock Of Faith (2003) free torrent downloads included crack, serial, keygen.John Wetton - Rock Of Faith (2003) Fast Download via Rapidshare Hotfile Fileserve Filesonic Megaupload, John Wetton - Rock Of Faith (2003) Torrents and Emule Download or anything related.
Leave a Comment
Your Name:
E-Mail:
Add Comments:

Enter Code: