Various Artists - Les grands compositeurs et leurs oeuvres - XXe Siecle (2008) [3CD] {Fuzeau-Melomaniac}

Download Now


Various Artists - Les grands compositeurs et leurs oeuvres - XXe Siecle (2008) [3CD] {Fuzeau-Melomaniac}
Various Artists - Les grands compositeurs et leurs oeuvres - XXe Siecle (2008) [3CD] {Fuzeau-Melomaniac}
EAC rip (secure mode) | FLAC (tracks)+CUE+LOG -> 921 Mb | MP3 @320 -> 501 Mb
Full Artwork @ 300 dpi (png) -> 2.10 Gb | 5% repair rar
© 2008 Fuzeau / Melomaniac | 8796/70036-38
Classical / Symphony / Suite / Chamber Music

"Proposant une approche globale et sociologique de la musique, la collection Mélomaniac s'est construite sur l'idée forte de toujours placer l'oeuvre musicale, la vie instrumentale ou la pratique vocale au coeur de l'histoire des Hommes. Qu'il s'agisse d'un Pacific 231 d'Honegger illustrant le machinisme du début du XXe siècle, d'une présentation du didjeridoo en relation avec les cultures aborigènes en Australie, ou encore d'un chant sacré gdang des moines tibétains, vous trouverez dans les différents ouvrages Mélomaniac une réelle prise entre les faits musicaux et leur contexte d'existence."

Various Artists - Les grands compositeurs et leurs oeuvres - XXe Siecle (2008) [3CD] {Fuzeau-Melomaniac}

"Découvrez un guide idéalement pensé pour entrer dans l'univers de la grande musique ! A la fois riche et facile d'accès, il séduira les professionnels, les enseignants mais aussi les étudiants et mélomanes.

Ce coffret présente la musique du XXe siècle :
- biographies de compositeurs incontournables, exposées comme autant de destins individuels, avec leur cortège d'anecdotes et de citations : Debussy, Ravel, Satie, Prokofiev, Falla...
- oeuvres essentielles, classées par formes (symphonies, concertos, ballets, formes vocales...), accompagnées d'un extrait sonore et d'une présentation illustrée.
- Des dessins originaux de qualité.

Various Artists - Les grands compositeurs et leurs oeuvres - XXe Siecle (2008) [3CD] {Fuzeau-Melomaniac}

Various Artists - Les grands compositeurs et leurs oeuvres - XXe Siecle (2008) [3CD] {Fuzeau-Melomaniac}


Le livre propose 2 parties : Les compositeurs et Les oeuvres. Retrouvez :
- 34 biographies de compositeurs
- 2500 références musicales répertoriées
- 150 illustrations à découvrir
- 73 chefs-d'oeuvre commentés
- 30 thèmes musicaux sur portée

Various Artists - Les grands compositeurs et leurs oeuvres - XXe Siecle (2008) [3CD] {Fuzeau-Melomaniac}

Various Artists - Les grands compositeurs et leurs oeuvres - XXe Siecle (2008) [3CD] {Fuzeau-Melomaniac}


Les 3 CD audio comptent 70 extraits musicaux (instrumentaux, orchestraux et lyriques).

Auteur : Régis Haas

Le coffret contenant : le livre de 176 pages + 3 CD audio"


Various Artists - Les grands compositeurs et leurs oeuvres - XXe Siecle (2008) [3CD] {Fuzeau-Melomaniac}


tracklist:
CD1

01 - C. Debussy - La Mer
02 - C. Debussy - La Mer (2)
03 - A. Roussel - Symphonie n. 1
04 - E. Elgar - Pomp and Circumstance March n. 1
05 - R. Vaughan Williams - A Sea Symphony
06 - G. Holst - Les Planetes
07 - G. Holst - Les Planetes (2)
08 - G. Holst - Les Planetes (3)
09 - P. Hindemith - Symphonie ''Mathis le peintre''
10 - K. Weill - Symphonie n. 2
11 - A. Copland - Appalachian Spring
12 - D. Chostakovitch - Symphonie n. 5
13 - D. Chostakovitch - Symphonie n. 11
14 - J. Sibelius - Finlandia
15 - J. Sibelius - Tapiola
16 - P. Dukas - L'Apprenti Sorcier
17 - M. de Falla - Nuits dans les jardins d'Espagne
18 - 0. Respighi - Les Pins de Rome
19 - A. Honegger - Pacific 231
20 - J. Sibelius - Concerto pour violon
21 - J. Sibelius - Concerto pour violon (2)
22 - M. Ravel - Concerto pour piano en sol M

Various Artists - Les grands compositeurs et leurs oeuvres - XXe Siecle (2008) [3CD] {Fuzeau-Melomaniac}


CD2
01 - M. Ravel - Concerto pour la main gauche
02 - F. Poulenc - Concerto pour 2 pianos
03 - F. Poulenc - Concerto pour orgue
04 - S. Prokofiev - Concerto pour piano n. 2
05 - B. Bartok - Concerto pour alto
06 - A. Berg - Concerto pour violon
07 - H. Villa-Lobos - Concerto pour guitare
08 - J. Rodrigo - Concerto d'Aranjuez
09 - A. Copland - Concerto pour clarinette
10 - C. Debussy - Children's Corner Suite
11 - E. Satie - 4e Gnossienne
12 - M. Ravel - Jeux d'eau
13 - B. Bartok - Allegro Barbaro
14 - M. Ravel - Chanson espagnole
15 - F. Poulenc - Carte Postale
16 - F. Poulenc - C'est ainsi que tu es
17 - R. Vaughan Williams - Songs of Travel
18 - B. Britten - Albert Herring
19 - A. Schoenberg - Gurre-Lieder
20 - A. Schoenberg - Pierrot Lunaire
21 - S. Prokofiev - Alexandre Nevsky
22 - S. Prokofiev - Alexandre Nevsky (2)
23 - I. Stravinski - Symphonie des Psaumes
24 - I. Stravinski - Oedipus Rex

Various Artists - Les grands compositeurs et leurs oeuvres - XXe Siecle (2008) [3CD] {Fuzeau-Melomaniac}


CD3
01 - E. Satie - Parade
02 - A. Roussel - Bacchus et Ariane
03 - M. Ravel - Daphnis et Chloe
04 - M. Ravel - La Valse
05 - M. Ravel - Bolero
06 - D. Milhaud - Le Boeuf sur le Toit
07 - D. Milhaud - La Creation du Monde
08 - L. Janacek - Danses de Lachie
09 - S. Prokofiev - Romeo et Juliette
10 - I. Stravinski - Le Sacre du Printemps
11 - G. Faure - Sonate pour violon et piano n.1
12 - C. Debussy - Quatuor a cordes n.1
13 - M. Ravel - Quatuor a cordes en fa M
14 - B. Martinu - Quatuor avec piano
15 - D. Chostakovitch - Quatuor a cordes n.7
16 - A. Schoenberg - La Nuit transfiguree
17 - B. Bartok - Musique pour cordes, perc. et celesta
18 - S. Prokofiev - Pierre et le Loup
19 - S. Prokofiev - Pierre et le Loup (2)
20 - S. Prokofiev - Pierre et le Loup (3)
21 - D. Chostakovitch - Jazz Suite n.2
22 - C. Ives - Central Park in the Dark
23 - S. Barber - Adagio pour cordes

Various Artists - Les grands compositeurs et leurs oeuvres - XXe Siecle (2008) [3CD] {Fuzeau-Melomaniac}



Exact Audio Copy V1.0 beta 3 from 29. August 2011

EAC extraction logfile from 14. November 2013, 14:00

Various / Les grands compositeurs et leurs oeuvres CD1

Used drive : PLEXTOR DVDR PX-860A Adapter: 0 ID: 0

Read mode : Secure
Utilize accurate stream : Yes
Defeat audio cache : Yes
Make use of C2 pointers : No

Read offset correction

: 96
Overread into Lead-In and Lead-Out : No
Fill up missing offset samples with silence : Yes
Delete leading and trailing silent blocks : No
Null samples used in CRC calculations : Yes
Used interface
: Native Win32 interface for Win NT & 2000
Gap handling
: Appended to previous track

Used output format : User Defined Encoder
Selected bitrate : 1024 kBit/s
Quality : High
Add ID3 tag : No
Command line compressor : C:\Program Files\Exact Audio Copy\Flac\flac.exe
Additional command line options : -8 -V -T "ARTIST=%artist%" -T "TITLE=%title%" -T "ALBUM=%albumtitle%" -T "DATE=%year%" -T "TRACKNUMBER=%tracknr%" -T "TOTALTRACKS=%numtracks%" -T "GENRE=%genre%" -T "ALBUMARTIST=%albumartist%" -T "ALBUM ARTIST=%albumartist%" -T "COMMENT=EAC Secure Mode, Test & Copy, AccurateRip, FLAC -8" %source%

TOC of the extracted CD Track | Start | Length | Start sector | End sector
--1 | 0:00.00 | 3:11.39 | 0 | 14363 2 | 3:11.39 | 1:50.20 | 14364 | 22633 3 | 5:01.59 | 3:23.72 | 22634 | 37930 4 | 8:25.56 | 3:42.08 | 37931 | 54588 5 | 12:07.64 | 2:35.59 | 54589 | 66272 6 | 14:43.48 | 2:46.57 | 66273 | 78779 7 | 17:30.30 | 1:10.27 | 78780 | 84056 8 | 18:40.57 | 1:04.66 | 84057 | 88922 9 | 19:45.48 | 4:03.35 | 88923 | 107182
10 | 23:49.08 | 3:37.23 | 107183 | 123480
11 | 27:26.31 | 3:16.13 | 123481 | 138193
12 | 30:42.44 | 2:23.40 | 138194 | 148958
13 | 33:06.09 | 4:49.12 | 148959 | 170645
14 | 37:55.21 | 5:24.35 | 170646 | 194980
15 | 43:19.56 | 3:15.36 | 194981 | 209641
16 | 46:35.17 | 4:43.74 | 209642 | 230940
17 | 51:19.16 | 4:23.09 | 230941 | 250674
18 | 55:42.25 | 4:14.24 | 250675 | 269748
19 | 59:56.49 | 5:33.62 | 269749 | 294785
20 | 65:30.36 | 2:41.61 | 294786 | 306921
21 | 68:12.22 | 2:01.19 | 306922 | 316015
22 | 70:13.41 | 3:27.74 | 316016 | 331614

Track 1 Filename O:\DL\Various Artists - Les grands compositeurs et leurs oeuvres CD1 (2008) [FLAC]\01 - C. Debussy - La Mer.wav Pre-gap length 0:00:02.00 Peak level 33.1 %
Extraction speed 4.3 X
Track quality 100.0 %
Test CRC 5E5A58E5
Copy CRC 5E5A58E5
Track not present in AccurateRip database
Copy OK

Track 2 Filename O:\DL\Various Artists - Les grands compositeurs et leurs oeuvres CD1 (2008) [FLAC]\02 - C. Debussy - La Mer (2).wav Pre-gap length 0:00:00.92 Peak level 64.6 %
Extraction speed 4.0 X
Track quality 100.0 %
Test CRC 81C1BD8A
Copy CRC 81C1BD8A
Track not present in AccurateRip database
Copy OK

Track 3 Filename O:\DL\Various Artists - Les grands compositeurs et leurs oeuvres CD1 (2008) [FLAC]\03 - A. Roussel - Symphonie n. 1.wav Pre-gap length 0:00:01.26 Peak level 77.9 %
Extraction speed 4.8 X
Track quality 100.0 %
Test CRC E325F7EA
Copy CRC E325F7EA
Track not present in AccurateRip database
Copy OK

Track 4 Filename O:\DL\Various Artists - Les grands compositeurs et leurs oeuvres CD1 (2008) [FLAC]\04 - E. Elgar - Pomp and Circumstance March n. 1.wav Pre-gap length 0:00:02.02 Peak level 78.2 %
Extraction speed 4.6 X
Track quality 99.9 %
Test CRC 04A8C216
Copy CRC 04A8C216
Track not present in AccurateRip database
Copy OK

Track 5 Filename O:\DL\Various Artists - Les grands compositeurs et leurs oeuvres CD1 (2008) [FLAC]\05 - R. Vaughan Williams - A Sea Symphony.wav Pre-gap length 0:00:02.02 Peak level 89.7 %
Extraction speed 5.1 X
Track quality 100.0 %
Test CRC 775E106E
Copy CRC 775E106E
Track not present in AccurateRip database
Copy OK

Track 6 Filename O:\DL\Various Artists - Les grands compositeurs et leurs oeuvres CD1 (2008) [FLAC]\06 - G. Holst - Les Planetes.wav Pre-gap length 0:00:02.00 Peak level 76.7 %
Extraction speed 5.4 X
Track quality 100.0 %
Test CRC 816B9198
Copy CRC 816B9198
Track not present in AccurateRip database
Copy OK

Track 7 Filename O:\DL\Various Artists - Les grands compositeurs et leurs oeuvres CD1 (2008) [FLAC]\07 - G. Holst - Les Planetes (2).wav Pre-gap length 0:00:02.00 Peak level 37.9 %
Extraction speed 3.3 X
Track quality 99.8 %
Test CRC 891EF956
Copy CRC 891EF956
Track not present in AccurateRip database
Copy OK

Track 8 Filename O:\DL\Various Artists - Les grands compositeurs et leurs oeuvres CD1 (2008) [FLAC]\08 - G. Holst - Les Planetes (3).wav Pre-gap length 0:00:02.00 Peak level 19.0 %
Extraction speed 4.4 X
Track quality 100.0 %
Test CRC 2C9FB170
Copy CRC 2C9FB170
Track not present in AccurateRip database
Copy OK

Track 9 Filename O:\DL\Various Artists - Les grands compositeurs et leurs oeuvres CD1 (2008) [FLAC]\09 - P. Hindemith - Symphonie ''Mathis le peintre''.wav Pre-gap length 0:00:02.00 Peak level 36.4 %
Extraction speed 6.2 X
Track quality 100.0 %
Test CRC FE5D3387
Copy CRC FE5D3387
Track not present in AccurateRip database
Copy OK

Track 10 Filename O:\DL\Various Artists - Les grands compositeurs et leurs oeuvres CD1 (2008) [FLAC]\10 - K. Weill - Symphonie n. 2.wav Pre-gap length 0:00:02.00 Peak level 99.3 %
Extraction speed 6.3 X
Track quality 100.0 %
Test CRC 46F9A8E0
Copy CRC 46F9A8E0
Track not present in AccurateRip database
Copy OK

Track 11 Filename O:\DL\Various Artists - Les grands compositeurs et leurs oeuvres CD1 (2008) [FLAC]\11 - A. Copland - Appalachian Spring.wav Pre-gap length 0:00:02.00 Peak level 77.4 %
Extraction speed 5.6 X
Track quality 99.9 %
Test CRC 0683A366
Copy CRC 0683A366
Track not present in AccurateRip database
Copy OK

Track 12 Filename O:\DL\Various Artists - Les grands compositeurs et leurs oeuvres CD1 (2008) [FLAC]\12 - D. Chostakovitch - Symphonie n. 5.wav Pre-gap length 0:00:02.00 Peak level 42.7 %
Extraction speed 6.1 X
Track quality 100.0 %
Test CRC B8E82E8D
Copy CRC B8E82E8D
Track not present in AccurateRip database
Copy OK

Track 13 Filename O:\DL\Various Artists - Les grands compositeurs et leurs oeuvres CD1 (2008) [FLAC]\13 - D. Chostakovitch - Symphonie n. 11.wav Pre-gap length 0:00:02.21 Peak level 77.6 %
Extraction speed 6.4 X
Track quality 99.9 %
Test CRC 5D82F16E
Copy CRC 5D82F16E
Track not present in AccurateRip database
Copy OK

Track 14 Filename O:\DL\Various Artists - Les grands compositeurs et leurs oeuvres CD1 (2008) [FLAC]\14 - J. Sibelius - Finlandia.wav Pre-gap length 0:00:02.00 Peak level 100.0 %
Extraction speed 7.5 X
Track quality 100.0 %
Test CRC 98F6C905
Copy CRC 98F6C905
Track not present in AccurateRip database
Copy OK

Track 15 Filename O:\DL\Various Artists - Les grands compositeurs et leurs oeuvres CD1 (2008) [FLAC]\15 - J. Sibelius - Tapiola.wav Pre-gap length 0:00:02.00 Peak level 74.1 %
Extraction speed 7.2 X
Track quality 100.0 %
Test CRC CA2FAF89
Copy CRC CA2FAF89
Track not present in AccurateRip database
Copy OK

Track 16 Filename O:\DL\Various Artists - Les grands compositeurs et leurs oeuvres CD1 (2008) [FLAC]\16 - P. Dukas - L'Apprenti Sorcier.wav Pre-gap length 0:00:02.00 Peak level 96.3 %
Extraction speed 7.8 X
Track quality 100.0 %
Test CRC 7A34124A
Copy CRC 7A34124A
Track not present in AccurateRip database
Copy OK

Track 17 Filename O:\DL\Various Artists - Les grands compositeurs et leurs oeuvres CD1 (2008) [FLAC]\17 - M. de Falla - Nuits dans les jardins d'Espagne.wav Pre-gap length 0:00:02.00 Peak level 77.2 %
Extraction speed 8.0 X
Track quality 100.0 %
Test CRC E68F9DBC
Copy CRC E68F9DBC
Track not present in AccurateRip database
Copy OK

Track 18 Filename O:\DL\Various Artists - Les grands compositeurs et leurs oeuvres CD1 (2008) [FLAC]\18 - 0. Respighi - Les Pins de Rome.wav Pre-gap length 0:00:02.00 Peak level 97.2 %
Extraction speed 7.3 X
Track quality 99.9 %
Test CRC 20F66FEB
Copy CRC 20F66FEB
Track not present in AccurateRip database
Copy OK

Track 19 Filename O:\DL\Various Artists - Les grands compositeurs et leurs oeuvres CD1 (2008) [FLAC]\19 - A. Honegger - Pacific 231.wav Pre-gap length 0:00:02.00 Peak level 82.7 %
Extraction speed 8.6 X
Track quality 100.0 %
Test CRC A866C34C
Copy CRC A866C34C
Track not present in AccurateRip database
Copy OK

Track 20 Filename O:\DL\Various Artists - Les grands compositeurs et leurs oeuvres CD1 (2008) [FLAC]\20 - J. Sibelius - Concerto pour violon.wav Pre-gap length 0:00:02.00 Peak level 34.7 %
Extraction speed 7.8 X
Track quality 100.0 %
Test CRC 22085059
Copy CRC 22085059
Track not present in AccurateRip database
Copy OK

Track 21 Filename O:\DL\Various Artists - Les grands compositeurs et leurs oeuvres CD1 (2008) [FLAC]\21 - J. Sibelius - Concerto pour violon (2).wav Pre-gap length 0:00:02.00 Peak level 31.2 %
Extraction speed 7.4 X
Track quality 100.0 %
Test CRC 20E4E814
Copy CRC 20E4E814
Track not present in AccurateRip database
Copy OK

Track 22 Filename O:\DL\Various Artists - Les grands compositeurs et leurs oeuvres CD1 (2008) [FLAC]\22 - M. Ravel - Concerto pour piano en sol M.wav Pre-gap length 0:00:02.00 Peak level 19.1 %
Extraction speed 8.4 X
Track quality 100.0 %
Test CRC 23A4ABC5
Copy CRC 23A4ABC5
Track not present in AccurateRip database
Copy OK

None of the tracks are present in the AccurateRip database

No errors occurred

End of status report

- CUETools DB Plugin V2.1.3

[CTDB TOCID: mVDDdKojvteAcX2LHsAxgYCHinc-] disk not present in database, Submit result: mVDDdKojvteAcX2LHsAxgYCHinc- has been uploaded

==== Log checksum 9BF7B73B422269D3B519F99D13904156EADC286C4BF2107A3A4B91733AFBB4A7 ====

Exact Audio Copy V1.0 beta 3 from 29. August 2011

EAC extraction logfile from 15. November 2013, 12:09

Various / Les grands compositeurs et leurs oeuvres CD2

Used drive : PLEXTOR DVDR PX-860A Adapter: 0 ID: 0

Read mode : Secure
Utilize accurate stream : Yes
Defeat audio cache : Yes
Make use of C2 pointers : No

Read offset correction

: 96
Overread into Lead-In and Lead-Out : No
Fill up missing offset samples with silence : Yes
Delete leading and trailing silent blocks : No
Null samples used in CRC calculations : Yes
Used interface
: Native Win32 interface for Win NT & 2000
Gap handling
: Appended to previous track

Used output format : User Defined Encoder
Selected bitrate : 1024 kBit/s
Quality : High
Add ID3 tag : No
Command line compressor : C:\Program Files\Exact Audio Copy\Flac\flac.exe
Additional command line options : -8 -V -T "ARTIST=%artist%" -T "TITLE=%title%" -T "ALBUM=%albumtitle%" -T "DATE=%year%" -T "TRACKNUMBER=%tracknr%" -T "TOTALTRACKS=%numtracks%" -T "GENRE=%genre%" -T "ALBUMARTIST=%albumartist%" -T "ALBUM ARTIST=%albumartist%" -T "COMMENT=EAC Secure Mode, Test & Copy, AccurateRip, FLAC -8" %source%

TOC of the extracted CD Track | Start | Length | Start sector | End sector
--1 | 0:00.00 | 5:24.22 | 0 | 24321 2 | 5:24.22 | 3:53.49 | 24322 | 41845 3 | 9:17.71 | 2:11.08 | 41846 | 51678 4 | 11:29.04 | 2:51.18 | 51679 | 64521 5 | 14:20.22 | 4:23.48 | 64522 | 84294 6 | 18:43.70 | 3:16.04 | 84295 | 98998 7 | 21:59.74 | 2:24.18 | 98999 | 109816 8 | 24:24.17 | 4:13.33 | 109817 | 128824 9 | 28:37.50 | 2:31.17 | 128825 | 140166
10 | 31:08.67 | 1:06.12 | 140167 | 145128
11 | 32:15.04 | 2:55.36 | 145129 | 158289
12 | 35:10.40 | 2:43.54 | 158290 | 170568
13 | 37:54.19 | 2:47.36 | 170569 | 183129
14 | 40:41.55 | 2:26.23 | 183130 | 194102
15 | 43:08.03 | 1:00.38 | 194103 | 198640
16 | 44:08.41 | 2:03.59 | 198641 | 207924
17 | 46:12.25 | 3:20.50 | 207925 | 222974
18 | 49:33.00 | 2:24.41 | 222975 | 233815
19 | 51:57.41 | 3:33.14 | 233816 | 249804
20 | 55:30.55 | 1:47.66 | 249805 | 257895
21 | 57:18.46 | 2:04.65 | 257896 | 267260
22 | 59:23.36 | 1:30.32 | 267261 | 274042
23 | 60:53.68 | 3:28.74 | 274043 | 289716
24 | 64:22.67 | 4:22.09 | 289717 | 309375

Track 1 Filename O:\DL\Various Artists - Les grands compositeurs et leurs oeuvres CD2 (2008) [FLAC]\01 - M. Ravel - Concerto pour la main gauche.wav Pre-gap length 0:00:02.00 Peak level 81.2 %
Extraction speed 4.4 X
Track quality 100.0 %
Test CRC 00843DEF
Copy CRC 00843DEF
Track not present in AccurateRip database
Copy OK

Track 2 Filename O:\DL\Various Artists - Les grands compositeurs et leurs oeuvres CD2 (2008) [FLAC]\02 - F. Poulenc - Concerto pour 2 pianos.wav Pre-gap length 0:00:02.00 Peak level 68.2 %
Extraction speed 3.7 X
Track quality 99.9 %
Test CRC CDF9E47D
Copy CRC CDF9E47D
Track not present in AccurateRip database
Copy OK

Track 3 Filename O:\DL\Various Artists - Les grands compositeurs et leurs oeuvres CD2 (2008) [FLAC]\03 - F. Poulenc - Concerto pour orgue.wav Pre-gap length 0:00:02.00 Peak level 66.7 %
Extraction speed 3.7 X
Track quality 99.9 %
Test CRC 25D9BB4C
Copy CRC 25D9BB4C
Track not present in AccurateRip database
Copy OK

Track 4 Filename O:\DL\Various Artists - Les grands compositeurs et leurs oeuvres CD2 (2008) [FLAC]\04 - S. Prokofiev - Concerto pour piano n. 2.wav Pre-gap length 0:00:02.00 Peak level 49.6 %
Extraction speed 4.2 X
Track quality 99.9 %
Test CRC A841C909
Copy CRC A841C909
Track not present in AccurateRip database
Copy OK

Track 5 Filename O:\DL\Various Artists - Les grands compositeurs et leurs oeuvres CD2 (2008) [FLAC]\05 - B. Bartok - Concerto pour alto.wav Pre-gap length 0:00:02.00 Peak level 91.2 %
Extraction speed 5.5 X
Track quality 100.0 %
Test CRC 7F589DEC
Copy CRC 7F589DEC
Track not present in AccurateRip database
Copy OK

Track 6 Filename O:\DL\Various Artists - Les grands compositeurs et leurs oeuvres CD2 (2008) [FLAC]\06 - A. Berg - Concerto pour violon.wav Pre-gap length 0:00:02.00 Peak level 34.5 %
Extraction speed 5.6 X
Track quality 100.0 %
Test CRC DD7530E6
Copy CRC DD7530E6
Track not present in AccurateRip database
Copy OK

Track 7 Filename O:\DL\Various Artists - Les grands compositeurs et leurs oeuvres CD2 (2008) [FLAC]\07 - H. Villa-Lobos - Concerto pour guitare.wav Pre-gap length 0:00:02.00 Peak level 59.7 %
Extraction speed 5.5 X
Track quality 100.0 %
Test CRC E09F1A5E
Copy CRC E09F1A5E
Track not present in AccurateRip database
Copy OK

Track 8 Filename O:\DL\Various Artists - Les grands compositeurs et leurs oeuvres CD2 (2008) [FLAC]\08 - J. Rodrigo - Concerto d'Aranjuez.wav Pre-gap length 0:00:02.00 Peak level 61.1 %
Extraction speed 6.0 X
Track quality 100.0 %
Test CRC D883D86A
Copy CRC D883D86A
Track not present in AccurateRip database
Copy OK

Track 9 Filename O:\DL\Various Artists - Les grands compositeurs et leurs oeuvres CD2 (2008) [FLAC]\09 - A. Copland - Concerto pour clarinette.wav Pre-gap length 0:00:02.00 Peak level 91.4 %
Extraction speed 5.9 X
Track quality 100.0 %
Test CRC 199AD537
Copy CRC 199AD537
Track not present in AccurateRip database
Copy OK

Track 10 Filename O:\DL\Various Artists - Les grands compositeurs et leurs oeuvres CD2 (2008) [FLAC]\10 - C. Debussy - Children's Corner Suite.wav Pre-gap length 0:00:02.00 Peak level 87.1 %
Extraction speed 4.8 X
Track quality 100.0 %
Test CRC C0730C48
Copy CRC C0730C48
Track not present in AccurateRip database
Copy OK

Track 11 Filename O:\DL\Various Artists - Les grands compositeurs et leurs oeuvres CD2 (2008) [FLAC]\11 - E. Satie - 4e Gnossienne.wav Pre-gap length 0:00:02.00 Peak level 39.2 %
Extraction speed 6.0 X
Track quality 100.0 %
Test CRC CA5EDE46
Copy CRC CA5EDE46
Track not present in AccurateRip database
Copy OK

Track 12 Filename O:\DL\Various Artists - Les grands compositeurs et leurs oeuvres CD2 (2008) [FLAC]\12 - M. Ravel - Jeux d'eau.wav Pre-gap length 0:00:02.00 Peak level 59.3 %
Extraction speed 6.0 X
Track quality 100.0 %
Test CRC 88EAE043
Copy CRC 88EAE043
Track not present in AccurateRip database
Copy OK

Track 13 Filename O:\DL\Various Artists - Les grands compositeurs et leurs oeuvres CD2 (2008) [FLAC]\13 - B. Bartok - Allegro Barbaro.wav Pre-gap length 0:00:02.00 Peak level 99.3 %
Extraction speed 6.5 X
Track quality 100.0 %
Test CRC 94174BA1
Copy CRC 94174BA1
Track not present in AccurateRip database
Copy OK

Track 14 Filename O:\DL\Various Artists - Les grands compositeurs et leurs oeuvres CD2 (2008) [FLAC]\14 - M. Ravel - Chanson espagnole.wav Pre-gap length 0:00:02.00 Peak level 22.5 %
Extraction speed 6.3 X
Track quality 100.0 %
Test CRC ED2649F8
Copy CRC ED2649F8
Track not present in AccurateRip database
Copy OK

Track 15 Filename O:\DL\Various Artists - Les grands compositeurs et leurs oeuvres CD2 (2008) [FLAC]\15 - F. Poulenc - Carte Postale.wav Pre-gap length 0:00:02.00 Peak level 74.2 %
Extraction speed 4.9 X
Track quality 100.0 %
Test CRC D74F03C6
Copy CRC D74F03C6
Track not present in AccurateRip database
Copy OK

Track 16 Filename O:\DL\Various Artists - Les grands compositeurs et leurs oeuvres CD2 (2008) [FLAC]\16 - F. Poulenc - C'est ainsi que tu es.wav Pre-gap length 0:00:02.00 Peak level 40.9 %
Extraction speed 6.1 X
Track quality 100.0 %
Test CRC C16A13D0
Copy CRC C16A13D0
Track not present in AccurateRip database
Copy OK

Track 17 Filename O:\DL\Various Artists - Les grands compositeurs et leurs oeuvres CD2 (2008) [FLAC]\17 - R. Vaughan Williams - Songs of Travel.wav Pre-gap length 0:00:02.00 Peak level 83.7 %
Extraction speed 7.1 X
Track quality 100.0 %
Test CRC C31D8336
Copy CRC C31D8336
Track not present in AccurateRip database
Copy OK

Track 18 Filename O:\DL\Various Artists - Les grands compositeurs et leurs oeuvres CD2 (2008) [FLAC]\18 - B. Britten - Albert Herring.wav Pre-gap length 0:00:02.00 Peak level 96.5 %
Extraction speed 6.8 X
Track quality 100.0 %
Test CRC 1D276F21
Copy CRC 1D276F21
Track not present in AccurateRip database
Copy OK

Track 19 Filename O:\DL\Various Artists - Les grands compositeurs et leurs oeuvres CD2 (2008) [FLAC]\19 - A. Schoenberg - Gurre-Lieder.wav Pre-gap length 0:00:02.00 Peak level 86.6 %
Extraction speed 7.4 X
Track quality 100.0 %
Test CRC 34936536
Copy CRC 34936536
Track not present in AccurateRip database
Copy OK

Track 20 Filename O:\DL\Various Artists - Les grands compositeurs et leurs oeuvres CD2 (2008) [FLAC]\20 - A. Schoenberg - Pierrot Lunaire.wav Pre-gap length 0:00:02.00 Peak level 98.0 %
Extraction speed 5.3 X
Track quality 99.9 %
Test CRC DF3210BD
Copy CRC DF3210BD
Track not present in AccurateRip database
Copy OK

Track 21 Filename O:\DL\Various Artists - Les grands compositeurs et leurs oeuvres CD2 (2008) [FLAC]\21 - S. Prokofiev - Alexandre Nevsky.wav Pre-gap length 0:00:02.00 Peak level 45.6 %
Extraction speed 6.0 X
Track quality 100.0 %
Test CRC C9EB532A
Copy CRC C9EB532A
Track not present in AccurateRip database
Copy OK

Track 22 Filename O:\DL\Various Artists - Les grands compositeurs et leurs oeuvres CD2 (2008) [FLAC]\22 - S. Prokofiev - Alexandre Nevsky (2).wav Pre-gap length 0:00:02.00 Peak level 97.4 %
Extraction speed 5.9 X
Track quality 100.0 %
Test CRC D12BB2CA
Copy CRC D12BB2CA
Track not present in AccurateRip database
Copy OK

Track 23 Filename O:\DL\Various Artists - Les grands compositeurs et leurs oeuvres CD2 (2008) [FLAC]\23 - I. Stravinski - Symphonie des Psaumes.wav Pre-gap length 0:00:02.00 Peak level 95.4 %
Extraction speed 7.4 X
Track quality 100.0 %
Test CRC C8B21B09
Copy CRC C8B21B09
Track not present in AccurateRip database
Copy OK

Track 24 Filename O:\DL\Various Artists - Les grands compositeurs et leurs oeuvres CD2 (2008) [FLAC]\24 - I. Stravinski - Oedipus Rex.wav Pre-gap length 0:00:02.00 Peak level 69.9 %
Extraction speed 8.1 X
Track quality 100.0 %
Test CRC 326288CE
Copy CRC 326288CE
Track not present in AccurateRip database
Copy OK

None of the tracks are present in the AccurateRip database

No errors occurred

End of status report

- CUETools DB Plugin V2.1.3

[CTDB TOCID: nT55lA3QPfRirXelSEQGoOOi2IQ-] found, Submit result: already submitted
[952ad95b] (1/1) Accurately ripped

==== Log checksum CF90E30BDFC1CC921C06DC970B7599C08782A1CC3EAA45D2966777B50B9C009F ====

Exact Audio Copy V1.0 beta 3 from 29. August 2011

EAC extraction logfile from 15. November 2013, 13:04

Various / Les grands compositeurs et leurs oeuvres CD3

Used drive : PLEXTOR DVDR PX-860A Adapter: 0 ID: 0

Read mode : Secure
Utilize accurate stream : Yes
Defeat audio cache : Yes
Make use of C2 pointers : No

Read offset correction

: 96
Overread into Lead-In and Lead-Out : No
Fill up missing offset samples with silence : Yes
Delete leading and trailing silent blocks : No
Null samples used in CRC calculations : Yes
Used interface
: Native Win32 interface for Win NT & 2000
Gap handling
: Appended to previous track

Used output format : User Defined Encoder
Selected bitrate : 1024 kBit/s
Quality : High
Add ID3 tag : No
Command line compressor : C:\Program Files\Exact Audio Copy\Flac\flac.exe
Additional command line options : -8 -V -T "ARTIST=%artist%" -T "TITLE=%title%" -T "ALBUM=%albumtitle%" -T "DATE=%year%" -T "TRACKNUMBER=%tracknr%" -T "TOTALTRACKS=%numtracks%" -T "GENRE=%genre%" -T "ALBUMARTIST=%albumartist%" -T "ALBUM ARTIST=%albumartist%" -T "COMMENT=EAC Secure Mode, Test & Copy, AccurateRip, FLAC -8" %source%

TOC of the extracted CD Track | Start | Length | Start sector | End sector
--1 | 0:00.00 | 2:00.51 | 0 | 9050 2 | 2:00.51 | 1:51.19 | 9051 | 17394 3 | 3:51.70 | 4:40.61 | 17395 | 38455 4 | 8:32.56 | 3:17.73 | 38456 | 53303 5 | 11:50.54 | 4:52.58 | 53304 | 75261 6 | 16:43.37 | 3:11.02 | 75262 | 89588 7 | 19:54.39 | 2:45.17 | 89589 | 101980 8 | 22:39.56 | 2:11.25 | 101981 | 111830 9 | 24:51.06 | 4:12.33 | 111831 | 130763
10 | 29:03.39 | 2:40.16 | 130764 | 142779
11 | 31:43.55 | 3:16.18 | 142780 | 157497
12 | 34:59.73 | 1:57.65 | 157498 | 166337
13 | 36:57.63 | 2:34.15 | 166338 | 177902
14 | 39:32.03 | 2:26.00 | 177903 | 188852
15 | 41:58.03 | 2:39.44 | 188853 | 200821
16 | 44:37.47 | 3:45.60 | 200822 | 217756
17 | 48:23.32 | 3:32.72 | 217757 | 233728
18 | 51:56.29 | 0:44.68 | 233729 | 237096
19 | 52:41.22 | 1:14.44 | 237097 | 242690
20 | 53:55.66 | 1:46.01 | 242691 | 250641
21 | 55:41.67 | 3:14.31 | 250642 | 265222
22 | 58:56.23 | 3:07.73 | 265223 | 279320
23 | 62:04.21 | 2:40.31 | 279321 | 291351

Track 1 Filename O:\DL\Various Artists - Les grands compositeurs et leurs oeuvres CD3 (2008) [FLAC]\01 - E. Satie - Parade.wav Pre-gap length 0:00:02.00 Peak level 54.8 %
Extraction speed 3.5 X
Track quality 100.0 %
Test CRC 186ABA0C
Copy CRC 186ABA0C
Track not present in AccurateRip database
Copy OK

Track 2 Filename O:\DL\Various Artists - Les grands compositeurs et leurs oeuvres CD3 (2008) [FLAC]\02 - A. Roussel - Bacchus et Ariane.wav Pre-gap length 0:00:02.00 Peak level 80.7 %
Extraction speed 3.6 X
Track quality 100.0 %
Test CRC FD86F9F4
Copy CRC FD86F9F4
Track not present in AccurateRip database
Copy OK

Track 3 Filename O:\DL\Various Artists - Les grands compositeurs et leurs oeuvres CD3 (2008) [FLAC]\03 - M. Ravel - Daphnis et Chloe.wav Pre-gap length 0:00:02.00 Peak level 98.8 %
Extraction speed 4.6 X
Track quality 100.0 %
Test CRC 56A9AB05
Copy CRC 56A9AB05
Track not present in AccurateRip database
Copy OK

Track 4 Filename O:\DL\Various Artists - Les grands compositeurs et leurs oeuvres CD3 (2008) [FLAC]\04 - M. Ravel - La Valse.wav Pre-gap length 0:00:01.90 Peak level 99.9 %
Extraction speed 4.6 X
Track quality 100.0 %
Test CRC D22C3394
Copy CRC D22C3394
Track not present in AccurateRip database
Copy OK

Track 5 Filename O:\DL\Various Artists - Les grands compositeurs et leurs oeuvres CD3 (2008) [FLAC]\05 - M. Ravel - Bolero.wav Pre-gap length 0:00:02.00 Peak level 87.5 %
Extraction speed 4.8 X
Track quality 99.9 %
Test CRC 0F535C6E
Copy CRC 0F535C6E
Track not present in AccurateRip database
Copy OK

Track 6 Filename O:\DL\Various Artists - Les grands compositeurs et leurs oeuvres CD3 (2008) [FLAC]\06 - D. Milhaud - Le Boeuf sur le Toit.wav Pre-gap length 0:00:02.00 Peak level 75.5 %
Extraction speed 5.3 X
Track quality 100.0 %
Test CRC D9064F3B
Copy CRC D9064F3B
Track not present in AccurateRip database
Copy OK

Track 7 Filename O:\DL\Various Artists - Les grands compositeurs et leurs oeuvres CD3 (2008) [FLAC]\07 - D. Milhaud - La Creation du Monde.wav Pre-gap length 0:00:02.00 Peak level 93.6 %
Extraction speed 5.6 X
Track quality 100.0 %
Test CRC A0270920
Copy CRC A0270920
Track not present in AccurateRip database
Copy OK

Track 8 Filename O:\DL\Various Artists - Les grands compositeurs et leurs oeuvres CD3 (2008) [FLAC]\08 - L. Janacek - Danses de Lachie.wav Pre-gap length 0:00:02.00 Peak level 76.6 %
Extraction speed 5.4 X
Track quality 100.0 %
Test CRC F0F52131
Copy CRC F0F52131
Track not present in AccurateRip database
Copy OK

Track 9 Filename O:\DL\Various Artists - Les grands compositeurs et leurs oeuvres CD3 (2008) [FLAC]\09 - S. Prokofiev - Romeo et Juliette.wav Pre-gap length 0:00:02.00 Peak level 78.5 %
Extraction speed 6.4 X
Track quality 100.0 %
Test CRC 03E4A65E
Copy CRC 03E4A65E
Track not present in AccurateRip database
Copy OK

Track 10 Filename O:\DL\Various Artists - Les grands compositeurs et leurs oeuvres CD3 (2008) [FLAC]\10 - I. Stravinski - Le Sacre du Printemps.wav Pre-gap length 0:00:02.00 Peak level 100.0 %
Extraction speed 6.1 X
Track quality 100.0 %
Test CRC AFF54BCD
Copy CRC AFF54BCD
Track not present in AccurateRip database
Copy OK

Track 11 Filename O:\DL\Various Artists - Les grands compositeurs et leurs oeuvres CD3 (2008) [FLAC]\11 - G. Faure - Sonate pour violon et piano n.1.wav Pre-gap length 0:00:02.00 Peak level 92.4 %
Extraction speed 6.4 X
Track quality 100.0 %
Test CRC 0192677C
Copy CRC 0192677C
Track not present in AccurateRip database
Copy OK

Track 12 Filename O:\DL\Various Artists - Les grands compositeurs et leurs oeuvres CD3 (2008) [FLAC]\12 - C. Debussy - Quatuor a cordes n.1.wav Pre-gap length 0:00:02.00 Peak level 31.1 %
Extraction speed 4.9 X
Track quality 99.9 %
Test CRC 7DB38CA5
Copy CRC 7DB38CA5
Track not present in AccurateRip database
Copy OK

Track 13 Filename O:\DL\Various Artists - Les grands compositeurs et leurs oeuvres CD3 (2008) [FLAC]\13 - M. Ravel - Quatuor a cordes en fa M.wav Pre-gap length 0:00:02.00 Peak level 66.1 %
Extraction speed 6.1 X
Track quality 100.0 %
Test CRC 55AF1CA7
Copy CRC 55AF1CA7
Track not present in AccurateRip database
Copy OK

Track 14 Filename O:\DL\Various Artists - Les grands compositeurs et leurs oeuvres CD3 (2008) [FLAC]\14 - B. Martinu - Quatuor avec piano.wav Pre-gap length 0:00:02.00 Peak level 34.4 %
Extraction speed 6.6 X
Track quality 100.0 %
Test CRC F7730D81
Copy CRC F7730D81
Track not present in AccurateRip database
Copy OK

Track 15 Filename O:\DL\Various Artists - Les grands compositeurs et leurs oeuvres CD3 (2008) [FLAC]\15 - D. Chostakovitch - Quatuor a cordes n.7.wav Pre-gap length 0:00:02.00 Peak level 100.0 %
Extraction speed 6.9 X
Track quality 100.0 %
Test CRC A582E22B
Copy CRC A582E22B
Track not present in AccurateRip database
Copy OK

Track 16 Filename O:\DL\Various Artists - Les grands compositeurs et leurs oeuvres CD3 (2008) [FLAC]\16 - A. Schoenberg - La Nuit transfiguree.wav Pre-gap length 0:00:02.00 Peak level 62.2 %
Extraction speed 7.3 X
Track quality 100.0 %
Test CRC A1D8FCCA
Copy CRC A1D8FCCA
Track not present in AccurateRip database
Copy OK

Track 17 Filename O:\DL\Various Artists - Les grands compositeurs et leurs oeuvres CD3 (2008) [FLAC]\17 - B. Bartok - Musique pour cordes, perc. et celesta.wav Pre-gap length 0:00:02.00 Peak level 33.9 %
Extraction speed 7.4 X
Track quality 100.0 %
Test CRC 7FD44B12
Copy CRC 7FD44B12
Track not present in AccurateRip database
Copy OK

Track 18 Filename O:\DL\Various Artists - Les grands compositeurs et leurs oeuvres CD3 (2008) [FLAC]\18 - S. Prokofiev - Pierre et le Loup.wav Pre-gap length 0:00:02.00 Peak level 17.6 %
Extraction speed 4.8 X
Track quality 100.0 %
Test CRC 1609F1E6
Copy CRC 1609F1E6
Track not present in AccurateRip database
Copy OK

Track 19 Filename O:\DL\Various Artists - Les grands compositeurs et leurs oeuvres CD3 (2008) [FLAC]\19 - S. Prokofiev - Pierre et le Loup (2).wav Pre-gap length 0:00:02.00 Peak level 8.0 %
Extraction speed 5.9 X
Track quality 100.0 %
Test CRC BE9765BF
Copy CRC BE9765BF
Track not present in AccurateRip database
Copy OK

Track 20 Filename O:\DL\Various Artists - Les grands compositeurs et leurs oeuvres CD3 (2008) [FLAC]\20 - S. Prokofiev - Pierre et le Loup (3).wav Pre-gap length 0:00:02.00 Peak level 21.8 %
Extraction speed 6.7 X
Track quality 100.0 %
Test CRC F7A60306
Copy CRC F7A60306
Track not present in AccurateRip database
Copy OK

Track 21 Filename O:\DL\Various Artists - Les grands compositeurs et leurs oeuvres CD3 (2008) [FLAC]\21 - D. Chostakovitch - Jazz Suite n.2.wav Pre-gap length 0:00:02.00 Peak level 79.2 %
Extraction speed 7.6 X
Track quality 100.0 %
Test CRC B2760890
Copy CRC B2760890
Track not present in AccurateRip database
Copy OK

Track 22 Filename O:\DL\Various Artists - Les grands compositeurs et leurs oeuvres CD3 (2008) [FLAC]\22 - C. Ives - Central Park in the Dark.wav Pre-gap length 0:00:02.00 Peak level 87.5 %
Extraction speed 7.7 X
Track quality 100.0 %
Test CRC FD8A7E29
Copy CRC FD8A7E29
Track not present in AccurateRip database
Copy OK

Track 23 Filename O:\DL\Various Artists - Les grands compositeurs et leurs oeuvres CD3 (2008) [FLAC]\23 - S. Barber - Adagio pour cordes.wav Pre-gap length 0:00:02.00 Peak level 24.4 %
Extraction speed 7.6 X
Track quality 100.0 %
Test CRC 716482D8
Copy CRC 716482D8
Track not present in AccurateRip database
Copy OK

None of the tracks are present in the AccurateRip database

No errors occurred

End of status report

- CUETools DB Plugin V2.1.3

[CTDB TOCID: cmJ7m9U3BVYkKjnq8vg0ikf58rI-] disk not present in database, Submit result: cmJ7m9U3BVYkKjnq8vg0ikf58rI- has been uploaded

==== Log checksum 2B0A23792220B19D7A07BBAC6941A4A6B44802589AB1F847D5B37696E6F73ED5 ====

Various Artists - Les grands compositeurs et leurs oeuvres - XXe Siecle (2008) [3CD] {Fuzeau-Melomaniac}


All thanks goes to the original releaser!
DOWNLOAD LINKS:

Rapidgator.net:
yv7t0.valesgrandcompositeursARTWORK.part01.rar.html
yv7t0.valesgrandcompositeursARTWORK.part02.rar.html
yv7t0.valesgrandcompositeursARTWORK.part03.rar.html
yv7t0.valesgrandcompositeursARTWORK.part04.rar.html
yv7t0.valesgrandcompositeursARTWORK.part05.rar.html
yv7t0.valesgrandcompositeursARTWORK.part06.rar.html
yv7t0.valesgrandcompositeursARTWORK.part07.rar.html
yv7t0.valesgrandcompositeursARTWORK.part08.rar.html
yv7t0.valesgrandcompositeursARTWORK.part09.rar.html
yv7t0.valesgrandcompositeursARTWORK.part10.rar.html
yv7t0.valesgrandcompositeursARTWORK.part11.rar.html
yv7t0.valesgrandcompositeursCD1.part1.rar.html
yv7t0.valesgrandcompositeursCD1.part2.rar.html
yv7t0.valesgrandcompositeursCD1MP.rar.html
yv7t0.valesgrandcompositeursCD2.part1.rar.html
yv7t0.valesgrandcompositeursCD2.part2.rar.html
yv7t0.valesgrandcompositeursCD2MP.rar.html
yv7t0.valesgrandcompositeursCD3.part1.rar.html
yv7t0.valesgrandcompositeursCD3.part2.rar.html
yv7t0.valesgrandcompositeursCD3MP.rar.html

Uploaded.net:
yv7t0.valesgrandcompositeursARTWORK.part01.rar
yv7t0.valesgrandcompositeursARTWORK.part02.rar
yv7t0.valesgrandcompositeursARTWORK.part03.rar
yv7t0.valesgrandcompositeursARTWORK.part04.rar
yv7t0.valesgrandcompositeursARTWORK.part05.rar
yv7t0.valesgrandcompositeursARTWORK.part06.rar
yv7t0.valesgrandcompositeursARTWORK.part07.rar
yv7t0.valesgrandcompositeursARTWORK.part08.rar
yv7t0.valesgrandcompositeursARTWORK.part09.rar
yv7t0.valesgrandcompositeursARTWORK.part10.rar
yv7t0.valesgrandcompositeursARTWORK.part11.rar
yv7t0.valesgrandcompositeursCD1.part1.rar
yv7t0.valesgrandcompositeursCD1.part2.rar
yv7t0.valesgrandcompositeursCD1MP.rar
yv7t0.valesgrandcompositeursCD2.part1.rar
yv7t0.valesgrandcompositeursCD2.part2.rar
yv7t0.valesgrandcompositeursCD2MP.rar
yv7t0.valesgrandcompositeursCD3.part1.rar
yv7t0.valesgrandcompositeursCD3.part2.rar
yv7t0.valesgrandcompositeursCD3MP.rar

Uploadable.ch:
yv7t0.valesgrandcompositeursARTWORK.part01.rar
yv7t0.valesgrandcompositeursARTWORK.part02.rar
yv7t0.valesgrandcompositeursARTWORK.part03.rar
yv7t0.valesgrandcompositeursARTWORK.part04.rar
yv7t0.valesgrandcompositeursARTWORK.part05.rar
yv7t0.valesgrandcompositeursARTWORK.part06.rar
yv7t0.valesgrandcompositeursARTWORK.part07.rar
yv7t0.valesgrandcompositeursARTWORK.part08.rar
yv7t0.valesgrandcompositeursARTWORK.part09.rar
yv7t0.valesgrandcompositeursARTWORK.part10.rar
yv7t0.valesgrandcompositeursARTWORK.part11.rar
yv7t0.valesgrandcompositeursCD1.part1.rar
yv7t0.valesgrandcompositeursCD1.part2.rar
yv7t0.valesgrandcompositeursCD1MP.rar
yv7t0.valesgrandcompositeursCD2.part1.rar
yv7t0.valesgrandcompositeursCD2.part2.rar
yv7t0.valesgrandcompositeursCD2MP.rar
yv7t0.valesgrandcompositeursCD3.part1.rar
yv7t0.valesgrandcompositeursCD3.part2.rar
yv7t0.valesgrandcompositeursCD3MP.rar

No Password
Direct Download

Tags: Various, Artists, grands, compositeurs, oeuvres, Siecle, Fuzeau

Various Artists - Les grands compositeurs et leurs oeuvres - XXe Siecle (2008) [3CD] {Fuzeau-Melomaniac} Download via Hotfile Rapidshare Fileserve Megaupload & FileSonic, Various Artists - Les grands compositeurs et leurs oeuvres - XXe Siecle (2008) [3CD] {Fuzeau-Melomaniac} free torrent downloads included crack, serial, keygen.Various Artists - Les grands compositeurs et leurs oeuvres - XXe Siecle (2008) [3CD] {Fuzeau-Melomaniac} Fast Download via Rapidshare Hotfile Fileserve Filesonic Megaupload, Various Artists - Les grands compositeurs et leurs oeuvres - XXe Siecle (2008) [3CD] {Fuzeau-Melomaniac} Torrents and Emule Download or anything related.
Leave a Comment
Your Name:
E-Mail:
Add Comments:

Enter Code: