Yes - Big Generator (1987) [Atco AMCY-6324, Japan]

Download Now

Yes - Big Generator (1987) [Atco AMCY-6324, Japan]

Yes - Big Generator (1987)
EAC | Flac(Image) + Cue + Log & MP3 CBR 320Kbps
2002 | Atco AMCY-6324 | ~ 321 or 103 Mb | Scans(png) -> 121 Mb
Progressive Rock

"The four-years-in-the-making follow-up to Yes' comeback album, 90125, Big Generator was also a million-selling hit, although not as successful as its predecessor, probably because the singles "Love Will Find a Way" (number 30) and "Rhythm of Love" (number 40) couldn't match "Owner of a Lonely Heart" from the previous LP, even if they were favorites on AOR radio at the time. Actually, it was the title track that was a carbon copy of "Owner," so maybe that was the problem. More likely, though, "Owner" was a one-shot (courtesy of producer Trevor Horn), and as Yes asserted itself more here, the band reverted more to its old style, making for some confusion. Nevertheless, this album was Yes' last major hit.


by William Ruhlmann, AMG
"



Tracklist:

1. Rhythm Of Love (Kaye / Rabin / Anderson / Squire) (4:48)
2. Big Generator (Rabin / Kaye / Anderson / Squire / White) (4:34)
3. Shoot High Aim Low (White / Kaye / Rabin / Anderson / Squire) (7:03)
4. Almost Like Love (Kaye / Rabin / Anderson / Squire) (4:59)
5. Love Will Find A Way (Rabin) (4:50)
6. Final Eyes (Rabin / Kaye / Anderson / Squire) (6:26)
7. I'm Running (Rabin / Squire / Anderson / Kaye / White) (7:38)
8. Holy Lamb (Song For Harmonic Convergence) (Anderson) (3:21)

Musicians:

Jon Anderson: Vocals
Tony Kaye: Keyboard
Trevor Rabin: Guitar, Keyboards and Vocals
Chris Squire: Bass and Vocals
Alan White: Drums and Percussion


Exact Audio Copy V0.99 prebeta 4 from 23. January 2008

EAC extraction logfile from 24. June 2009, 22:10

Yes / Big Generator (2002 HDCD)

Used drive : HL-DT-STDVDRAM GSA-T20N Adapter: 1 ID: 0

Read mode : Secure
Utilize accurate stream : Yes
Defeat audio cache : Yes
Make use of C2 pointers : No

Read offset correction

: 667
Overread into Lead-In and Lead-Out : No
Fill up missing offset samples with silence : Yes
Delete leading and trailing silent blocks : No
Null samples used in CRC calculations : Yes
Used interface
: Native Win32 interface for Win NT & 2000
Gap handling
: Appended to previous track

Used output format : User Defined Encoder
Selected bitrate : 1024 kBit/s
Quality : High
Add ID3 tag : No
Command line compressor : C:\Program Files\FLAC\flac.exe
Additional command line options : -8 -V -T "ARTIST=%a" -T "TITLE=%t" -T "ALBUM=%g" -T "DATE=%y" -T "TRACKNUMBER=%n" -T "GENRE=%m" -T "COMMENT=EAC FLAC -8" %s

TOC of the extracted CD Track | Start | Length | Start sector | End sector
--1 | 0:00.00 | 4:48.00 | 0 | 21599 2 | 4:48.00 | 4:33.67 | 21600 | 42141 3 | 9:21.67 | 7:02.50 | 42142 | 73841 4 | 16:24.42 | 4:58.73 | 73842 | 96264 5 | 21:23.40 | 4:50.02 | 96265 | 118016 6 | 26:13.42 | 6:25.70 | 118017 | 146961 7 | 32:39.37 | 7:37.70 | 146962 | 181306 8 | 40:17.32 | 3:20.43 | 181307 | 196349

Track 1 Filename C:\Yes - Big Generator (2002, HDCD) [FLAC] {ATCO, AMCY-6324}\01 - Rhythm Of Love.wav Pre-gap length 0:00:02.00 Peak level 95.6 %
Track quality 100.0 %
Test CRC 0E636D14
Copy CRC 0E636D14
Track not present in AccurateRip database
Copy OK

Track 2 Filename C:\Yes - Big Generator (2002, HDCD) [FLAC] {ATCO, AMCY-6324}\02 - Big Generator.wav Pre-gap length 0:00:01.17 Peak level 95.6 %
Track quality 100.0 %
Test CRC 4D388586
Copy CRC 4D388586
Track not present in AccurateRip database
Copy OK

Track 3 Filename C:\Yes - Big Generator (2002, HDCD) [FLAC] {ATCO, AMCY-6324}\03 - Shoot High Aim Low.wav Pre-gap length 0:00:00.46 Peak level 95.6 %
Track quality 100.0 %
Test CRC 82956EDC
Copy CRC 82956EDC
Track not present in AccurateRip database
Copy OK

Track 4 Filename C:\Yes - Big Generator (2002, HDCD) [FLAC] {ATCO, AMCY-6324}\04 - Almost Like Love.wav Pre-gap length 0:00:01.00 Peak level 95.6 %
Track quality 100.0 %
Test CRC C1A17A76
Copy CRC C1A17A76
Track not present in AccurateRip database
Copy OK

Track 5 Filename C:\Yes - Big Generator (2002, HDCD) [FLAC] {ATCO, AMCY-6324}\05 - Love Will Find A Way.wav Pre-gap length 0:00:02.37 Peak level 95.6 %
Track quality 100.0 %
Test CRC 3CD737CE
Copy CRC 3CD737CE
Track not present in AccurateRip database
Copy OK

Track 6 Filename C:\Yes - Big Generator (2002, HDCD) [FLAC] {ATCO, AMCY-6324}\06 - Final Eyes.wav Peak level 95.6 %
Track quality 100.0 %
Test CRC 044628ED
Copy CRC 044628ED
Track not present in AccurateRip database
Copy OK

Track 7 Filename C:\Yes - Big Generator (2002, HDCD) [FLAC] {ATCO, AMCY-6324}\07 - I'm Running.wav Pre-gap length 0:00:00.66 Peak level 95.6 %
Track quality 99.9 %
Test CRC 3D8E5CAE
Copy CRC 3D8E5CAE
Track not present in AccurateRip database
Copy OK

Track 8 Filename C:\Yes - Big Generator (2002, HDCD) [FLAC] {ATCO, AMCY-6324}\08 - Holy Lamb (Song For Harmonic Convergence).wav Pre-gap length 0:00:01.93 Peak level 95.6 %
Track quality 99.9 %
Test CRC 0FE0E7A6
Copy CRC 0FE0E7A6
Track not present in AccurateRip database
Copy OK

None of the tracks are present in the AccurateRip database

No errors occurred

End of status report

foobar2000 1.2.9 / Dynamic Range Meter 1.1.1
log date: 2015-08-03 01:30:54

Analyzed: Yes / Big Generator (HDCD AMCY-6324)

DR Peak RMS Duration Track

DR6 -0.38 dB -8.60 dB 4:48 01-Rhythm Of Love
DR5 -0.38 dB -7.42 dB 4:34 02-Big Generator
DR5 -0.38 dB -8.03 dB 7:03 03-Shoot High Aim Low
DR4 -0.38 dB -6.66 dB 4:59 04-Almost Like Love
DR4 -0.38 dB -5.94 dB 4:50 05-Love Will Find A Way
DR4 -0.38 dB -6.93 dB 6:26 06-Final Eyes
DR5 -0.38 dB -7.32 dB 7:38 07-I'm Running
DR6 -0.38 dB -9.37 dB 3:21 08-Holy Lamb (Song For Harmonic Convergence)

Number of tracks: 8
Official DR value: DR5

Samplerate: 44100 Hz
Channels: 2
Bits per sample: 16
Bitrate: 1000 kbps
Codec: FLAC

[CUETools log; Date: 03.08.2015 1:27:56; Version: 2.1.4]
[AccurateRip ID: 000d5fc5-005a09da-750a3a08] found.
Track [ CRC | V2 ] Status
01 [89dc2dbe|7bcb9eb3] (08+08/18) Accurately ripped
02 [e4e7de52|0e94ed40] (09+08/19) Accurately ripped
03 [fc6489fa|6b176aa4] (09+08/19) Accurately ripped
04 [3254e33d|427b4125] (09+08/19) Accurately ripped
05 [c3002c36|26626d84] (08+08/18) Accurately ripped
06 [18b29e5a|a434ed0e] (09+08/17) Accurately ripped
07 [48f6bb27|e78124ec] (09+08/19) Accurately ripped
08 [681bc334|45950372] (08+08/18) Accurately ripped
Offsetted by -730:
01 [c500a74d] (02/18) Accurately ripped
02 [7a6bc006] (02/19) Accurately ripped
03 [70f009fe] (02/19) Accurately ripped
04 [4eb54431] (02/19) Accurately ripped
05 [24068b52] (02/18) Accurately ripped
06 [22e6b88b] (00/17) No match (V2 was not tested)
07 [9cc57abb] (02/19) Accurately ripped
08 [39eaf254] (02/18) Accurately ripped

Track Peak [ CRC32 ] [W/O NULL] [ LOG ]
-- 95,6 [335CA5E6] [4B744C2C]
01 95,6 [0E636D14] [46DBF60E] CRC32
02 95,6 [4D388586] [2769FF2D] CRC32
03 95,6 [82956EDC] [83D09E26] CRC32
04 95,6 [C1A17A76] [A1398EB4] CRC32
05 95,6 [3CD737CE] [CC14C238] CRC32
06 95,6 [044628ED] [C385B5D9] CRC32
07 95,6 [3D8E5CAE] [1CB16725] CRC32
08 95,6 [0FE0E7A6] [3FF9AA83] CRC32

Yes - Big Generator (1987) [Atco AMCY-6324, Japan]

DOWNLOAD LINKS
Buy Premium From My Links To Get Resumable Support & Max Speed & To Support Me


Links are Interchangeable - No Password - Single Extraction
Direct Download

Tags: Generator

Yes - Big Generator (1987) [Atco AMCY-6324, Japan] Download via Hotfile Rapidshare Fileserve Megaupload & FileSonic, Yes - Big Generator (1987) [Atco AMCY-6324, Japan] free torrent downloads included crack, serial, keygen.Yes - Big Generator (1987) [Atco AMCY-6324, Japan] Fast Download via Rapidshare Hotfile Fileserve Filesonic Megaupload, Yes - Big Generator (1987) [Atco AMCY-6324, Japan] Torrents and Emule Download or anything related.
Leave a Comment
Your Name:
E-Mail:
Add Comments:

Enter Code: