Stevie Ray Vaughan And Double Trouble - In Step (1989)

Download Now

Stevie Ray Vaughan And Double Trouble - In Step (1989)

Stevie Ray Vaughan And Double Trouble - In Step (1989)
EAC Rip | FLAC (Img) + Cue + Log ~ 293 Mb | MP3 CBR320 ~ 130 Mb
Scans Included (JPG, 400 dpi) | RAR 5% Recovery
Blues Rock, Electric Blues | Epic #EK 45024

"In Step is the fourth studio album by Stevie Ray Vaughan and Double Trouble released in 1989. The title In Step can be seen as referring to Vaughan's new-found sobriety, following the years of drug and alcohol use that eventually led Vaughan into rehabilitation. It was also Vaughan's final album with Double Trouble. In 1990, he recorded a collaboration album with his brother, Jimmie Vaughan, called Family Style; later that year, Stevie Ray Vaughan died in a helicopter crash..."

Official Website | Wiki | Discogs | All Music
***************

Stevie Ray Vaughan And Double Trouble - In Step (1989)

Track List:

01. The House Is Rockin' [02:25]
02. Crossfire [04:12]
03. Tightrope [04:42]
04. Let Me Love You Baby [02:45]
05. Leave My Girl Alone [04:17]
06. Travis Walk [02:21]
07. Wall Of Denial [05:37]
08. Scratch-N-Sniff [02:44]
09. Love Me Darlin' [03:22]
10. Riviera Paradise [08:52]

Exact Audio Copy V1.1 from 23. June 2015

EAC extraction logfile from 1. August 2015, 21:58

Stevie Ray Vaughan And Double Trouble / In Step

Used drive : MATSHITADVD+-RW SW830 Adapter: 1 ID: 0

Read mode : Burst

Read offset correction

: 6
Overread into Lead-In and Lead-Out : No
Fill up missing offset samples with silence : Yes
Delete leading and trailing silent blocks : No
Null samples used in CRC calculations : Yes
Used interface
: Native Win32 interface for Win NT & 2000

Used output format : User Defined Encoder
Selected bitrate : 768 kBit/s
Quality : High
Add ID3 tag : No
Command line compressor : C:\Program Files (x86)\Exact Audio Copy\FLAC\FLAC.EXE
Additional command line options : -6 -V -T "ARTIST=%artist%" -T "TITLE=%title%" -T "ALBUM=%albumtitle%" -T "DATE=%year%" -T "TRACKNUMBER=%tracknr%" -T "GENRE=%genre%" -T "COMMENT=%comment%" -T "BAND=%albuminterpret%" -T "ALBUMARTIST=%albuminterpret%" -T "COMPOSER=%composer%" %haslyrics%--tag-from-file=LYRICS="%lyricsfile%"%haslyrics% -T "DISCNUMBER=%cdnumber%" -T "TOTALDISCS=%totalcds%" -T "TOTALTRACKS=%numtracks%" %hascover%--picture="%coverfile%"%hascover% %source% -o %dest%

TOC of the extracted CD Track | Start | Length | Start sector | End sector
--1 | 0:00.00 | 2:24.57 | 0 | 10856 2 | 2:24.57 | 4:11.15 | 10857 | 29696 3 | 6:35.72 | 4:41.08 | 29697 | 50779 4 | 11:17.05 | 2:44.02 | 50780 | 63081 5 | 14:01.07 | 4:16.18 | 63082 | 82299 6 | 18:17.25 | 2:20.37 | 82300 | 92836 7 | 20:37.62 | 5:37.00 | 92837 | 118111 8 | 26:14.62 | 2:43.28 | 118112 | 130364 9 | 28:58.15 | 3:21.35 | 130365 | 145474
10 | 32:19.50 | 8:51.25 | 145475 | 185324

Range status and errors

Selected range Filename C:\Users\Boris\Desktop\vaugStep\Stevie Ray Vaughan And Double Trouble - In Step.wav Peak level 100.0 %
Extraction speed 22.5 X
Test CRC 0C6DD1D3
Copy CRC 0C6DD1D3
Copy OK

No errors occurred


AccurateRip summary

Track 1 accurately ripped (confidence 10) [98DA8957] (AR v2)
Track 2 accurately ripped (confidence 10) [40109A7A] (AR v2)
Track 3 accurately ripped (confidence 9) [C6CE6857] (AR v2)
Track 4 accurately ripped (confidence 10) [8A6716B2] (AR v2)
Track 5 accurately ripped (confidence 9) [0A5CD11C] (AR v2)
Track 6 accurately ripped (confidence 9) [D1C53EBC] (AR v2)
Track 7 accurately ripped (confidence 9) [76F475DC] (AR v2)
Track 8 accurately ripped (confidence 9) [9AD65693] (AR v2)
Track 9 accurately ripped (confidence 9) [0514D10C] (AR v2)
Track 10 accurately ripped (confidence 9) [1AA9D1C0] (AR v2)

All tracks accurately ripped

End of status report

- CUETools DB Plugin V2.1.6

[CTDB TOCID: lw9jhu8yh8ooJV94XUOZqT7pjTg-] found
Submit result: lw9jhu8yh8ooJV94XUOZqT7pjTg- has been confirmed
Track | CTDB Status
1 | ( 5/142) Accurately ripped
2 | ( 5/142) Accurately ripped
3 | ( 5/142) Accurately ripped
4 | ( 5/142) Accurately ripped
5 | ( 5/142) Accurately ripped
6 | ( 5/142) Accurately ripped
7 | ( 4/142) Accurately ripped
8 | ( 5/142) Accurately ripped
9 | ( 5/142) Accurately ripped
10 | ( 5/142) Accurately ripped

==== Log checksum 7370E600E295F80C0D3B6225A15DC0B3B1C0298AED908EC77294B94FF2B72984 ====

foobar2000 1.2.6 / Dynamic Range Meter 1.1.1
log date: 2015-08-03 14:20:50

Analyzed: Stevie Ray Vaughan And Double Trouble / In Step

DR Peak RMS Duration Track

DR13 -0.37 dB -15.59 dB 2:25 01-The House Is Rockin'
DR15 -0.38 dB -17.01 dB 4:11 02-Crossfire
DR16 -0.25 dB -18.10 dB 4:41 03-Tightrope
DR15 -1.61 dB -17.56 dB 2:44 04-Let Me Love You Baby
DR16 -0.06 dB -17.61 dB 4:16 05-Leave My Girl Alone
DR15 -0.07 dB -16.67 dB 2:20 06-Travis Walk
DR16 0.00 dB -16.92 dB 5:37 07-Wall Of Denial
DR14 0.00 dB -15.79 dB 2:43 08-Scratch-N-Sniff
DR14 -1.16 dB -17.11 dB 3:21 09-Love Me Darlin'
DR17 -1.06 dB -21.06 dB 8:51 10-Riviera Paradise

Number of tracks: 10
Official DR value: DR15

Samplerate: 44100 Hz
Channels: 2
Bits per sample: 16
Bitrate: 848 kbps
Codec: FLAC

[CUETools log; Date: 03.08.2015 15:01:24; Version: 2.1.5]
[CTDB TOCID: lw9jhu8yh8ooJV94XUOZqT7pjTg-] found.
Track | CTDB Status
1 | ( 6/143) Accurately ripped
2 | ( 6/143) Accurately ripped
3 | ( 6/143) Accurately ripped
4 | ( 6/143) Accurately ripped
5 | ( 6/143) Accurately ripped
6 | ( 6/143) Accurately ripped
7 | ( 5/143) Accurately ripped
8 | ( 6/143) Accurately ripped
9 | ( 6/143) Accurately ripped
10 | ( 6/143) Accurately ripped
[AccurateRip ID: 000dde1e-0070adb5-9509a70a] found.
Track [ CRC | V2 ] Status
01 [d146203a|98da8957] (017+010/454) Accurately ripped
02 [5c7c16d4|40109a7a] (017+010/449) Accurately ripped
03 [0290eff0|c6ce6857] (017+009/449) Accurately ripped
04 [fdf2c055|8a6716b2] (017+010/450) Accurately ripped
05 [c48c940b|0a5cd11c] (017+009/447) Accurately ripped
06 [4f6356ee|d1c53ebc] (017+009/455) Accurately ripped
07 [48525f25|76f475dc] (017+009/450) Accurately ripped
08 [cb6097eb|9ad65693] (016+009/451) Accurately ripped
09 [80db8749|0514d10c] (016+009/451) Accurately ripped
10 [7bf8f378|1aa9d1c0] (016+009/441) Accurately ripped

Track Peak [ CRC32 ] [W/O NULL] [ LOG ]
-- 100,0 [0C6DD1D3] [32E7F658] CRC32
01 95,8 [23D5ECDA] [D36E8081]
02 95,7 [1D2ECADA] [93254F99]
03 97,1 [5AFF740B] [C3D40089]
04 83,0 [DE9B0A1C] [E53E7FDA]
05 99,3 [563FD438] [558DC2A9]
06 99,1 [3A7A85BB] [F4448295]
07 100,0 [021C61D9] [50DC77A7]
08 100,0 C2CD980 [83151F24]
09 87,5 [23413103] [F5CF5458]
10 88,4 [68D60646] [C2BDFF47]

Stevie Ray Vaughan And Double Trouble - In Step (1989)


DOWNLOAD LINKS
Buy Premium From My Links To Get Resumable Support & Max Speed & To Support Me


Links are Interchangeable - No Password - Single Extraction
Direct Download

Tags: Stevie, Vaughan, Double, Trouble

Stevie Ray Vaughan And Double Trouble - In Step (1989) Download via Hotfile Rapidshare Fileserve Megaupload & FileSonic, Stevie Ray Vaughan And Double Trouble - In Step (1989) free torrent downloads included crack, serial, keygen.Stevie Ray Vaughan And Double Trouble - In Step (1989) Fast Download via Rapidshare Hotfile Fileserve Filesonic Megaupload, Stevie Ray Vaughan And Double Trouble - In Step (1989) Torrents and Emule Download or anything related.
Leave a Comment
Your Name:
E-Mail:
Add Comments:

Enter Code: