The Who - Quadrophenia (1973) [2013, Japan, UICY-20421/2]

Download Now

The Who - Quadrophenia (1973) [2013, Japan, UICY-20421/2]

The Who - Quadrophenia (1973/2013)
2CD | EAC Rip | FLAC (Img) + Cue + Log ~ 563 Mb | MP3 CBR320 ~ 196 Mb
Scans (JPG, 600 dpi) ~ 173 Mb | RAR 5% Recovery
Rock | Polydor/Universal Music #UICY-20421/2

"Quadrophenia is the sixth studio album by English rock band The Who, released on 26 October 1973 by Track Records. It is a double album and the group's second rock opera. The story follows a young mod named Jimmy and his search for self-worth and importance, set in London and Brighton in 1965. It is the only Who album to be entirely composed by group leader Pete Townshend..."

Official Website | Wiki | Discogs | All Music
***************

The Who - Quadrophenia (1973) [2013, Japan, UICY-20421/2]

Track List CD1:

01. I Am the Sea [02:09]
02. The Real Me [03:21]
03. Quadrophenia [06:14]
04. Cut My Hair [03:45]
05. The Punk and the Godfather [05:11]
06. I'm One [02:38]
07. The Dirty Jobs [04:30]
08. Helpless Dancer [02:34]
09. Is It in My Head? [03:44]
10. I've Had Enough [06:15]

Exact Audio Copy V1.0 beta 1 from 15. November 2010

EAC extraction logfile from 31. July 2015, 11:05

The Who / Quadrophenia (Disc One)

Used drive : MATSHITADVD-RAM UJ8A0AS Adapter: 0 ID: 1

Read mode : Secure
Utilize accurate stream : Yes
Defeat audio cache : Yes
Make use of C2 pointers : No

Read offset correction

: 102
Overread into Lead-In and Lead-Out : No
Fill up missing offset samples with silence : Yes
Delete leading and trailing silent blocks : No
Null samples used in CRC calculations : Yes
Used interface
: Native Win32 interface for Win NT & 2000

Used output format : Internal WAV Routines
Sample format : 44.100 Hz; 16 Bit; Stereo

TOC of the extracted CD Track | Start | Length | Start sector | End sector
--1 | 0:00.00 | 2:08.70 | 0 | 9669 2 | 2:08.70 | 3:20.48 | 9670 | 24717 3 | 5:29.43 | 6:13.12 | 24718 | 52704 4 | 11:42.55 | 3:44.68 | 52705 | 69572 5 | 15:27.48 | 5:10.52 | 69573 | 92874 6 | 20:38.25 | 2:37.50 | 92875 | 104699 7 | 23:16.00 | 4:29.03 | 104700 | 124877 8 | 27:45.03 | 2:33.40 | 124878 | 136392 9 | 30:18.43 | 3:43.32 | 136393 | 153149
10 | 34:02.00 | 6:14.18 | 153150 | 181217

Range status and errors

Selected range Filename C:\Users\Alex\Music\The Who - Quadrophenia (Disc One).wav Peak level 99.4 %
Extraction speed 0.1 X
Range quality 100.0 %
Test CRC 9D7D4F5E
Copy CRC 9D7D4F5E
Copy OK

No errors occurred


AccurateRip summary

Track 1 accurately ripped (confidence 55) [FF9C4453]
Track 2 accurately ripped (confidence 55) [A33419F6]
Track 3 accurately ripped (confidence 55) [6607B29F]
Track 4 accurately ripped (confidence 55) [60367769]
Track 5 accurately ripped (confidence 54) [89273E6C]
Track 6 accurately ripped (confidence 55) [E2D04DC5]
Track 7 accurately ripped (confidence 55) [DE3E2E4D]
Track 8 accurately ripped (confidence 55) [F5BCE13A]
Track 9 accurately ripped (confidence 55) [D9495C00]
Track 10 accurately ripped (confidence 54) [3EC38CA7]

All tracks accurately ripped

End of status report

==== Log checksum 1F87E64D6E954C9C1B90BB1E36D5BC07DD0C2F3383833430E1B46CDCAB225608 ====

foobar2000 1.2.6 / Dynamic Range Meter 1.1.1
log date: 2015-08-03 14:02:32

Analyzed: The Who / Quadrophenia (Disc One)

DR Peak RMS Duration Track

DR13 -3.07 dB -23.45 dB 2:09 01-I Am the Sea
DR6 -0.47 dB -8.22 dB 3:21 02-The Real Me
DR8 -0.05 dB -10.85 dB 6:13 03-Quadrophenia
DR8 -0.35 dB -11.71 dB 3:45 04-Cut My Hair
DR9 -0.35 dB -11.59 dB 5:11 05-The Punk and the Godfather
DR9 -0.35 dB -11.75 dB 2:38 06-I'm One
DR8 -0.35 dB -9.99 dB 4:29 07-The Dirty Jobs
DR10 -0.35 dB -14.50 dB 2:34 08-Helpless Dancer
DR8 -0.35 dB -11.01 dB 3:43 09-Is It in My Head?
DR9 -0.35 dB -11.51 dB 6:14 10-I've Had Enough

Number of tracks: 10
Official DR value: DR9

Samplerate: 44100 Hz
Channels: 2
Bits per sample: 16
Bitrate: 904 kbps
Codec: FLAC

[CUETools log; Date: 03.08.2015 14:02:30; Version: 2.1.5]
[CTDB TOCID: _Y7GohBxixCjDzGGmovdudnD8r8-] found.
Track | CTDB Status
1 | (149/151) Accurately ripped
2 | (149/151) Accurately ripped
3 | (150/151) Accurately ripped
4 | (149/151) Accurately ripped
5 | (145/151) Accurately ripped
6 | (149/151) Accurately ripped
7 | (148/151) Accurately ripped
8 | (149/151) Accurately ripped
9 | (146/151) Accurately ripped, or (3/151) differs in 12 samples @00:15:19
10 | (149/151) Accurately ripped
[AccurateRip ID: 000e7e78-007565dd-7109700a] found.
Track [ CRC | V2 ] Status
01 [ff9c4453|b02b887b] (020+055/402) Accurately ripped
02 [a33419f6|0864ea84] (020+055/403) Accurately ripped
03 [6607b29f|4e9d92b5] (020+055/403) Accurately ripped
04 [60367769|947539ac] (020+055/399) Accurately ripped
05 [89273e6c|6a5b9655] (020+054/401) Accurately ripped
06 [e2d04dc5|d1a62534] (020+055/402) Accurately ripped
07 [de3e2e4d|d3863096] (019+055/403) Accurately ripped
08 [f5bce13a|32559115] (020+055/403) Accurately ripped
09 [d9495c00|bb593e28] (020+055/403) Accurately ripped
10 [3ec38ca7|f5dd54a0] (019+054/395) Accurately ripped
Offsetted by 509:
01 [3bb1fb2c] (008/402) Accurately ripped
02 [30472f90] (008/403) Accurately ripped
03 [f4e7f2df] (008/403) Accurately ripped
04 [4f1c3390] (008/399) Accurately ripped
05 [dc9a8e3a] (008/401) Accurately ripped
06 [f4ba9848] (008/402) Accurately ripped
07 [c80043f4] (008/403) Accurately ripped
08 [4ba499e5] (008/403) Accurately ripped
09 [1c0aee4a] (008/403) Accurately ripped
10 [08aa75d4] (008/395) Accurately ripped
Offsetted by 649:
01 [291bc00e] (035/402) Accurately ripped
02 [866aa42c] (035/403) Accurately ripped
03 [85103d36] (035/403) Accurately ripped
04 [100d5c47] (035/399) Accurately ripped
05 [28d16c58] (035/401) Accurately ripped
06 [d4d1223a] (035/402) Accurately ripped
07 a2c9805 (035/403) Accurately ripped
08 [1604c4ff] (035/403) Accurately ripped
09 [e89e9b7a] (035/403) Accurately ripped
10 [3160bc42] (034/395) Accurately ripped
Offsetted by 667:
01 [12cada90] (032/402) Accurately ripped
02 [7bad58dd] (032/403) Accurately ripped
03 [e68794f7] (032/403) Accurately ripped
04 [c85ba4d9] (031/399) Accurately ripped
05 [cab27a5d] (032/401) Accurately ripped
06 [d4eca577] (032/402) Accurately ripped
07 [f0ac52f4] (032/403) Accurately ripped
08 [1f5f1aca] (032/403) Accurately ripped
09 [a5538c2c] (032/403) Accurately ripped
10 [57e08c66] (032/395) Accurately ripped
Offsetted by 1321:
01 [c83dae73] (101/402) Accurately ripped
02 [0cf2c0fb] (102/403) Accurately ripped
03 [999442e0] (102/403) Accurately ripped
04 [2412008e] (101/399) Accurately ripped
05 [0ab9662f] (102/401) Accurately ripped
06 [ce52d8a1] (101/402) Accurately ripped
07 [4382df19] (103/403) Accurately ripped
08 [f3304fb6] (103/403) Accurately ripped
09 [f151950b] (102/403) Accurately ripped
10 [382f867d] (099/395) Accurately ripped
Offsetted by 142:
01 [268f6f57] (000/402) No match (V2 was not tested)
02 [55ddd294] (000/403) No match (V2 was not tested)
03 [eb62db66] (000/403) No match (V2 was not tested)
04 [4cbf4231] (000/399) No match (V2 was not tested)
05 [10169b86] (000/401) No match (V2 was not tested)
06 [14bf511c] (000/402) No match (V2 was not tested)
07 [24e36aaa] (000/403) No match (V2 was not tested)
08 [c1e1bd7f] (000/403) No match (V2 was not tested)
09 9628b90 (000/403) No match (V2 was not tested)
10 [d0c303ee] (000/395) No match (V2 was not tested)
Offsetted by 473:
01 [15a15275] (000/402) No match
02 [9b1a4965] (000/403) No match
03 06cad3c (000/403) No match
04 [d88b79c4] (000/399) No match (V2 was not tested)
05 [caf93fe3] (000/401) No match
06 8d0508f (000/402) No match (V2 was not tested)
07 [630795ac] (000/403) No match
08 [c0a3da7a] (000/403) No match
09 [d50e4d8a] (000/403) No match
10 [6cbba3d4] (000/395) No match
Offsetted by 475:
01 [c2fa6195] (000/402) No match
02 [9433ef0d] (000/403) No match (V2 was not tested)
03 [251b4100] (002/403) Accurately ripped
04 [aa39bee2] (000/399) No match
05 [e7371d50] (000/401) No match
06 7a643b8 (000/402) No match
07 [f2fd95c4] (000/403) No match
08 [6e689221] (000/403) No match
09 [4e11336b] (000/403) No match
10 [ff244652] (000/395) No match
Offsetted by 476:
01 [afca40a4] (000/402) No match
02 [f4e31ba1] (000/403) No match
03 [53db733d] (000/403) No match
04 fb30b3c (000/399) No match
05 [1f44ca41] (000/401) No match
06 [9de4185c] (000/402) No match
07 [581b4d26] (000/403) No match (V2 was not tested)
08 [f291d377] (000/403) No match
09 [1b92e9d1] (000/403) No match
10 [450a145e] (000/395) No match
Offsetted by 477:
01 d31a82d (000/402) No match
02 [6ad03e35] (000/403) No match
03 [c2afa825] (000/403) No match
04 [24944f30] (000/399) No match
05 [f3481e46] (000/401) No match (V2 was not tested)
06 [326b803b] (000/402) No match
07 [f577557b] (000/403) No match
08 [ab06f1a1] (000/403) No match
09 [181fe681] (000/403) No match (V2 was not tested)
10 [51f2e04f] (002/395) Accurately ripped
Offsetted by 479:
01 cf6cfec (002/402) Accurately ripped
02 [32f9a784] (000/403) No match
03 [04f814e9] (000/403) No match
04 [f9ea3438] (000/399) No match
05 [da20fba3] (000/401) No match
06 [630da3e2] (000/402) No match
07 [0d78d3ce] (000/403) No match
08 [5b2d8bae] (000/403) No match (V2 was not tested)
09 [973bdb7a] (000/403) No match
10 [9bde71d2] (000/395) No match
Offsetted by 1327:
01 [2eed7e70] (000/402) No match
02 [d5c65215] (000/403) No match
03 [f0f48162] (000/403) No match
04 [16368bd4] (000/399) No match
05 [8e7679d1] (000/401) No match
06 [d99e2ffc] (000/402) No match
07 [cb47dcd7] (000/403) No match
08 [f4307624] (000/403) No match
09 [2f866ec6] (000/403) No match
10 [0eb59864] (000/395) No match (V2 was not tested)

Track Peak [ CRC32 ] [W/O NULL] [ LOG ]
-- 99,4 [9D7D4F5E] [7C4D75E1] CRC32
01 70,2 [A316BBF8] [998F0CD1]
02 94,7 [DBC4E9DF] [9AAF4D04]
03 99,4 [E2307EA1] [72F4AEB1]
04 96,0 [41209BC3] [1E4FB9C6]
05 96,0 [8C455A3A] [5C1798D9]
06 96,0 [DAEDCD6F] [2454A30E]
07 96,0 [EC57A2BE] [FF371661]
08 96,0 [D2D3DC6C] [36728544]
09 96,0 [F6009D1F] [23ED17F1]
10 96,0 [F74B9846] [2788C5B3]

The Who - Quadrophenia (1973) [2013, Japan, UICY-20421/2]

Track List CD2:

01. 5:15 [05:00]
02. Sea and Sand [05:02]
03. Drowned [05:27]
04. Bell Boy [04:56]
05. Doctor Jimmy [08:37]
06. The Rock [06:38]
07. Love Reign O'er Me [05:49]

Exact Audio Copy V1.0 beta 1 from 15. November 2010

EAC extraction logfile from 31. July 2015, 12:32

The Who / Quadrophenia (Disc Two)

Used drive : MATSHITADVD-RAM UJ8A0AS Adapter: 0 ID: 1

Read mode : Secure
Utilize accurate stream : Yes
Defeat audio cache : Yes
Make use of C2 pointers : No

Read offset correction

: 102
Overread into Lead-In and Lead-Out : No
Fill up missing offset samples with silence : Yes
Delete leading and trailing silent blocks : No
Null samples used in CRC calculations : Yes
Used interface
: Native Win32 interface for Win NT & 2000

Used output format : Internal WAV Routines
Sample format : 44.100 Hz; 16 Bit; Stereo

TOC of the extracted CD Track | Start | Length | Start sector | End sector
--1 | 0:00.00 | 4:59.73 | 0 | 22497 2 | 4:59.73 | 5:01.17 | 22498 | 45089 3 | 10:01.15 | 5:26.73 | 45090 | 69612 4 | 15:28.13 | 4:55.22 | 69613 | 91759 5 | 20:23.35 | 8:36.05 | 91760 | 130464 6 | 28:59.40 | 6:37.15 | 130465 | 160254 7 | 35:36.55 | 5:48.10 | 160255 | 186364

Range status and errors

Selected range Filename C:\Users\Alex\Music\The Who - Quadrophenia (Disc Two).wav Peak level 100.0 %
Extraction speed 0.1 X
Range quality 100.0 %
Test CRC BAF9DB91
Copy CRC BAF9DB91
Copy OK

No errors occurred


AccurateRip summary

Track 1 accurately ripped (confidence 52) [9BBD2CFA]
Track 2 accurately ripped (confidence 53) [DED1D055]
Track 3 accurately ripped (confidence 53) [E91B52E3]
Track 4 accurately ripped (confidence 54) [794B6183]
Track 5 accurately ripped (confidence 53) [5870D69A]
Track 6 accurately ripped (confidence 54) [30D59665]
Track 7 accurately ripped (confidence 54) [4AC58010]

All tracks accurately ripped

End of status report

==== Log checksum 767AF7CE3D86059AE6297EC0CC3368B6A924EB005A87A54599B05C1973ABE4D1 ====

foobar2000 1.2.6 / Dynamic Range Meter 1.1.1
log date: 2015-08-03 14:04:44

Analyzed: The Who / Quadrophenia (Disc Two)

DR Peak RMS Duration Track

DR7 -0.35 dB -9.30 dB 5:00 01-5:15
DR9 0.00 dB -11.69 dB 5:01 02-Sea and Sand
DR9 -0.35 dB -11.27 dB 5:27 03-Drowned
DR9 -0.35 dB -11.37 dB 4:55 04-Bell Boy
DR10 -0.35 dB -11.98 dB 8:36 05-Doctor Jimmy
DR10 0.00 dB -12.13 dB 6:37 06-The Rock
DR8 -0.35 dB -11.21 dB 5:48 07-Love Reign O'er Me

Number of tracks: 7
Official DR value: DR9

Samplerate: 44100 Hz
Channels: 2
Bits per sample: 16
Bitrate: 930 kbps
Codec: FLAC

[CUETools log; Date: 03.08.2015 14:04:42; Version: 2.1.5]
[CTDB TOCID: Uww9bRqBfQCJRpVILXy.15.fb1c-] found.
Track | CTDB Status
1 | (143/146) Accurately ripped
2 | (143/146) Accurately ripped
3 | (141/146) Accurately ripped, or (3/146) differs in 24 samples @01:31:09,03:54:65
4 | (144/146) Accurately ripped
5 | (143/146) Accurately ripped
6 | (146/146) Accurately ripped
7 | (145/146) Accurately ripped
[AccurateRip ID: 000ac5fe-0041cfb6-4009b407] found.
Track [ CRC | V2 ] Status
01 [9bbd2cfa|fba2c28a] (020+052/407) Accurately ripped
02 [ded1d055|f9bd343f] (020+053/411) Accurately ripped
03 [e91b52e3|6be7845c] (020+053/411) Accurately ripped
04 [794b6183|296fdb51] (020+054/411) Accurately ripped
05 [5870d69a|57556faa] (020+053/409) Accurately ripped
06 [30d59665|380c2769] (019+054/409) Accurately ripped
07 [4ac58010|e6052c09] (018+054/410) Accurately ripped
Offsetted by 112:
01 [2a7305f9] (006/407) Accurately ripped
02 [31821bd4] (006/411) Accurately ripped
03 [87a4f7dc] (006/411) Accurately ripped
04 [e324a8be] (006/411) Accurately ripped
05 [0f319311] (006/409) Accurately ripped
06 [df2eebce] (006/409) Accurately ripped
07 [5d8b7c83] (006/410) Accurately ripped
Offsetted by 343:
01 [48362a17] (003/407) Accurately ripped
02 [194a867c] (003/411) Accurately ripped
03 [8216e581] (003/411) Accurately ripped
04 0e43375 (003/411) Accurately ripped
05 [9c7d5e58] (003/409) Accurately ripped
06 67b4ca9 (003/409) Accurately ripped
07 [49794aa3] (003/410) Accurately ripped
Offsetted by 642:
01 [e7b5d3d3] (036/407) Accurately ripped
02 [52188bed] (036/411) Accurately ripped
03 [55875585] (036/411) Accurately ripped
04 [825a187e] (036/411) Accurately ripped
05 [0ef36ae0] (036/409) Accurately ripped
06 [fe5d8e3f] (035/409) Accurately ripped
07 [23be82ef] (036/410) Accurately ripped
Offsetted by 649:
01 [8ce7e2e2] (033/407) Accurately ripped
02 [ab7b4417] (033/411) Accurately ripped
03 [32c24935] (033/411) Accurately ripped
04 [1ceb3462] (033/411) Accurately ripped
05 [dbfd5f7d] (033/409) Accurately ripped
06 [6d159b91] (033/409) Accurately ripped
07 [e577e13e] (033/410) Accurately ripped
Offsetted by 667:
01 [39803553] (036/407) Accurately ripped
02 [73085a62] (036/411) Accurately ripped
03 [fc99d2ae] (036/411) Accurately ripped
04 [cffd15b2] (036/411) Accurately ripped
05 [79432b18] (036/409) Accurately ripped
06 [d560a1e8] (036/409) Accurately ripped
07 [83214f31] (036/410) Accurately ripped
Offsetted by 1321:
01 [18862852] (063/407) Accurately ripped
02 [3393e82f] (065/411) Accurately ripped
03 [ab272380] (066/411) Accurately ripped
04 [f2cd3bb0] (065/411) Accurately ripped
05 [51c64058] (063/409) Accurately ripped
06 [adb90ce0] (065/409) Accurately ripped
07 [f9516923] (065/410) Accurately ripped
Offsetted by -1082:
01 [efc2c88a] (002/407) Accurately ripped
02 [4adef4d9] (002/411) Accurately ripped
03 [f54f00fe] (002/411) Accurately ripped
04 [f10c911e] (002/411) Accurately ripped
05 [242a426b] (000/409) No match (V2 was not tested)
06 [acc34a21] (002/409) Accurately ripped
07 [5e78147d] (002/410) Accurately ripped
Offsetted by 473:
01 2259fc5 (002/407) Accurately ripped
02 [a611107f] (002/411) Accurately ripped
03 [1428148b] (002/411) Accurately ripped
04 [49dd2f94] (000/411) No match
05 [eb162fa5] (000/409) No match
06 [192492a7] (000/409) No match
07 [fb32c3ed] (000/410) No match
Offsetted by 475:
01 [50c8cef1] (000/407) No match
02 [d63646e2] (000/411) No match
03 750b009 (000/411) No match
04 [cd519856] (000/411) No match
05 [a3d1c51b] (000/409) No match
06 [8a669208] (000/409) No match
07 [5c9ce7db] (000/410) No match (V2 was not tested)
Offsetted by 477:
01 [ca80fe1a] (000/407) No match
02 [a1f3e34b] (000/411) No match
03 [4cf57a4a] (000/411) No match
04 [226b9631] (000/411) No match (V2 was not tested)
05 [749528c1] (002/409) Accurately ripped
06 [a79f9e23] (002/409) Accurately ripped
07 [c63f0fc4] (000/410) No match

Track Peak [ CRC32 ] [W/O NULL] [ LOG ]
-- 100,0 AF9DB91 [A1E9C5EA] CRC32
01 96,0 [4684D515] [F972474E]
02 100,0 [6F2AEB0E] [E8D5E6C2]
03 96,0 [2B4F5712] [A542C74B]
04 96,0 B851A6A [F1023A80]
05 96,0 [8442DED7] [4AE698A1]
06 99,9 [DD01F3D8] [458BF4A3]
07 96,0 [4BA16C6B] [CDBAF3DC]

The Who - Quadrophenia (1973) [2013, Japan, UICY-20421/2]


DOWNLOAD:
Buy Premium To Support Me & Get Resumable Support & Max Speed


Links are Interchangeable - No Password
Direct Download

Tags: Quadrophenia

The Who - Quadrophenia (1973) [2013, Japan, UICY-20421/2] Download via Hotfile Rapidshare Fileserve Megaupload & FileSonic, The Who - Quadrophenia (1973) [2013, Japan, UICY-20421/2] free torrent downloads included crack, serial, keygen.The Who - Quadrophenia (1973) [2013, Japan, UICY-20421/2] Fast Download via Rapidshare Hotfile Fileserve Filesonic Megaupload, The Who - Quadrophenia (1973) [2013, Japan, UICY-20421/2] Torrents and Emule Download or anything related.
Leave a Comment
Your Name:
E-Mail:
Add Comments:

Enter Code: