Hugh Hopper - Hopper Tunity Box (1976) [Reissue 2007]

Download Now

Hugh Hopper - Hopper Tunity Box (1976) [Reissue 2007]

Hugh Hopper - Hopper Tunity Box (1976) [Reissue 2007]
EAC Rip | APE (image & cue & log) | 288 MB | MP3 CBR 320 kbps | 133 MB | Scans | 41:09
Genre: Progressive Rock / Canterbury / Jazz Rock | Country: UK | Label: Cuneiform Records | Rune 240

"This was Hugh Hopper's second solo album but the first he released after leaving SOFT MACHINE. Hugh hooked up with recording engineer Mike Dunne who had been the assistant engineer on his first record ("1984"). Mike was now in charge of the mobile studio of Jon Anderson of YES. Mike suggested that he could provide the studio while Hugh would provide the music and musicians. Hugh notes: "By the time I had arranged the music into some sort of coherent order and invited the various guest musicians, Mike's studio was set up in one of London's big film sound studios, where YES rehearsed for tours. Jon Anderson occasionally popped his head around the door when we were beavering away at some tricky tape-looping or double-speeded bass, and Steve Howe looked in once, I seem to remember. I knew them slightly anyway, from SOFT MACHINE tours when the two bands came together at festivals"."



Tracklist:

1. Hopper Tunity Box (3:35)
2. Miniluv (3:35)
3. Gnat Prong (7:58)
4. The Lonely Sea And The Sky (6:39)
5. Crumble (3:54)
6. Lonely Woman (3:22)
7. Mobile Mobile (5:04)
8. Spanish Knee (3:51)
9. Oyster Perpetual (3:11)

Exact Audio Copy V0.99 prebeta 4 from 23. January 2008
EAC extraction logfile from 18. June 2009, 10:42
Hugh Hopper / Hopper Tunity Box
Used drive : Optiarc DVD RW AD-7170S Adapter: 2 ID: 0
Read mode : Secure
Utilize accurate stream : Yes
Defeat audio cache : Yes
Make use of C2 pointers : No
Read offset correction : 48
Overread into Lead-In and Lead-Out : No
Fill up missing offset samples with silence : Yes
Delete leading and trailing silent blocks : No
Null samples used in CRC calculations : Yes
Used interface : Installed external ASPI interface
Used output format : Internal WAV Routines
Sample format : 44.100 Hz; 16 Bit; Stereo
TOC of the extracted CD
Track | Start | Length | Start sector | End sector
--
1 | 0:00.00 | 3:35.35 | 0 | 16159
2 | 3:35.35 | 3:34.72 | 16160 | 32281
3 | 7:10.32 | 7:58.11 | 32282 | 68142
4 | 15:08.43 | 6:39.00 | 68143 | 98067
5 | 21:47.43 | 3:54.35 | 98068 | 115652
6 | 25:42.03 | 3:22.20 | 115653 | 130822
7 | 29:04.23 | 5:03.55 | 130823 | 153602
8 | 34:08.03 | 3:50.47 | 153603 | 170899
9 | 37:58.50 | 3:10.56 | 170900 | 185205
Range status and errors
Selected range
Filename F:\Hugh Hopper - Hopper Tunity Box.wav
Peak level 100.0 %
Range quality 100.0 %
Copy CRC C52B8CA7
Copy OK
No errors occurred
End of status report

Personnel

Hugh Hopper - bass, percussion, guitar, saxophone (Soprano)
Nigel Morris - drums
Frank Roberts - piano
Mike Travis - drums
Richard Brunton - guitar
Gary Windo - clarinet (bass), saxophone
Marc Charig - cornet, horn (Tenor)
Elton Dean - saxophone, saxophone (Alto)
Dave Stewart - organ, pianet, oscillators

All thanks to original releaser

Hugh Hopper - Hopper Tunity Box (1976) [Reissue 2007]

Hugh Hopper - Hopper Tunity Box (1976) [Reissue 2007]


DOWNLOAD LINKS
Buy Premium From My Links To Get Resumable Support & Max Speed & To Support Me


Links are Interchangeable - No Password - Single Extraction
Direct Download

Tags: Hopper, Hopper, Tunity, Reissue

Hugh Hopper - Hopper Tunity Box (1976) [Reissue 2007] Download via Hotfile Rapidshare Fileserve Megaupload & FileSonic, Hugh Hopper - Hopper Tunity Box (1976) [Reissue 2007] free torrent downloads included crack, serial, keygen.Hugh Hopper - Hopper Tunity Box (1976) [Reissue 2007] Fast Download via Rapidshare Hotfile Fileserve Filesonic Megaupload, Hugh Hopper - Hopper Tunity Box (1976) [Reissue 2007] Torrents and Emule Download or anything related.
Leave a Comment
Your Name:
E-Mail:
Add Comments:

Enter Code: