Louis Armstrong - The Complete RCA Victor Recordings (2001) [4CD] {Bluebird-BMG}

Download Now


Louis Armstrong - The Complete RCA Victor Recordings (2001) [4CD] {Bluebird-BMG}
Louis Armstrong - The Complete RCA Victor Recordings (2001) [4CD] {Bluebird-BMG}
EAC rip (secure mode) | FLAC (tracks)+CUE+LOG -> 1.08 Gb | MP3 @320 -> 574 Mb
Full Artwork @ 300 dpi (png) -> 150 Mb | 5% repair rar
© 2001 Bluebird / BMG | 09026-63846-2
Jazz / Early Jazz / Mainstream Jazz / New Orleans Jazz / Swing / Trumpet

"Most of the music on this four-CD set from 1997 has been reissued many times, both on LP and CD, but this is the most "complete" set thus far. Louis Armstrong recorded for RCA during two separate times. During 1932-1933, he led an erratic (and under-rehearsed) big band on a series of numbers, but all of the selections have their moments of interest. Although not up to the level of his Hot Five and Seven recordings of five years earlier, these spirited tracks find Armstrong mostly in excellent form both instrumentally and vocally, and the reissue has four alternate takes never released before."

Louis Armstrong - The Complete RCA Victor Recordings (2001) [4CD] {Bluebird-BMG}

"Highlights include the two-part "Hits Medley," "That's My Home," "I've Got the World on a String," "There's a Cabin in the Pines," "Hustlin' and Bustlin' for Baby," a unique 1930 collaboration with country singer Jimmie Rodgers, and the two bizarre versions of "Laughin' Louis." The second half of the reissue features Armstrong during 1946-1947, including appearances with the Esquire poll winners (Louis takes a surprisingly modern solo on "Snafu"), the last titles by his big band, a few wonderful combo performances (including the classic "Jack-Armstrong Blues"), and the first songs by Armstrong's All-Stars (co-starring Jack Teagarden); this collection concludes with two unrelated 1956 orchestral tracks. Overall, this is wonderful music, although collectors who already have everything other than the alternates have a right to hesitate."


Louis Armstrong - The Complete RCA Victor Recordings (2001) [4CD] {Bluebird-BMG}


tracklist:
CD1

01 - That's My Home
02 - Hobo, You Can't Ride This Train
03 - I Hate To Leave You Now
04 - You'll Wish You'd Never Been Born
05 - Medley Of Armstrong Hits - Part 1
06 - Medley Of Armstrong Hits - Part 2
07 - I've Got The World On A String
08 - I Got A Right To Sing The Blues
09 - Hustlin' And Bustlin' For Baby
10 - Sittin' In The Dark
11 - High Society
12 - He's A Son Of The South
13 - Some Sweet Day
14 - Basin Street Blues
15 - Honey, Do
16 - Snowball
17 - Mahogany Hall Stomp
18 - Swing, You Cats

CD2
01 - Honey, Don't You Love Me Anymore
02 - Mississippi Basin
03 - Laughin' Louie
04 - Tomorrow Night
05 - Dusky Stevedore
06 - There's A Cabin In The Pines
07 - Mighty River
08 - Sweet Sue, Just You
09 - I Wonder Who
10 - St. Louis Blues
11 - Don't Play Me Cheap
12 - That's My Home (Alternate Take)
13 - Hobo, You Can't Ride This Train (Alternate Take)
14 - I Hate To Leave You Now (Alternate Take)
15 - You'll Wish You'd Never Been Born (Alternate Take)
16 - Medley Of Armstrong Hits - Pt. 2 (Alternate Take)
17 - Mississippi Basin (Alternate Take)
18 - Laughin' Louie (Alternate Take)
19 - Tomorrow Night (Alternate Take)
20 - Blue Yodel No. 9

Louis Armstrong - The Complete RCA Victor Recordings (2001) [4CD] {Bluebird-BMG}


CD3
01 - Long, Long Journey
02 - Snafu
03 - Linger In My Arms A Little Longer
04 - Whatta Ya Gonna Do
05 - No Variety Blues
06 - Joseph 'n' His Brudders
07 - Back O' Town Blues
08 - I Want A Little Girl
09 - Sugar
10 - Blues For Yesterday
11 - Blues In The South
12 - Endie
13 - The Blues Are Brewin'
14 - Do You Know What It Means To Miss New Orleans
15 - Where The Blues Were Born In New Orleans
16 - Mahogany Hall Stomp
17 - I Wonder, I Wonder, I Wonder
18 - I Believe
19 - Why Doubt My Love

CD4
01 - It Takes Time
02 - You Don't Learn That In School
03 - Ain't Misbehavin' (Live)
04 - Rockin' Chair (Live)
05 - Back O' Town Blues (Live)
06 - Pennies From Heaven (Live)
07 - Save It Pretty Mama (Live)
08 - St. James Infirmary (Live)
09 - Jack-Armstrong Blues
10 - Rockin' Chair
11 - Some Day You'll Be Sorry
12 - Fifty-Fifty Blues
13 - A Song Was Born
14 - Please Stop Playin' Those Blues, Boy
15 - Before Long
16 - Lovely Weather We're Having
17 - Rain, Rain
18 - Never Saw A Better Day

EAC extraction logfile from 28. September 2005, 21:48 for CD
Louis Armstrong / The Complete RCA Victor Recordings - Disc 1

Used drive : _NEC DVD_RW ND-2510A Adapter: 1 ID: 0
Read mode : Secure with NO C2, accurate stream, disable cache
Read offset correction : 48
Overread into Lead-In and Lead-Out : No

Used output format : Internal WAV Routines 44.100 Hz; 16 Bit; Stereo

Other options :
Fill up missing offset samples with silence : Yes
Delete leading and trailing silent blocks : No
Native Win32 interface for Win NT & 2000

Track 1
Filename D:\Louis Armstrong - The Complete RCA Victor Recordings (1932-33,1956) [FLAC] {4CD}\Disc 1 of 4\01 - That's My Home.wav Pre-gap length 0:00:02.00 Peak level 99.0 %
Track quality 100.0 %
Test CRC C22442F2
Copy CRC C22442F2
Copy OK

Track 2
Filename D:\Louis Armstrong - The Complete RCA Victor Recordings (1932-33,1956) [FLAC] {4CD}\Disc 1 of 4\02 - Hobo, You Can't Ride This Train.wav Pre-gap length 0:00:01.80 Peak level 99.0 %
Track quality 100.0 %
Test CRC F2E6F8BC
Copy CRC F2E6F8BC
Copy OK

Track 3
Filename D:\Louis Armstrong - The Complete RCA Victor Recordings (1932-33,1956) [FLAC] {4CD}\Disc 1 of 4\03 - I Hate To Leave You Now.wav Pre-gap length 0:00:01.93 Peak level 86.7 %
Track quality 99.9 %
Test CRC D76F94BB
Copy CRC D76F94BB
Copy OK

Track 4
Filename D:\Louis Armstrong - The Complete RCA Victor Recordings (1932-33,1956) [FLAC] {4CD}\Disc 1 of 4\04 - You'll Wish You'd Never Been Born.wav Pre-gap length 0:00:01.80 Peak level 99.5 %
Track quality 100.0 %
Test CRC 91F040AF
Copy CRC 91F040AF
Copy OK

Track 5
Filename D:\Louis Armstrong - The Complete RCA Victor Recordings (1932-33,1956) [FLAC] {4CD}\Disc 1 of 4\05 - Medley Of Armstrong Hits - Part 1.wav Pre-gap length 0:00:02.30 Peak level 96.1 %
Track quality 100.0 %
Test CRC 30A8A0B6
Copy CRC 30A8A0B6
Copy OK

Track 6
Filename D:\Louis Armstrong - The Complete RCA Victor Recordings (1932-33,1956) [FLAC] {4CD}\Disc 1 of 4\06 - Medley Of Armstrong Hits - Part 2.wav Pre-gap length 0:00:01.42 Peak level 99.0 %
Track quality 100.0 %
Test CRC 3D33A637
Copy CRC 3D33A637
Copy OK

Track 7
Filename D:\Louis Armstrong - The Complete RCA Victor Recordings (1932-33,1956) [FLAC] {4CD}\Disc 1 of 4\07 - I've Got The World On A String.wav Pre-gap length 0:00:02.46 Peak level 99.0 %
Track quality 100.0 %
Test CRC 4A707211
Copy CRC 4A707211
Copy OK

Track 8
Filename D:\Louis Armstrong - The Complete RCA Victor Recordings (1932-33,1956) [FLAC] {4CD}\Disc 1 of 4\08 - I Got A Right To Sing The Blues.wav Pre-gap length 0:00:01.69 Peak level 89.5 %
Track quality 100.0 %
Test CRC 14BB94D3
Copy CRC 14BB94D3
Copy OK

Track 9
Filename D:\Louis Armstrong - The Complete RCA Victor Recordings (1932-33,1956) [FLAC] {4CD}\Disc 1 of 4\09 - Hustlin' And Bustlin' For Baby.wav Pre-gap length 0:00:01.82 Peak level 89.4 %
Track quality 100.0 %
Test CRC E8617055
Copy CRC E8617055
Copy OK

Track 10
Filename D:\Louis Armstrong - The Complete RCA Victor Recordings (1932-33,1956) [FLAC] {4CD}\Disc 1 of 4\10 - Sittin' In The Dark.wav Pre-gap length 0:00:01.76 Peak level 95.6 %
Track quality 100.0 %
Test CRC 7DDCAD00
Copy CRC 7DDCAD00
Copy OK

Track 11
Filename D:\Louis Armstrong - The Complete RCA Victor Recordings (1932-33,1956) [FLAC] {4CD}\Disc 1 of 4\11 - High Society.wav Pre-gap length 0:00:01.82 Peak level 99.0 %
Track quality 100.0 %
Test CRC B31C76D7
Copy CRC B31C76D7
Copy OK

Track 12
Filename D:\Louis Armstrong - The Complete RCA Victor Recordings (1932-33,1956) [FLAC] {4CD}\Disc 1 of 4\12 - He's A Son Of The South.wav Pre-gap length 0:00:01.56 Peak level 89.3 %
Track quality 99.9 %
Test CRC B8B0A86D
Copy CRC B8B0A86D
Copy OK

Track 13
Filename D:\Louis Armstrong - The Complete RCA Victor Recordings (1932-33,1956) [FLAC] {4CD}\Disc 1 of 4\13 - Some Sweet Day.wav Pre-gap length 0:00:01.69 Peak level 99.0 %
Track quality 100.0 %
Test CRC DC6A096E
Copy CRC DC6A096E
Copy OK

Track 14
Filename D:\Louis Armstrong - The Complete RCA Victor Recordings (1932-33,1956) [FLAC] {4CD}\Disc 1 of 4\14 - Basin Street Blues.wav Pre-gap length 0:00:01.46 Peak level 99.0 %
Track quality 100.0 %
Test CRC F1F163C8
Copy CRC F1F163C8
Copy OK

Track 15
Filename D:\Louis Armstrong - The Complete RCA Victor Recordings (1932-33,1956) [FLAC] {4CD}\Disc 1 of 4\15 - Honey, Do.wav Pre-gap length 0:00:01.86 Peak level 88.3 %
Track quality 100.0 %
Test CRC 77B58D66
Copy CRC 77B58D66
Copy OK

Track 16
Filename D:\Louis Armstrong - The Complete RCA Victor Recordings (1932-33,1956) [FLAC] {4CD}\Disc 1 of 4\16 - Snowball.wav Pre-gap length 0:00:01.93 Peak level 86.1 %
Track quality 100.0 %
Test CRC 2DC48C18
Copy CRC 2DC48C18
Copy OK

Track 17
Filename D:\Louis Armstrong - The Complete RCA Victor Recordings (1932-33,1956) [FLAC] {4CD}\Disc 1 of 4\17 - Mahogany Hall Stomp.wav Pre-gap length 0:00:01.70 Peak level 74.5 %
Track quality 100.0 %
Test CRC 3E3269AF
Copy CRC 3E3269AF
Copy OK

Track 18
Filename D:\Louis Armstrong - The Complete RCA Victor Recordings (1932-33,1956) [FLAC] {4CD}\Disc 1 of 4\18 - Swing, You Cats.wav Pre-gap length 0:00:01.84 Peak level 99.0 %
Track quality 99.7 %
Test CRC 3A164415
Copy CRC 3A164415
Copy OK

No errors occured

End of status report

EAC extraction logfile from 29. September 2005, 13:46 for CD
Louis Armstrong / The Complete RCA Victor Recordings - Disc 2

Used drive : _NEC DVD_RW ND-2510A Adapter: 1 ID: 0
Read mode : Secure with NO C2, accurate stream, disable cache
Read offset correction : 48
Overread into Lead-In and Lead-Out : No

Used output format : Internal WAV Routines 44.100 Hz; 16 Bit; Stereo

Other options :
Fill up missing offset samples with silence : Yes
Delete leading and trailing silent blocks : No
Native Win32 interface for Win NT & 2000

Track 1
Filename D:\Louis Armstrong - The Complete RCA Victor Recordings (1932-33,1956) [FLAC] {4CD}\Disc 2 of 4\01 - Honey, Don't You Love Me Anymore.wav Pre-gap length 0:00:02.00 Peak level 99.0 %
Track quality 99.7 %
Test CRC 76B3128F
Copy CRC 76B3128F
Copy OK

Track 2
Filename D:\Louis Armstrong - The Complete RCA Victor Recordings (1932-33,1956) [FLAC] {4CD}\Disc 2 of 4\02 - Mississippi Basin.wav Pre-gap length 0:00:01.82 Peak level 91.7 %
Track quality 99.7 %
Test CRC 51EC8D2D
Copy CRC 51EC8D2D
Copy OK

Track 3
Filename D:\Louis Armstrong - The Complete RCA Victor Recordings (1932-33,1956) [FLAC] {4CD}\Disc 2 of 4\03 - Laughin' Louie.wav Pre-gap length 0:00:01.80 Peak level 90.8 %
Track quality 99.9 %
Test CRC 0EE9A15E
Copy CRC 0EE9A15E
Copy OK

Track 4
Filename D:\Louis Armstrong - The Complete RCA Victor Recordings (1932-33,1956) [FLAC] {4CD}\Disc 2 of 4\04 - Tomorrow Night.wav Pre-gap length 0:00:01.80 Peak level 97.3 %
Track quality 100.0 %
Test CRC 84248343
Copy CRC 84248343
Copy OK

Track 5
Filename D:\Louis Armstrong - The Complete RCA Victor Recordings (1932-33,1956) [FLAC] {4CD}\Disc 2 of 4\05 - Dusky Stevedore.wav Pre-gap length 0:00:01.82 Peak level 99.5 %
Track quality 99.9 %
Test CRC 67193E16
Copy CRC 67193E16
Copy OK

Track 6
Filename D:\Louis Armstrong - The Complete RCA Victor Recordings (1932-33,1956) [FLAC] {4CD}\Disc 2 of 4\06 - There's A Cabin In The Pines.wav Pre-gap length 0:00:01.80 Peak level 95.0 %
Track quality 99.9 %
Test CRC 37C5A4A6
Copy CRC 37C5A4A6
Copy OK

Track 7
Filename D:\Louis Armstrong - The Complete RCA Victor Recordings (1932-33,1956) [FLAC] {4CD}\Disc 2 of 4\07 - Mighty River.wav Pre-gap length 0:00:01.82 Peak level 97.4 %
Track quality 100.0 %
Test CRC 6694934D
Copy CRC 6694934D
Copy OK

Track 8
Filename D:\Louis Armstrong - The Complete RCA Victor Recordings (1932-33,1956) [FLAC] {4CD}\Disc 2 of 4\08 - Sweet Sue, Just You.wav Pre-gap length 0:00:01.76 Peak level 98.8 %
Track quality 100.0 %
Test CRC 1E6967D8
Copy CRC 1E6967D8
Copy OK

Track 9
Filename D:\Louis Armstrong - The Complete RCA Victor Recordings (1932-33,1956) [FLAC] {4CD}\Disc 2 of 4\09 - I Wonder Who.wav Pre-gap length 0:00:02.20 Peak level 99.5 %
Track quality 100.0 %
Test CRC 00D96630
Copy CRC 00D96630
Copy OK

Track 10
Filename D:\Louis Armstrong - The Complete RCA Victor Recordings (1932-33,1956) [FLAC] {4CD}\Disc 2 of 4\10 - St. Louis Blues.wav Pre-gap length 0:00:01.96 Peak level 99.5 %
Track quality 99.9 %
Test CRC A4B886BD
Copy CRC A4B886BD
Copy OK

Track 11
Filename D:\Louis Armstrong - The Complete RCA Victor Recordings (1932-33,1956) [FLAC] {4CD}\Disc 2 of 4\11 - Don't Play Me Cheap.wav Pre-gap length 0:00:01.82 Peak level 99.5 %
Track quality 100.0 %
Test CRC F4F55A65
Copy CRC F4F55A65
Copy OK

Track 12
Filename D:\Louis Armstrong - The Complete RCA Victor Recordings (1932-33,1956) [FLAC] {4CD}\Disc 2 of 4\12 - That's My Home (Alternate Take).wav Pre-gap length 0:00:04.80 Peak level 92.6 %
Track quality 100.0 %
Test CRC 9BDD20BA
Copy CRC 9BDD20BA
Copy OK

Track 13
Filename D:\Louis Armstrong - The Complete RCA Victor Recordings (1932-33,1956) [FLAC] {4CD}\Disc 2 of 4\13 - Hobo, You Can't Ride This Train (Alternate Take).wav Pre-gap length 0:00:01.80 Peak level 99.5 %
Track quality 100.0 %
Test CRC 4D534CA2
Copy CRC 4D534CA2
Copy OK

Track 14
Filename D:\Louis Armstrong - The Complete RCA Victor Recordings (1932-33,1956) [FLAC] {4CD}\Disc 2 of 4\14 - I Hate To Leave You Now (Alternate Take).wav Pre-gap length 0:00:01.80 Peak level 92.3 %
Track quality 100.0 %
Test CRC A134DFA3
Copy CRC A134DFA3
Copy OK

Track 15
Filename D:\Louis Armstrong - The Complete RCA Victor Recordings (1932-33,1956) [FLAC] {4CD}\Disc 2 of 4\15 - You'll Wish You'd Never Been Born (Alternate Take).wav Pre-gap length 0:00:01.93 Peak level 98.7 %
Track quality 100.0 %
Test CRC 9FA0BC2F
Copy CRC 9FA0BC2F
Copy OK

Track 16
Filename D:\Louis Armstrong - The Complete RCA Victor Recordings (1932-33,1956) [FLAC] {4CD}\Disc 2 of 4\16 - Medley Of Armstrong Hits - Pt. 2 (Alternate Take).wav Pre-gap length 0:00:01.69 Peak level 100.0 %
Track quality 100.0 %
Test CRC 585D2987
Copy CRC 585D2987
Copy OK

Track 17
Filename D:\Louis Armstrong - The Complete RCA Victor Recordings (1932-33,1956) [FLAC] {4CD}\Disc 2 of 4\17 - Mississippi Basin (Alternate Take).wav Pre-gap length 0:00:01.80 Peak level 91.6 %
Track quality 100.0 %
Test CRC A107C314
Copy CRC A107C314
Copy OK

Track 18
Filename D:\Louis Armstrong - The Complete RCA Victor Recordings (1932-33,1956) [FLAC] {4CD}\Disc 2 of 4\18 - Laughin' Louie (Alternate Take).wav Pre-gap length 0:00:01.80 Peak level 91.3 %
Track quality 100.0 %
Test CRC 23D13669
Copy CRC 23D13669
Copy OK

Track 19
Filename D:\Louis Armstrong - The Complete RCA Victor Recordings (1932-33,1956) [FLAC] {4CD}\Disc 2 of 4\19 - Tomorrow Night (Alternate Take).wav Pre-gap length 0:00:01.76 Peak level 96.9 %
Track quality 99.9 %
Test CRC FFE06D5F
Copy CRC FFE06D5F
Copy OK

Track 20
Filename D:\Louis Armstrong - The Complete RCA Victor Recordings (1932-33,1956) [FLAC] {4CD}\Disc 2 of 4\20 - Blue Yodel No. 9.wav Pre-gap length 0:00:02.04 Peak level 85.0 %
Track quality 99.7 %
Test CRC BB8B7690
Copy CRC BB8B7690
Copy OK

No errors occured

End of status report

EAC extraction logfile from 28. September 2005, 23:46 for CD
Louis Armstrong / The Complete RCA Victor Recordings - Disc 3

Used drive : _NEC DVD_RW ND-2510A Adapter: 1 ID: 0
Read mode : Secure with NO C2, accurate stream, disable cache
Read offset correction : 48
Overread into Lead-In and Lead-Out : No

Used output format : Internal WAV Routines 44.100 Hz; 16 Bit; Stereo

Other options :
Fill up missing offset samples with silence : Yes
Delete leading and trailing silent blocks : No
Native Win32 interface for Win NT & 2000

Track 1
Filename D:\Louis Armstrong - The Complete RCA Victor Recordings (1932-33,1956) [FLAC] {4CD}\Disc 3 of 4\01 - Long, Long Journey.wav Pre-gap length 0:00:02.00 Peak level 88.8 %
Track quality 100.0 %
Test CRC CD3CFD71
Copy CRC CD3CFD71
Copy OK

Track 2
Filename D:\Louis Armstrong - The Complete RCA Victor Recordings (1932-33,1956) [FLAC] {4CD}\Disc 3 of 4\02 - Snafu.wav Pre-gap length 0:00:01.84 Peak level 99.5 %
Track quality 100.0 %
Test CRC 28A2BCAB
Copy CRC 28A2BCAB
Copy OK

Track 3
Filename D:\Louis Armstrong - The Complete RCA Victor Recordings (1932-33,1956) [FLAC] {4CD}\Disc 3 of 4\03 - Linger In My Arms A Little Longer.wav Pre-gap length 0:00:01.82 Peak level 89.4 %
Track quality 100.0 %
Test CRC 892AF4CE
Copy CRC 892AF4CE
Copy OK

Track 4
Filename D:\Louis Armstrong - The Complete RCA Victor Recordings (1932-33,1956) [FLAC] {4CD}\Disc 3 of 4\04 - Whatta Ya Gonna Do.wav Pre-gap length 0:00:01.86 Peak level 97.2 %
Track quality 100.0 %
Test CRC 7CCD8CF9
Copy CRC 7CCD8CF9
Copy OK

Track 5
Filename D:\Louis Armstrong - The Complete RCA Victor Recordings (1932-33,1956) [FLAC] {4CD}\Disc 3 of 4\05 - No Variety Blues.wav Pre-gap length 0:00:02.06 Peak level 91.9 %
Track quality 100.0 %
Test CRC 0494CC0C
Copy CRC 0494CC0C
Copy OK

Track 6
Filename D:\Louis Armstrong - The Complete RCA Victor Recordings (1932-33,1956) [FLAC] {4CD}\Disc 3 of 4\06 - Joseph 'n' His Brudders.wav Pre-gap length 0:00:01.82 Peak level 81.8 %
Track quality 99.9 %
Test CRC 0624EB32
Copy CRC 0624EB32
Copy OK

Track 7
Filename D:\Louis Armstrong - The Complete RCA Victor Recordings (1932-33,1956) [FLAC] {4CD}\Disc 3 of 4\07 - Back O' Town Blues.wav Pre-gap length 0:00:01.82 Peak level 86.3 %
Track quality 100.0 %
Test CRC 75F64D2F
Copy CRC 75F64D2F
Copy OK

Track 8
Filename D:\Louis Armstrong - The Complete RCA Victor Recordings (1932-33,1956) [FLAC] {4CD}\Disc 3 of 4\08 - I Want A Little Girl.wav Pre-gap length 0:00:01.82 Peak level 75.8 %
Track quality 100.0 %
Test CRC D1842589
Copy CRC D1842589
Copy OK

Track 9
Filename D:\Louis Armstrong - The Complete RCA Victor Recordings (1932-33,1956) [FLAC] {4CD}\Disc 3 of 4\09 - Sugar.wav Pre-gap length 0:00:01.82 Peak level 84.8 %
Track quality 100.0 %
Test CRC 86832DC7
Copy CRC 86832DC7
Copy OK

Track 10
Filename D:\Louis Armstrong - The Complete RCA Victor Recordings (1932-33,1956) [FLAC] {4CD}\Disc 3 of 4\10 - Blues For Yesterday.wav Pre-gap length 0:00:01.82 Peak level 69.2 %
Track quality 100.0 %
Test CRC B2B6AA4E
Copy CRC B2B6AA4E
Copy OK

Track 11
Filename D:\Louis Armstrong - The Complete RCA Victor Recordings (1932-33,1956) [FLAC] {4CD}\Disc 3 of 4\11 - Blues In The South.wav Pre-gap length 0:00:01.82 Peak level 86.1 %
Track quality 99.9 %
Test CRC 9F5AAAD2
Copy CRC 9F5AAAD2
Copy OK

Track 12
Filename D:\Louis Armstrong - The Complete RCA Victor Recordings (1932-33,1956) [FLAC] {4CD}\Disc 3 of 4\12 - Endie.wav Pre-gap length 0:00:01.82 Peak level 94.9 %
Track quality 100.0 %
Test CRC E13F0D75
Copy CRC E13F0D75
Copy OK

Track 13
Filename D:\Louis Armstrong - The Complete RCA Victor Recordings (1932-33,1956) [FLAC] {4CD}\Disc 3 of 4\13 - The Blues Are Brewin'.wav Pre-gap length 0:00:01.84 Peak level 86.9 %
Track quality 100.0 %
Test CRC 5D6496D1
Copy CRC 5D6496D1
Copy OK

Track 14
Filename D:\Louis Armstrong - The Complete RCA Victor Recordings (1932-33,1956) [FLAC] {4CD}\Disc 3 of 4\14 - Do You Know What It Means To Miss New Orleans .wav Pre-gap length 0:00:01.82 Peak level 98.3 %
Track quality 100.0 %
Test CRC CA01109C
Copy CRC CA01109C
Copy OK

Track 15
Filename D:\Louis Armstrong - The Complete RCA Victor Recordings (1932-33,1956) [FLAC] {4CD}\Disc 3 of 4\15 - Where The Blues Were Born In New Orleans.wav Pre-gap length 0:00:01.82 Peak level 99.1 %
Track quality 100.0 %
Test CRC BB117B10
Copy CRC BB117B10
Copy OK

Track 16
Filename D:\Louis Armstrong - The Complete RCA Victor Recordings (1932-33,1956) [FLAC] {4CD}\Disc 3 of 4\16 - Mahogany Hall Stomp.wav Pre-gap length 0:00:01.93 Peak level 99.6 %
Track quality 99.9 %
Test CRC 06A3210D
Copy CRC 06A3210D
Copy OK

Track 17
Filename D:\Louis Armstrong - The Complete RCA Victor Recordings (1932-33,1956) [FLAC] {4CD}\Disc 3 of 4\17 - I Wonder, I Wonder, I Wonder.wav Pre-gap length 0:00:01.84 Peak level 89.8 %
Track quality 100.0 %
Test CRC 29580F74
Copy CRC 29580F74
Copy OK

Track 18
Filename D:\Louis Armstrong - The Complete RCA Victor Recordings (1932-33,1956) [FLAC] {4CD}\Disc 3 of 4\18 - I Believe.wav Pre-gap length 0:00:01.84 Peak level 78.4 %
Track quality 100.0 %
Test CRC 95D16868
Copy CRC 95D16868
Copy OK

Track 19
Filename D:\Louis Armstrong - The Complete RCA Victor Recordings (1932-33,1956) [FLAC] {4CD}\Disc 3 of 4\19 - Why Doubt My Love .wav Pre-gap length 0:00:01.82 Peak level 88.5 %
Track quality 100.0 %
Test CRC FBA362D1
Copy CRC FBA362D1
Copy OK

No errors occured

End of status report

EAC extraction logfile from 29. September 2005, 22:47 for CD
Louis Armstrong / The Complete RCA Victor Recordings - Disc 4

Used drive : _NEC DVD_RW ND-2510A Adapter: 1 ID: 0
Read mode : Secure with NO C2, accurate stream, disable cache
Read offset correction : 48
Overread into Lead-In and Lead-Out : No

Used output format : Internal WAV Routines 44.100 Hz; 16 Bit; Stereo

Other options :
Fill up missing offset samples with silence : Yes
Delete leading and trailing silent blocks : No
Native Win32 interface for Win NT & 2000

Track 1
Filename D:\Louis Armstrong - The Complete RCA Victor Recordings (1932-33,1956) [FLAC] {4CD}\Disc 4 of 4\01 - It Takes Time.wav Pre-gap length 0:00:02.00 Peak level 86.1 %
Track quality 100.0 %
Test CRC C7CD4E39
Copy CRC C7CD4E39
Copy OK

Track 2
Filename D:\Louis Armstrong - The Complete RCA Victor Recordings (1932-33,1956) [FLAC] {4CD}\Disc 4 of 4\02 - You Don't Learn That In School.wav Pre-gap length 0:00:01.77 Peak level 86.9 %
Track quality 99.9 %
Test CRC 59AF4B3D
Copy CRC 59AF4B3D
Copy OK

Track 3
Filename D:\Louis Armstrong - The Complete RCA Victor Recordings (1932-33,1956) [FLAC] {4CD}\Disc 4 of 4\03 - Ain't Misbehavin' (Live).wav Pre-gap length 0:00:01.80 Peak level 90.0 %
Track quality 100.0 %
Test CRC 6071F283
Copy CRC 6071F283
Copy OK

Track 4
Filename D:\Louis Armstrong - The Complete RCA Victor Recordings (1932-33,1956) [FLAC] {4CD}\Disc 4 of 4\04 - Rockin' Chair (Live).wav Pre-gap length 0:00:01.66 Peak level 83.3 %
Track quality 100.0 %
Test CRC 46BA25AD
Copy CRC 46BA25AD
Copy OK

Track 5
Filename D:\Louis Armstrong - The Complete RCA Victor Recordings (1932-33,1956) [FLAC] {4CD}\Disc 4 of 4\05 - Back O' Town Blues (Live).wav Pre-gap length 0:00:01.80 Peak level 96.8 %
Track quality 99.9 %
Test CRC 555827C8
Copy CRC 555827C8
Copy OK

Track 6
Filename D:\Louis Armstrong - The Complete RCA Victor Recordings (1932-33,1956) [FLAC] {4CD}\Disc 4 of 4\06 - Pennies From Heaven (Live).wav Pre-gap length 0:00:01.80 Peak level 75.9 %
Track quality 100.0 %
Test CRC 5B6FC119
Copy CRC 5B6FC119
Copy OK

Track 7
Filename D:\Louis Armstrong - The Complete RCA Victor Recordings (1932-33,1956) [FLAC] {4CD}\Disc 4 of 4\07 - Save It Pretty Mama (Live).wav Pre-gap length 0:00:01.76 Peak level 75.2 %
Track quality 99.9 %
Test CRC 34FF0581
Copy CRC 34FF0581
Copy OK

Track 8
Filename D:\Louis Armstrong - The Complete RCA Victor Recordings (1932-33,1956) [FLAC] {4CD}\Disc 4 of 4\08 - St. James Infirmary (Live).wav Pre-gap length 0:00:01.77 Peak level 71.2 %
Track quality 100.0 %
Test CRC 55E723EC
Copy CRC 55E723EC
Copy OK

Track 9
Filename D:\Louis Armstrong - The Complete RCA Victor Recordings (1932-33,1956) [FLAC] {4CD}\Disc 4 of 4\09 - Jack-Armstrong Blues.wav Pre-gap length 0:00:01.80 Peak level 99.5 %
Track quality 100.0 %
Test CRC 41DC3E36
Copy CRC 41DC3E36
Copy OK

Track 10
Filename D:\Louis Armstrong - The Complete RCA Victor Recordings (1932-33,1956) [FLAC] {4CD}\Disc 4 of 4\10 - Rockin' Chair.wav Pre-gap length 0:00:01.80 Peak level 84.0 %
Track quality 100.0 %
Test CRC 77050EA5
Copy CRC 77050EA5
Copy OK

Track 11
Filename D:\Louis Armstrong - The Complete RCA Victor Recordings (1932-33,1956) [FLAC] {4CD}\Disc 4 of 4\11 - Some Day You'll Be Sorry.wav Pre-gap length 0:00:01.76 Peak level 85.9 %
Track quality 99.9 %
Test CRC C390AC70
Copy CRC C390AC70
Copy OK

Track 12
Filename D:\Louis Armstrong - The Complete RCA Victor Recordings (1932-33,1956) [FLAC] {4CD}\Disc 4 of 4\12 - Fifty-Fifty Blues.wav Pre-gap length 0:00:01.80 Peak level 96.1 %
Track quality 100.0 %
Test CRC DD963B67
Copy CRC DD963B67
Copy OK

Track 13
Filename D:\Louis Armstrong - The Complete RCA Victor Recordings (1932-33,1956) [FLAC] {4CD}\Disc 4 of 4\13 - A Song Was Born.wav Pre-gap length 0:00:01.84 Peak level 88.6 %
Track quality 100.0 %
Test CRC 37CA8AC7
Copy CRC 37CA8AC7
Copy OK

Track 14
Filename D:\Louis Armstrong - The Complete RCA Victor Recordings (1932-33,1956) [FLAC] {4CD}\Disc 4 of 4\14 - Please Stop Playin' Those Blues, Boy.wav Pre-gap length 0:00:01.76 Peak level 99.5 %
Track quality 100.0 %
Test CRC 504914EE
Copy CRC 504914EE
Copy OK

Track 15
Filename D:\Louis Armstrong - The Complete RCA Victor Recordings (1932-33,1956) [FLAC] {4CD}\Disc 4 of 4\15 - Before Long.wav Pre-gap length 0:00:01.76 Peak level 87.2 %
Track quality 100.0 %
Test CRC 3FE282C9
Copy CRC 3FE282C9
Copy OK

Track 16
Filename D:\Louis Armstrong - The Complete RCA Victor Recordings (1932-33,1956) [FLAC] {4CD}\Disc 4 of 4\16 - Lovely Weather We're Having.wav Pre-gap length 0:00:01.76 Peak level 89.0 %
Track quality 99.9 %
Test CRC A21B9545
Copy CRC A21B9545
Copy OK

Track 17
Filename D:\Louis Armstrong - The Complete RCA Victor Recordings (1932-33,1956) [FLAC] {4CD}\Disc 4 of 4\17 - Rain, Rain.wav Pre-gap length 0:00:01.76 Peak level 98.0 %
Track quality 99.7 %
Test CRC 5488492E
Copy CRC 5488492E
Copy OK

Track 18
Filename D:\Louis Armstrong - The Complete RCA Victor Recordings (1932-33,1956) [FLAC] {4CD}\Disc 4 of 4\18 - Never Saw A Better Day.wav Pre-gap length 0:00:01.76 Peak level 85.7 %
Track quality 100.0 %
Test CRC 13D52D85
Copy CRC 13D52D85
Copy OK

No errors occured

End of status report

Louis Armstrong - The Complete RCA Victor Recordings (2001) [4CD] {Bluebird-BMG}

Louis Armstrong - The Complete RCA Victor Recordings (2001) [4CD] {Bluebird-BMG}


DOWNLOAD LINKS
Buy Premium From My Links To Get Resumable Support & Max Speed & To Support Me

Rapidgator.net:
http://rapidgator.net/file/83c0eed7e0db21dc4030835784e34fe9/zx1gz.armstrongcompletercavictorARTWORK.rar.html
http://rapidgator.net/file/fbc9726d3fd44785c6ba46e7e7dae258/zx1gz.armstrongcompletercavictorCD1.part1.rar.html
http://rapidgator.net/file/2a6827404ed7038a27a51da05fce056c/zx1gz.armstrongcompletercavictorCD1.part2.rar.html
http://rapidgator.net/file/59304ccf11cf454888af81e9fad5bdf9/zx1gz.armstrongcompletercavictorCD1MP.rar.html
http://rapidgator.net/file/8d53d85c0e4cddbe5d19731cdab9a92e/zx1gz.armstrongcompletercavictorCD2.part1.rar.html
http://rapidgator.net/file/8996c4463a3dd5ede810f3d2b23d583d/zx1gz.armstrongcompletercavictorCD2.part2.rar.html
http://rapidgator.net/file/8e125a138f0ccf79d2d2f33d6a154669/zx1gz.armstrongcompletercavictorCD2MP.rar.html
http://rapidgator.net/file/e894e69079d118248255fd9e870a44f3/zx1gz.armstrongcompletercavictorCD3.part1.rar.html
http://rapidgator.net/file/473dd7cbe802cc467b9f925acac02672/zx1gz.armstrongcompletercavictorCD3.part2.rar.html
http://rapidgator.net/file/c7b579a3bd6936f56b5403474ccceb43/zx1gz.armstrongcompletercavictorCD3MP.rar.html
http://rapidgator.net/file/7c5448555e8db74b54ab37f7b6037800/zx1gz.armstrongcompletercavictorCD4.part1.rar.html
http://rapidgator.net/file/39d713268ff262a51f622ce12d33b463/zx1gz.armstrongcompletercavictorCD4.part2.rar.html
http://rapidgator.net/file/a9bbc2f68c33f9b793d918d8d93dc2b3/zx1gz.armstrongcompletercavictorCD4MP.rar.html

Uploaded.net:
http://uploaded.net/file/govh8m0c/zx1gz.armstrongcompletercavictorARTWORK.rar
http://uploaded.net/file/o4ewnxos/zx1gz.armstrongcompletercavictorCD1.part1.rar
http://uploaded.net/file/4u68g163/zx1gz.armstrongcompletercavictorCD1.part2.rar
http://uploaded.net/file/30qu3api/zx1gz.armstrongcompletercavictorCD1MP.rar
http://uploaded.net/file/9pjji17z/zx1gz.armstrongcompletercavictorCD2.part1.rar
http://uploaded.net/file/kz1o10jg/zx1gz.armstrongcompletercavictorCD2.part2.rar
http://uploaded.net/file/oh2x3oc2/zx1gz.armstrongcompletercavictorCD2MP.rar
http://uploaded.net/file/98mrd4h8/zx1gz.armstrongcompletercavictorCD3.part1.rar
http://uploaded.net/file/jemzj32z/zx1gz.armstrongcompletercavictorCD3.part2.rar
http://uploaded.net/file/4x72eong/zx1gz.armstrongcompletercavictorCD3MP.rar
http://uploaded.net/file/fhfb4vcc/zx1gz.armstrongcompletercavictorCD4.part1.rar
http://uploaded.net/file/ls7gaas1/zx1gz.armstrongcompletercavictorCD4.part2.rar
http://uploaded.net/file/s0vq9t28/zx1gz.armstrongcompletercavictorCD4MP.rar

Uploadable.ch:
http://www.uploadable.ch/file/Sjwu7PgP9G2q/zx1gz.armstrongcompletercavictorARTWORK.rar
http://www.uploadable.ch/file/VrV94qqS58aD/zx1gz.armstrongcompletercavictorCD1.part1.rar
http://www.uploadable.ch/file/dYNRGNrEWaYY/zx1gz.armstrongcompletercavictorCD1.part2.rar
http://www.uploadable.ch/file/qV6syU2NyW3C/zx1gz.armstrongcompletercavictorCD1MP.rar
http://www.uploadable.ch/file/69u9jUH82vYz/zx1gz.armstrongcompletercavictorCD2.part1.rar
http://www.uploadable.ch/file/qATQrrZs2Haq/zx1gz.armstrongcompletercavictorCD2.part2.rar
http://www.uploadable.ch/file/R6ackkEz9qVD/zx1gz.armstrongcompletercavictorCD2MP.rar
http://www.uploadable.ch/file/Dun5qVQdFqRw/zx1gz.armstrongcompletercavictorCD3.part1.rar
http://www.uploadable.ch/file/ChjRBPbtnFMz/zx1gz.armstrongcompletercavictorCD3.part2.rar
http://www.uploadable.ch/file/zr9bEZBG8rh6/zx1gz.armstrongcompletercavictorCD3MP.rar
http://www.uploadable.ch/file/7PxMeyfT9SkF/zx1gz.armstrongcompletercavictorCD4.part1.rar
http://www.uploadable.ch/file/BDN6Jq3J97tf/zx1gz.armstrongcompletercavictorCD4.part2.rar
http://www.uploadable.ch/file/UjMYDdKTpuGG/zx1gz.armstrongcompletercavictorCD4MP.rar

Links are Interchangeable - No Password - Single Extraction
Direct Download

Tags: Armstrong, Complete, Victor, Recordings, Bluebird

Louis Armstrong - The Complete RCA Victor Recordings (2001) [4CD] {Bluebird-BMG} Download via Hotfile Rapidshare Fileserve Megaupload & FileSonic, Louis Armstrong - The Complete RCA Victor Recordings (2001) [4CD] {Bluebird-BMG} free torrent downloads included crack, serial, keygen.Louis Armstrong - The Complete RCA Victor Recordings (2001) [4CD] {Bluebird-BMG} Fast Download via Rapidshare Hotfile Fileserve Filesonic Megaupload, Louis Armstrong - The Complete RCA Victor Recordings (2001) [4CD] {Bluebird-BMG} Torrents and Emule Download or anything related.
Leave a Comment
Your Name:
E-Mail:
Add Comments:

Enter Code: