No Doubt - Icon (2010)

Download Now

No Doubt - Icon (2010)

No Doubt - Icon (2010)
EAC | FLAC | Tracks (Cue&Log) ~ 485 Mb (incl 5%) | Mp3 (CBR320) ~ 166 Mb (incl 5%) | Scans included
Genre: Ska Punk, Alternative Pop/Rock | Label: Interscope | # 0602527472522 | Time: 00:59:43

"No Doubt's 2010 installment in Universal's ongoing Icon series is a retitled reissue of the excellent 2003 compilation The Singles 1992-2003. Spanning 15 tracks, the disc is sequenced like a concert, favoring forward momentum over chronological history, and that's a point in its favor since it shines a spotlight on individual songs, not eras. More than anything, this highlights No Doubt's consistency as a singles band, since the defining breakthrough single, "Just a Girl," is as exciting as both the band's pre-fame "Trapped in a Box" and the sexy neo-electro grind of "Hella Good." It also shows that even if lead singer Gwen Stefani grew increasingly assured and sexier over the years (compare the seductive "Underneath It All" to the breathy, naïve "Don't Speak") and even if she was always rightly the focal point, the band itself is a muscular, versatile, tuneful outfit, rooted in ska revivals like "Spiderwebs" but equally convincing when turning out spiky pop like the glorious "New," the hard-rocking "Sunday Morning" and "Ex-Girlfriend," the sighing ballad "Simple Kind of Life," or the rubbery, reggae-inflected "Hey Baby"."



Tracklist:

01. Just A Girl (03:25)
02. It's My Life (03:45)
03. Hey Baby [Featuring Bounty Killer] (03:26)
04. Bathwater (04:00)
05. Sunday Morning (04:31)
06. Hella Good (04:02)
07. New (04:24)
08. Underneath It All [Featuring Lady Saw] (05:02)
09. Excuse Me Mr. (03:04)
10. Running (04:00)
11. Spiderwebs (04:26)
12. Simple Kind Of Life (04:15)
13. Don't Speak (04:22)
14. Ex-Girlfriend (03:31)
15. Trapped In A Box (03:23)


Exact Audio Copy V1.0 beta 1 from 15. November 2010

EAC extraction logfile from 13. April 2011, 23:51

No Doubt / Icon

Used drive : HL-DT-STDVD-RAM GSA-H30N Adapter: 3 ID: 0

Read mode : Secure
Utilize accurate stream : Yes
Defeat audio cache : Yes
Make use of C2 pointers : No

Read offset correction

: 102
Overread into Lead-In and Lead-Out : No
Fill up missing offset samples with silence : Yes
Delete leading and trailing silent blocks : No
Null samples used in CRC calculations : Yes
Used interface
: Native Win32 interface for Win NT & 2000
Gap handling
: Appended to previous track

Used output format : User Defined Encoder
Selected bitrate : 256 kBit/s
Quality : High
Add ID3 tag : No
Command line compressor : C:\Program Files\Exact Audio Copy\Flac\flac.exe
Additional command line options : -8 -V -T "ARTIST=%a" -T "TITLE=%t" -T "ALBUM=%g" -T "DATE=%y" -T "TRACKNUMBER=%n" -T "TOTALTRACKS=%x" -T "GENRE=%m" -T "ALBUMARTIST=%v" -T "ALBUM ARTIST=%v" -T "COMMENT=EAC Secure Mode, Test & Copy, AccurateRip, FLAC -8" %s

TOC of the extracted CD Track | Start | Length | Start sector | End sector
--1 | 0:00.00 | 3:25.71 | 0 | 15445 2 | 3:25.71 | 3:45.65 | 15446 | 32385 3 | 7:11.61 | 3:26.57 | 32386 | 47892 4 | 10:38.43 | 4:00.30 | 47893 | 65922 5 | 14:38.73 | 4:31.21 | 65923 | 86268 6 | 19:10.19 | 4:02.27 | 86269 | 104445 7 | 23:12.46 | 4:24.19 | 104446 | 124264 8 | 27:36.65 | 5:02.03 | 124265 | 146917 9 | 32:38.68 | 3:04.47 | 146918 | 160764
10 | 35:43.40 | 4:00.66 | 160765 | 178830
11 | 39:44.31 | 4:26.53 | 178831 | 198833
12 | 44:11.09 | 4:15.49 | 198834 | 218007
13 | 48:26.58 | 4:22.56 | 218008 | 237713
14 | 52:49.39 | 3:31.30 | 237714 | 253568
15 | 56:20.69 | 3:23.45 | 253569 | 268838

Track 1 Filename D:\my rips\Pop-Rock\No Doubt\No Doubt - Icon (2010) [FLAC] {2011 European Release}\01 - Just A Girl.wav Pre-gap length 0:00:02.00 Peak level 99.9 %
Extraction speed 1.5 X
Track quality 100.0 %
Test CRC D84AC9FA
Copy CRC D84AC9FA
Accurately ripped (confidence 3) [8591DC46]
Copy OK

Track 2 Filename D:\my rips\Pop-Rock\No Doubt\No Doubt - Icon (2010) [FLAC] {2011 European Release}\02 - It's My Life.wav Peak level 96.8 %
Extraction speed 1.7 X
Track quality 100.0 %
Test CRC 841C1CB0
Copy CRC 841C1CB0
Accurately ripped (confidence 3) [26665F0A]
Copy OK

Track 3 Filename D:\my rips\Pop-Rock\No Doubt\No Doubt - Icon (2010) [FLAC] {2011 European Release}\03 - Hey Baby [Featuring Bounty Killer].wav Peak level 93.3 %
Extraction speed 1.8 X
Track quality 100.0 %
Test CRC 066396BB
Copy CRC 066396BB
Accurately ripped (confidence 3) [1B5C5712]
Copy OK

Track 4 Filename D:\my rips\Pop-Rock\No Doubt\No Doubt - Icon (2010) [FLAC] {2011 European Release}\04 - Bathwater.wav Peak level 98.8 %
Extraction speed 1.8 X
Track quality 99.9 %
Test CRC C1DFBDF2
Copy CRC C1DFBDF2
Accurately ripped (confidence 3) [87FD33BF]
Copy OK

Track 5 Filename D:\my rips\Pop-Rock\No Doubt\No Doubt - Icon (2010) [FLAC] {2011 European Release}\05 - Sunday Morning.wav Peak level 99.9 %
Extraction speed 1.9 X
Track quality 99.9 %
Test CRC 8330B720
Copy CRC 8330B720
Accurately ripped (confidence 3) [9F470D15]
Copy OK

Track 6 Filename D:\my rips\Pop-Rock\No Doubt\No Doubt - Icon (2010) [FLAC] {2011 European Release}\06 - Hella Good.wav Peak level 100.0 %
Extraction speed 2.3 X
Track quality 100.0 %
Test CRC 6417BA6D
Copy CRC 6417BA6D
Accurately ripped (confidence 3) [24780175]
Copy OK

Track 7 Filename D:\my rips\Pop-Rock\No Doubt\No Doubt - Icon (2010) [FLAC] {2011 European Release}\07 - New.wav Pre-gap length 0:00:00.08 Peak level 98.8 %
Extraction speed 2.4 X
Track quality 100.0 %
Test CRC BF36E149
Copy CRC BF36E149
Accurately ripped (confidence 3) [5227FBB2]
Copy OK

Track 8 Filename D:\my rips\Pop-Rock\No Doubt\No Doubt - Icon (2010) [FLAC] {2011 European Release}\08 - Underneath It All [Featuring Lady Saw].wav Peak level 100.0 %
Extraction speed 2.6 X
Track quality 100.0 %
Test CRC 6D133166
Copy CRC 6D133166
Accurately ripped (confidence 3) [50043106]
Copy OK

Track 9 Filename D:\my rips\Pop-Rock\No Doubt\No Doubt - Icon (2010) [FLAC] {2011 European Release}\09 - Excuse Me Mr..wav Peak level 95.8 %
Extraction speed 2.1 X
Track quality 99.9 %
Test CRC 940D2568
Copy CRC 940D2568
Accurately ripped (confidence 3) [A35E7BA8]
Copy OK

Track 10 Filename D:\my rips\Pop-Rock\No Doubt\No Doubt - Icon (2010) [FLAC] {2011 European Release}\10 - Running.wav Pre-gap length 0:00:00.16 Peak level 98.8 %
Extraction speed 2.7 X
Track quality 100.0 %
Test CRC 0617482B
Copy CRC 0617482B
Accurately ripped (confidence 3) [A46FE007]
Copy OK

Track 11 Filename D:\my rips\Pop-Rock\No Doubt\No Doubt - Icon (2010) [FLAC] {2011 European Release}\11 - Spiderwebs.wav Pre-gap length 0:00:00.09 Peak level 98.8 %
Extraction speed 2.9 X
Track quality 100.0 %
Test CRC C1C97D3A
Copy CRC C1C97D3A
Accurately ripped (confidence 3) [F36E1C99]
Copy OK

Track 12 Filename D:\my rips\Pop-Rock\No Doubt\No Doubt - Icon (2010) [FLAC] {2011 European Release}\12 - Simple Kind Of Life.wav Peak level 98.8 %
Extraction speed 3.0 X
Track quality 100.0 %
Test CRC 16511D62
Copy CRC 16511D62
Accurately ripped (confidence 3) [5B15185B]
Copy OK

Track 13 Filename D:\my rips\Pop-Rock\No Doubt\No Doubt - Icon (2010) [FLAC] {2011 European Release}\13 - Don't Speak.wav Peak level 97.3 %
Extraction speed 3.1 X
Track quality 100.0 %
Test CRC 61D3F5BE
Copy CRC 61D3F5BE
Accurately ripped (confidence 3) [2AEF8019]
Copy OK

Track 14 Filename D:\my rips\Pop-Rock\No Doubt\No Doubt - Icon (2010) [FLAC] {2011 European Release}\14 - Ex-Girlfriend.wav Peak level 98.8 %
Extraction speed 3.0 X
Track quality 100.0 %
Test CRC 0A29BB87
Copy CRC 0A29BB87
Accurately ripped (confidence 3) [706AE8F1]
Copy OK

Track 15 Filename D:\my rips\Pop-Rock\No Doubt\No Doubt - Icon (2010) [FLAC] {2011 European Release}\15 - Trapped In A Box.wav Pre-gap length 0:00:00.23 Peak level 98.8 %
Extraction speed 3.1 X
Track quality 100.0 %
Test CRC 68A1AE9C
Copy CRC 68A1AE9C
Accurately ripped (confidence 3) [417279ED]
Copy OK

All tracks accurately ripped

No errors occurred

End of status report

==== Log checksum DDE95F28F4B4B74C39C40223C37270E41AAF93C23F32EB8EE2A30052A4135CF2 ====

foobar2000 1.2 / Dynamic Range Meter 1.1.1
log date: 2015-08-04 15:19:05

Analyzed: No Doubt / Icon

DR Peak RMS Duration Track

DR5 0.00 dB -6.43 dB 3:26 01-Just A Girl
DR5 -0.28 dB -7.75 dB 3:46 02-It's My Life
DR4 -0.60 dB -6.34 dB 3:27 03-Hey Baby [Featuring Bounty Killer]
DR5 -0.10 dB -7.86 dB 4:00 04-Bathwater
DR6 0.00 dB -7.24 dB 4:31 05-Sunday Morning
DR6 0.00 dB -7.99 dB 4:02 06-Hella Good
DR6 -0.10 dB -8.48 dB 4:24 07-New
DR7 0.00 dB -8.23 dB 5:02 08-Underneath It All [Featuring Lady Saw]
DR7 -0.36 dB -7.80 dB 3:05 09-Excuse Me Mr.
DR7 -0.10 dB -9.60 dB 4:01 10-Running
DR6 -0.10 dB -6.60 dB 4:27 11-Spiderwebs
DR5 -0.10 dB -7.53 dB 4:16 12-Simple Kind Of Life
DR7 -0.23 dB -8.37 dB 4:23 13-Don't Speak
DR5 -0.10 dB -6.62 dB 3:31 14-Ex-Girlfriend
DR5 -0.10 dB -5.67 dB 3:24 15-Trapped In A Box

Number of tracks: 15
Official DR value: DR6

Samplerate: 44100 Hz
Channels: 2
Bits per sample: 16
Bitrate: 1042 kbps
Codec: FLAC

No Doubt - Icon (2010)

No Doubt - Icon (2010)

Password: designol

DOWNLOAD LINKS
Buy Premium From My Links To Get Resumable Support & Max Speed & To Support Me


Links are Interchangeable - No Password - Single Extraction
Direct Download

No Doubt - Icon (2010) Download via Hotfile Rapidshare Fileserve Megaupload & FileSonic, No Doubt - Icon (2010) free torrent downloads included crack, serial, keygen.No Doubt - Icon (2010) Fast Download via Rapidshare Hotfile Fileserve Filesonic Megaupload, No Doubt - Icon (2010) Torrents and Emule Download or anything related.
Leave a Comment
Your Name:
E-Mail:
Add Comments:

Enter Code: